osu file format v14

[General]
AudioFilename: audio.mp3
AudioLeadIn: 0
PreviewTime: 72873
Countdown: 0
SampleSet: Normal
StackLeniency: 0.5
Mode: 2
LetterboxInBreaks: 0
WidescreenStoryboard: 1

[Editor]
DistanceSpacing: 1.5
BeatDivisor: 8
GridSize: 4
TimelineZoom: 1.5

[Metadata]
Title:Hakone Hakoiri Musume
TitleUnicode:ハコネハコイリムスメ
Artist:petit milady
ArtistUnicode:petit milady
Creator:IMkoley
Version:av6
Source:温泉幼精ハコネちゃん
Tags:Onsen Yousei Hakone-chan 悠木碧 Yuuki Aoi 竹達彩奈
BeatmapID:1229924
BeatmapSetID:580973

[Difficulty]
HPDrainRate:6
CircleSize:4
OverallDifficulty:9.2
ApproachRate:9.2
SliderMultiplier:1.55
SliderTickRate:1

[Events]
//Background and Video events
0,0,"cutebg.jpg",0,0
//Break Periods
//Storyboard Layer 0 (Background)
//Storyboard Layer 1 (Fail)
//Storyboard Layer 2 (Pass)
//Storyboard Layer 3 (Foreground)
//Storyboard Sound Samples

[TimingPoints]
1078,272.727272727273,4,2,0,50,1,0
1078,-111.111111111111,4,2,0,50,0,0
7623,-100,4,1,1,70,0,0
9532,-76.9230769230769,4,1,1,70,0,0
13214,-100,4,1,1,70,0,0
13623,-76.9230769230769,4,1,1,70,0,0
16350,-100,4,1,1,70,0,0
18259,-76.9230769230769,4,1,1,70,0,0
18532,-100,4,1,1,70,0,0
26987,-142.857142857143,4,1,1,70,0,0
27259,-111.111111111111,4,2,2,55,0,0
34896,-76.9230769230769,4,1,1,60,0,0
35987,-100,4,1,1,60,0,0
41441,-76.9230769230769,4,1,1,60,0,0
42532,-100,4,1,1,60,0,0
44168,-142.857142857143,4,1,1,60,0,0
44714,-100,4,1,1,60,0,0
63805,-66.6666666666667,4,1,1,60,0,0
64009,-66.6666666666667,4,1,1,5,0,0
64078,-66.6666666666667,4,2,92,60,0,0
64282,-66.6666666666667,4,1,1,5,0,0
64350,-100,4,1,1,60,0,1
82487,-100,4,1,1,60,0,1
82759,-100,4,1,1,60,0,1
84668,-100,4,1,1,60,0,1
84941,-100,4,1,1,60,0,1
90259,-76.9230769230769,4,1,1,60,0,1
90532,-76.9230769230769,4,1,1,60,0,0
93941,-100,4,1,1,60,0,0
94350,-76.9230769230769,4,1,1,60,0,0
97078,-100,4,1,1,60,0,0
98987,-76.9230769230769,4,1,1,60,0,0
99259,-100,4,1,1,60,0,0
101168,-76.9230769230769,4,1,1,60,0,0
101441,-100,4,1,1,60,0,0
103623,-76.9230769230769,4,1,1,60,0,0
105532,-100,4,2,1,5,0,0

[Colours]
Combo1 : 255,197,21
Combo2 : 103,252,14
Combo3 : 77,196,253
Combo4 : 243,67,94

[HitObjects]
174,109,1078,6,0,L|36:124,1,139.499995742798,0|2,0:0|0:0,0:0:0:0:
332,92,1487,1,2,0:0:0:0:
132,220,1759,2,0,P|84:168|80:136,1,104.624996807098
420,80,2032,2,0,P|405:129|432:176,1,104.624996807098
96,292,2305,2,0,B|136:204,1,87.1874973392487
308,216,2578,5,2,0:0:0:0:
0,195,2714,2,0,P|69:163|134:149,1,139.499995742798,2|2,0:0|0:0,0:0:0:0:
512,262,3259,6,0,P|432:266|364:282,1,139.499995742798,0|2,0:0|0:0,0:0:0:0:
70,296,3668,1,2,0:0:0:0:
256,172,3941,1,2,0:0:0:0:
40,200,4214,1,2,0:0:0:0:
252,136,4487,1,2,0:0:0:0:
456,204,4759,5,2,0:0:0:0:
120,168,4896,2,0,B|40:96|40:96|101:98,1,139.499995742798,2|2,0:0|0:0,0:0:0:0:
336,128,5441,6,0,B|263:143|263:99|199:119,1,139.499995742798,0|2,3:0|0:0,0:0:0:0:
400,220,5850,1,0,0:0:0:0:
122,205,5987,2,0,L|56:240,1,69.749997871399
400,220,6259,2,0,L|476:188,1,69.749997871399,2|0,0:0|0:0,0:0:0:0:
196,316,6532,6,0,P|258:345|325:329,1,139.499995742798,0|2,3:0|0:0,0:0:0:0:
72,236,6941,1,0,0:0:0:0:
292,128,7078,2,0,L|376:136,1,69.749997871399
72,312,7350,2,0,L|4:260,1,69.749997871399,2|0,0:0|0:0,0:0:0:0:
512,192,7623,5,0,0:0:0:0:
244,324,7759,1,0,0:0:0:0:
272,284,7828,1,0,0:0:0:0:
288,248,7896,1,0,0:0:0:0:
316,208,7964,1,0,0:0:0:0:
336,172,8032,1,0,0:0:0:0:
368,140,8100,1,0,0:0:0:0:
396,108,8168,1,0,0:0:0:0:
120,228,8305,1,0,0:0:0:0:
92,176,8374,1,0,0:0:0:0:
56,136,8442,1,0,0:0:0:0:
16,104,8510,1,0,0:0:0:0:
0,72,8578,1,0,0:0:0:0:
340,244,8714,5,8,0:0:0:0:
8,212,8850,1,0,0:0:0:0:
236,300,8987,2,0,P|172:276|76:272,1,155,8|0,0:0|0:0,0:0:0:0:
376,216,9396,1,8,0:0:0:0:
388,196,9464,1,8,0:0:0:0:
404,172,9532,1,0,0:0:0:0:
420,148,9600,1,0,0:0:0:0:
436,124,9668,1,0,0:0:0:0:
24,104,9805,2,0,B|80:40|120:40|116:48,1,100.749995388031
452,88,10078,1,0,0:0:0:0:
268,168,10350,1,0,0:0:0:0:
0,168,10487,1,0,0:0:0:0:
512,108,10759,2,0,B|524:99|480:196|401:207|352:188,1,201.499990776062
148,232,11168,1,0,0:0:0:0:
384,232,11305,1,0,0:0:0:0:
156,336,11441,6,0,P|100:308|52:280,1,100.749995388031,8|0,0:0|2:0,0:0:0:0:
480,152,11714,2,0,B|456:156|439:188|439:188|408:152|364:164,1,125.937494235039,8|0,0:0|2:0,0:0:0:0:
124,228,11987,2,0,B|164:200|164:200|204:176|204:176|228:180,1,100.749995388031
476,268,12259,2,0,B|416:244|412:216|404:196|316:144,1,201.499990776062
0,292,12668,2,0,B|20:240|20:240|60:251|84:232|84:232|117:246|126:209|126:209|117:169,1,201.499990776062
453,250,13214,1,0,0:0:0:0:
481,222,13282,1,0,0:0:0:0:
509,190,13350,1,0,0:0:0:0:
196,260,13487,1,0,0:0:0:0:
124,52,13623,6,0,P|164:76|236:92,1,100.749995388031,8|0,0:0|0:0,0:0:0:0:
512,264,13896,2,0,B|448:224|427:282|356:236,1,151.124993082047,8|0,0:0|2:0,0:0:0:0:
48,212,14168,2,0,B|116:164|124:152|140:156,1,100.749995388031
408,28,14441,2,0,B|332:96,1,100.749995388031
120,184,14714,1,0,0:0:0:0:
384,232,14850,2,0,B|464:192|464:192|344:172,1,201.499990776062
56,240,15259,5,8,0:0:0:0:
404,216,15532,1,0,0:0:0:0:
16,316,15805,2,0,P|68:316|144:304,1,100.749995388031,8|0,0:0|0:0,0:0:0:0:
500,260,16078,2,0,P|448:256|400:248,1,100.749995388031,8|0,0:0|0:0,0:0:0:0:
175,195,16350,5,8,0:0:0:0:
392,160,16487,1,0,0:0:0:0:
192,140,16623,1,0,0:0:0:0:
432,44,16759,2,0,L|362:77,1,77.5,8|0,0:0|0:0,0:0:0:0:
168,256,17032,1,0,0:0:0:0:
380,232,17168,1,0,0:0:0:0:
164,316,17305,1,0,0:0:0:0:
388,312,17441,6,0,P|350:307|307:291,1,77.5,12|0,0:0|0:0,0:0:0:0:
76,48,17714,2,0,P|96:80|128:120,1,77.5,12|0,0:0|0:0,0:0:0:0:
512,192,17987,2,0,P|480:172|443:162,1,77.5,12|0,0:0|0:0,0:0:0:0:
0,152,18259,1,12,0:0:0:0:
348,164,18532,6,0,B|296:176|276:207|276:207|204:248,1,155,4|8,0:0|0:0,0:0:0:0:
16,280,18941,1,0,0:0:0:0:
216,308,19078,2,0,L|272:364,1,77.5
512,76,19350,2,0,P|477:59|439:62,1,77.5,8|0,0:0|0:0,0:0:0:0:
72,144,19623,6,0,B|139:168|151:116|223:146,1,155,0|8,0:0|0:0,0:0:0:0:
432,176,20032,1,0,0:0:0:0:
183,240,20168,2,0,P|145:247|107:245,1,77.5
360,55,20441,2,0,L|274:92,1,77.5
504,193,20714,6,0,P|500:267|408:305,2,155,4|8|0,0:0|0:0|0:0,0:0:0:0:
196,192,21396,1,0,0:0:0:0:
408,80,21532,2,0,P|369:84|332:94,1,77.5,8|0,0:0|0:0,0:0:0:0:
36,168,21805,6,0,B|15:138|15:138|70:161|131:149,1,155,0|8,0:0|0:0,0:0:0:0:
328,272,22214,1,0,0:0:0:0:
360,244,22282,1,0,0:0:0:0:
364,204,22350,1,0,0:0:0:0:
348,160,22418,1,0,0:0:0:0:
300,136,22487,1,0,0:0:0:0:
69,39,22623,2,0,L|33:123,1,77.5,8|0,0:0|0:0,0:0:0:0:
384,88,22896,6,0,B|304:103|304:103|252:32,1,155,4|8,0:0|0:0,0:0:0:0:
108,148,23305,1,0,0:0:0:0:
324,88,23441,2,0,L|384:152,1,77.5
88,244,23714,2,0,L|144:184,1,77.5,8|0,0:0|0:0,0:0:0:0:
501,255,23987,6,0,B|439:230|407:280|377:264|377:264|411:224|411:224|397:185|363:188,1,232.5,0|8,0:0|0:0,0:0:0:0:
215,231,24498,1,0,0:0:0:0:
0,296,24566,2,0,P|38:296|95:285,1,77.5
300,220,24805,1,8,0:0:0:0:
84,228,24941,1,0,0:0:0:0:
100,96,25078,6,0,B|96:124|96:124|48:144,1,77.5,4|0,0:0|0:0,0:0:0:0:
420,176,25350,2,0,P|436:149|480:120,1,77.5,8|0,0:0|0:0,0:0:0:0:
80,152,25623,2,0,B|26:159|26:159|20:180|20:180|-16:176,1,96.875,0|8,0:0|0:0,0:0:0:0:
236,164,25930,1,0,0:0:0:0:
444,204,26066,6,0,B|416:240|416:240|452:252|452:252|432:304,1,135.625,0|8,0:0|0:0,0:0:0:0:
272,68,26544,1,0,0:0:0:0:
56,108,26681,1,0,0:0:0:0:
272,172,26817,1,0,0:0:0:0:
57,236,26953,6,0,P|43:278|0:268,1,96.875,8|0,0:0|2:0,2:0:0:0:
260,156,27259,6,0,P|312:124|392:140,1,139.499995742798,0|8,0:1|0:1,0:1:0:0:
170,213,27668,1,0,0:1:0:0:
412,200,27805,2,0,B|452:240|452:240|530:278,1,139.499995742798,0|8,0:1|0:1,0:1:0:0:
72,108,28350,6,0,B|155:114|226:92,1,139.499995742798,0|8,0:1|0:1,0:1:0:0:
0,256,28759,1,0,0:1:0:0:
334,269,28896,2,0,B|380:216,1,69.749997871399,0|0,0:1|0:1,0:1:0:0:
131,206,29168,1,8,0:1:0:0:
144,76,29441,6,0,P|110:66|58:58,1,69.749997871399,0|0,0:1|0:1,0:1:0:0:
420,112,29714,2,0,P|455:107|504:96,1,69.749997871399,8|0,0:1|0:1,0:1:0:0:
11,269,29987,2,0,L|44:208,1,69.749997871399,0|0,0:1|0:1,0:1:0:0:
512,264,30259,2,0,L|472:208,1,69.749997871399,8|0,0:1|0:1,0:1:0:0:
240,152,30532,6,0,B|164:200|164:200|180:256,1,139.499995742798,0|8,0:1|0:1,0:1:0:0:
428,236,30941,1,0,0:1:0:0:
152,144,31078,2,0,P|80:130|24:160,1,139.499995742798,0|8,0:1|0:1,0:1:0:0:
384,256,31623,6,0,L|428:192,1,69.749997871399,0|0,0:1|0:1,0:1:0:0:
280,136,31896,1,8,0:1:0:0:
156,64,32032,1,0,0:1:0:0:
416,116,32168,2,0,L|372:188,1,69.749997871399,0|0,0:1|0:1,0:1:0:0:
44,200,32441,2,0,L|0:256,1,69.749997871399,8|0,0:1|0:1,0:1:0:0:
296,220,32714,6,0,P|348:232|436:236,2,139.499995742798,0|8|0,0:1|0:1|0:1,0:1:0:0:
512,88,33532,1,8,0:1:0:0:
264,72,33805,6,0,P|260:104|256:152,1,69.749997871399,0|0,0:1|0:1,0:1:0:0:
32,196,34078,1,8,0:1:0:0:
272,216,34214,1,0,0:1:0:0:
44,104,34350,2,0,P|79:107|112:115,1,69.749997871399,0|0,0:1|0:1,0:1:0:0:
432,188,34623,2,0,L|352:164,1,69.749997871399,8|0,0:1|0:1,0:1:0:0:
0,316,34896,6,0,B|42:315|84:280|84:280|132:313|187:288,2,201.499990776062,4|4|8,3:0|3:0|3:0,0:0:0:0:
356,240,35578,1,8,0:0:0:0:
124,216,35714,2,0,L|64:132,1,100.749995388031
328,36,35953,6,0,P|418:84|516:164,1,226.68748962307,4|0,0:0|0:0,0:0:0:0:
300,160,36396,1,0,0:0:0:0:
100,40,36532,2,0,L|-12:148,1,155,8|0,0:0|0:0,0:0:0:0:
400,60,37078,6,0,P|391:96|344:140,1,77.5
0,250,37350,2,0,P|32:233|52:200,1,77.5,8|0,0:0|0:0,0:0:0:0:
432,112,37623,2,0,P|338:215|264:192,1,232.5,0|8,0:0|0:0,0:0:0:0:
512,320,38168,6,0,L|453:268,1,77.5
76,324,38441,2,0,L|124:256,1,77.5,8|0,0:0|0:0,0:0:0:0:
348,276,38714,1,0,0:0:0:0:
84,192,38850,2,0,L|-4:201,1,77.5,0|8,0:0|0:0,0:0:0:0:
335,80,39123,6,0,B|453:108|453:108|415:128,1,155
260,192,39532,1,0,0:0:0:0:
96,244,39668,1,0,0:0:0:0:
512,232,39805,2,0,L|460:175,1,77.5,8|0,0:0|0:0,0:0:0:0:
216,80,40078,2,0,L|290:98,1,77.5,8|0,0:0|0:0,0:0:0:0:
8,264,40350,6,0,L|96:232,1,77.5,0|8,0:0|0:0,0:0:0:0:
360,204,40623,1,0,0:0:0:0:
128,184,40759,1,0,0:0:0:0:
344,260,40896,2,0,B|256:256,2,77.5,0|8|0,0:0|0:0|0:0,0:0:0:0:
108,212,41305,1,0,0:0:0:0:
360,148,41441,6,0,P|408:152|464:164,1,100.749995388031,4|0,0:0|0:0,0:0:0:0:
176,40,41714,2,0,P|144:76|112:120,1,100.749995388031,4|0,0:0|0:0,0:0:0:0:
391,266,41987,2,0,L|403:154,1,100.749995388031
244,140,42191,1,0,0:0:0:0:
92,160,42259,2,0,L|32:68,1,100.749995388031
286,212,42532,6,0,B|208:184|208:184|132:220,1,155,4|8,0:0|0:0,0:0:0:0:
436,271,42941,2,0,P|474:277|512:288,1,77.5
232,300,43214,2,0,P|193:306|148:308,2,77.5,0|8|0,0:0|0:0|0:0,0:0:0:0:
428,184,43623,6,0,L|484:260,1,77.5
147,161,43896,2,0,L|96:220,1,77.5,8|0,0:0|0:0,0:0:0:0:
356,64,44168,6,0,P|384:112|428:148,1,108.499996688843,0|8,0:0|3:0,0:0:0:0:
44,40,44714,6,0,B|128:24|104:76|148:48,1,96.875,4|8,0:0|0:0,0:0:0:0:
420,56,44987,2,0,B|344:68|364:92|320:96,1,96.875
172,156,45259,2,0,B|144:184|144:184|104:204,1,77.5
424,160,45532,1,8,0:0:0:0:
224,252,45668,5,0,0:0:0:0:
448,244,45805,1,0,0:0:0:0:
228,320,45941,2,0,B|179:319|148:300|148:300|123:301|60:292,1,155,0|8,0:0|0:0,0:0:0:0:
276,88,46350,1,0,0:0:0:0:
364,124,46487,1,0,0:0:0:0:
368,208,46623,1,8,0:0:0:0:
288,248,46759,1,0,0:0:0:0:
24,40,46896,6,0,B|-12:86|-4:104|14:109|72:164,1,155,0|8,0:0|0:0,0:0:0:0:
287,149,47305,1,0,0:0:0:0:
396,328,47441,2,0,P|444:243|495:185,1,155,0|8,0:0|0:0,0:0:0:0:
284,164,47850,1,0,0:0:0:0:
84,216,47987,6,0,B|36:180|16:132|16:132|40:64|104:52,1,232.5,0|8,0:0|0:0,0:0:0:0:
352,264,48532,2,0,B|390:239|408:217|394:183|458:154,1,155,0|8,0:0|0:0,0:0:0:0:
77,150,49078,6,0,B|101:143|101:143|173:147,1,96.875,4|8,0:0|0:0,0:0:0:0:
424,110,49350,2,0,P|359:68|339:64,1,96.875
87,286,49623,2,0,B|59:242|59:242|75:198,1,96.875,8|0,0:0|0:0,0:0:0:0:
492,208,49896,2,0,B|453:222|425:278,1,96.875
116,28,50168,6,0,B|168:40|168:40|76:96,1,155,0|8,0:0|0:0,0:0:0:0:
296,92,50578,1,0,0:0:0:0:
92,160,50714,1,0,0:0:0:0:
300,156,50850,1,0,0:0:0:0:
96,236,50987,1,0,0:0:0:0:
304,216,51123,1,0,0:0:0:0:
512,268,51259,6,0,B|452:268|452:268|416:300|372:286|348:284|348:284|324:264|300:300,1,213.125,0|8,0:0|0:0,0:0:0:0:
32,92,51771,2,0,B|64:44|112:60|124:92|144:64|152:188|60:152,1,232.5,0|8,0:0|0:0,0:0:0:0:
408,248,52350,6,0,L|248:248,1,155,0|8,0:0|0:0,0:0:0:0:
448,120,52759,1,0,0:0:0:0:
236,44,52896,2,0,L|160:55,1,77.5
435,170,53168,2,0,L|512:184,1,77.5,8|0,0:0|0:0,0:0:0:0:
232,192,53441,1,0,0:0:0:0:
440,96,53578,1,0,0:0:0:0:
232,112,53714,1,0,0:0:0:0:
4,328,53850,2,0,B|47:276|47:276|127:238,1,155
372,200,54259,1,8,0:0:0:0:
140,192,54396,1,0,0:0:0:0:
379,93,54532,6,0,L|211:65,2,155,8|8|8,0:0|0:0|0:0,0:0:0:0:
148,208,55214,1,0,0:0:0:0:
120,184,55282,1,0,0:0:0:0:
100,140,55350,1,0,0:0:0:0:
120,96,55418,1,0,0:0:0:0:
168,60,55487,1,0,0:0:0:0:
400,128,55623,5,12,0:0:0:0:
168,148,55759,1,0,0:0:0:0:
396,200,55896,1,0,0:0:0:0:
112,24,56032,2,0,L|44:72,1,77.5,8|0,0:0|0:0,0:0:0:0:
360,104,56305,1,0,0:0:0:0:
136,124,56441,1,0,0:0:0:0:
136,224,56578,1,0,0:0:0:0:
384,296,56714,6,0,P|368:224|324:184,1,135.625,8|8,0:0|0:0,0:0:0:0:
0,296,57055,2,0,P|21:232|76:196,1,135.625
496,260,57532,2,0,L|418:267,1,77.5,8|0,0:0|0:0,0:0:0:0:
80,160,57805,5,4,0:0:0:0:
312,132,57941,1,0,0:0:0:0:
88,96,58078,1,0,0:0:0:0:
300,196,58214,1,0,0:0:0:0:
72,228,58350,1,0,0:0:0:0:
296,264,58487,2,0,L|376:268,1,77.5
100,152,58759,6,0,B|12:144,1,77.5,4|0,0:0|0:0,0:0:0:0:
352,188,59032,1,0,0:0:0:0:
68,40,59168,2,0,L|132:96,1,77.5,8|0,0:0|0:0,0:0:0:0:
356,236,59441,1,0,0:0:0:0:
124,232,59578,1,0,0:0:0:0:
356,304,59714,1,8,0:0:0:0:
125,302,59850,1,0,0:0:0:0:
316,144,59987,6,0,B|240:120|240:120|148:124,1,155,4|8,0:0|0:0,0:0:0:0:
388,268,60396,1,0,0:0:0:0:
416,244,60464,1,0,0:0:0:0:
436,208,60532,1,0,0:0:0:0:
416,176,60600,1,0,0:0:0:0:
392,148,60668,1,0,0:0:0:0:
192,180,60805,1,8,0:0:0:0:
472,52,60941,6,0,B|436:108|436:108|372:184,1,155,8|8,0:0|0:0,0:0:0:0:
152,312,61350,2,0,P|124:288|112:236,1,77.5
488,52,61623,2,0,P|476:92|428:120,1,77.5,8|8,0:0|0:0,0:0:0:0:
204,324,61896,2,0,P|252:260|227:210,1,116.25,8|0,0:0|2:0,0:0:0:0:
76,104,62168,2,0,P|136:64|152:56,1,77.5
356,152,62441,1,8,0:0:0:0:
164,224,62578,2,0,P|128:156|148:128,1,116.25
424,44,62850,2,0,B|416:128|376:164,1,116.25
132,64,63123,2,0,B|68:80|60:132,1,77.5
292,120,63396,1,0,0:0:0:0:
512,192,63532,2,0,B|456:256,1,77.5,8|0,0:0|0:0,0:0:0:0:
36,320,63805,6,0,P|108:276|196:308,1,174.375006651879,8|0,0:0|2:0,0:0:0:0:
472,308,64078,6,0,P|406:362|344:352,1,116.250004434586,8|0,0:0|2:0,0:0:0:0:
224,116,64282,2,0,P|232:176|340:160,1,174.375006651879
0,240,64623,2,0,B|64:168,1,77.5
260,152,64896,2,0,L|299:85,1,77.5
512,304,65168,2,0,L|460:232,1,77.5,8|0,0:0|0:0,0:0:0:0:
184,184,65441,5,0,0:0:0:0:
392,100,65578,2,0,L|453:52,1,77.5
224,284,65850,2,0,B|168:272|168:272|117:280|117:280|56:268,1,155
384,36,66259,2,0,P|396:72|408:116,1,77.5,8|0,0:0|0:0,0:0:0:0:
160,136,66532,5,0,0:0:0:0:
388,160,66668,1,0,0:0:0:0:
156,212,66805,1,0,0:0:0:0:
376,236,66941,1,0,0:0:0:0:
152,312,67078,2,0,L|224:260,1,77.5
508,160,67350,6,0,P|426:126|356:96,1,155
16,168,67759,1,0,0:0:0:0:
432,136,68032,2,0,B|416:144|388:132|388:132|388:159|340:144|380:90|339:38|448:88,1,213.125
20,104,68543,1,8,0:0:0:0:
182,214,68680,6,0,P|211:176|248:144,1,96.875
512,212,68987,2,0,P|483:187|459:157,1,77.5,8|0,0:0|0:0,0:0:0:0:
128,96,69259,2,0,P|52:124|0:68,1,155,0|8,0:0|0:0,0:0:0:0:
304,104,69668,1,0,0:0:0:0:
24,224,69805,6,0,L|101:236,1,77.5
512,132,70078,2,0,L|448:184,1,77.5,8|0,0:0|0:0,0:0:0:0:
172,132,70350,2,0,B|332:84,1,155,0|8,0:0|0:0,0:0:0:0:
124,168,70896,1,0,0:0:0:0:
376,216,71032,1,0,0:0:0:0:
152,268,71168,1,4,0:0:0:0:
372,112,71305,2,0,B|302:98|302:98|302:46|258:34,1,155,0|0,0:0|2:0,0:0:0:0:
5,192,71714,2,0,L|48:128,1,77.5,4|0,0:0|0:0,0:0:0:0:
432,152,71987,6,0,L|508:170,1,77.5,8|0,0:0|0:0,0:0:0:0:
120,120,72259,2,0,L|280:64,1,155,8|0,0:0|0:0,0:0:0:0:
176,220,72668,1,8,3:0:0:0:
148,188,72737,1,8,3:0:0:0:
120,156,72805,1,8,0:0:0:0:
460,128,72941,1,8,3:0:0:0:
96,128,73078,6,0,P|166:97|215:38,2,155,4|8|0,0:0|0:0|0:0,0:0:0:0:
448,208,73896,2,0,B|401:215|401:215|384:264|384:264|320:264,1,155,8|0,0:0|0:0,0:0:0:0:
512,128,74305,1,0,0:0:0:0:
0,233,74578,2,0,B|41:198|68:168|88:112,1,155
224,304,74987,1,0,0:0:0:0:
436,272,75123,1,0,0:0:0:0:
224,224,75259,5,0,0:0:0:0:
428,188,75396,1,0,0:0:0:0:
208,144,75532,1,0,0:0:0:0:
408,112,75668,1,0,0:0:0:0:
56,32,75805,2,0,L|8:100,1,77.5,8|0,0:0|0:0,0:0:0:0:
384,264,76078,2,0,B|312:228|312:228|384:204,1,155
1,169,76487,1,0,0:0:0:0:
400,206,76759,2,0,B|388:204|446:152|428:152|428:152|328:112|321:125|321:125|296:172,1,232.5
72,172,77305,1,0,0:0:0:0:
428,118,77441,6,0,B|381:91|399:58|399:58|396:33|319:68,2,155,0|8|0,0:0|0:0|0:0,0:0:0:0:
12,244,78259,2,0,L|80:200,1,77.5,8|0,0:0|0:0,0:0:0:0:
444,252,78532,6,0,P|371:228|344:212,1,77.5,0|8,0:0|0:0,0:0:0:0:
64,112,78805,2,0,L|0:158,1,77.5
276,40,79078,2,0,P|284:76|320:112,1,77.5
512,200,79350,1,8,0:0:0:0:
352,200,79623,1,0,0:0:0:0:
120,280,79759,1,0,0:0:0:0:
356,268,79896,1,12,0:0:0:0:
96,104,80032,2,0,P|185:117|168:164,1,155,0|0,0:0|2:0,0:0:0:0:
412,104,80441,2,0,P|387:77|340:64,1,77.5,12|0,0:0|0:0,0:0:0:0:
96,256,80714,6,0,B|132:274|180:258|180:258|216:258|244:278,1,155,4|8,0:0|0:0,0:0:0:0:
68,152,81123,1,0,0:0:0:0:
296,328,81259,2,0,L|354:276,1,77.5,8|8,0:0|3:0,0:0:0:0:
92,176,81532,2,0,L|76:268,1,77.5,8|0,0:0|0:0,0:0:0:0:
392,208,81805,1,0,0:0:0:0:
148,204,81941,1,0,0:0:0:0:
392,80,82078,2,0,B|380:108|380:108|332:132|332:132|348:172|348:172|296:204,1,174.375
96,72,82487,2,0,B|152:64|208:56|192:80,1,96.875
488,304,82759,6,0,B|404:256|404:256|348:216,1,155,4|0,0:0|0:0,0:0:0:0:
160,168,83168,1,0,0:0:0:0:
392,152,83305,1,0,0:0:0:0:
164,264,83441,2,0,L|207:327,1,77.5,8|0,0:0|0:0,0:0:0:0:
512,248,83714,1,8,0:0:0:0:
224,168,83987,5,8,0:0:0:0:
448,116,84123,1,8,0:0:0:0:
220,72,84259,2,0,B|312:20|372:64,1,155
16,104,84668,1,2,2:0:0:0:
416,100,84941,6,0,B|352:136|352:136|388:168|288:184,1,155,4|0,0:0|0:0,0:0:0:0:
108,200,85350,1,0,0:0:0:0:
312,296,85487,2,0,P|277:279|247:254,1,77.5
488,184,85759,1,0,0:0:0:0:
112,184,85896,2,0,B|188:128,1,77.5,8|8,0:0|0:0,0:0:0:0:
56,228,86168,1,0,0:0:0:0:
276,212,86305,1,0,0:0:0:0:
68,112,86441,2,0,L|11:58,1,77.5
308,276,86714,2,0,B|225:303|144:332,1,155,8|8,0:0|0:0,0:0:0:0:
404,208,87259,1,0,0:0:0:0:
188,224,87395,1,0,0:0:0:0:
396,124,87531,1,0,0:0:0:0:
176,148,87668,1,0,0:0:0:0:
404,280,87805,2,0,B|437:296|437:296|495:283,1,96.875,8|8,0:0|0:0,0:0:0:0:
196,76,88078,6,0,P|144:88|96:184,1,155,8|0,0:0|0:0,0:0:0:0:
448,224,88487,1,0,0:0:0:0:
100,232,88623,1,8,0:0:0:0:
440,172,88759,2,0,B|388:148|388:148|280:156,1,155
88,176,89168,1,0,0:0:0:0:
296,208,89305,1,0,0:0:0:0:
80,104,89441,1,0,0:0:0:0:
284,92,89578,1,0,0:0:0:0:
68,268,89714,2,0,B|100:252|100:252|152:248,1,77.5,8|0,0:0|0:0,0:0:0:0:
420,268,89987,2,0,B|360:264|360:264|328:224,1,96.875,4|0,0:0|2:0,0:0:0:0:
80,104,90259,6,0,L|224:88,1,125.937494235039,8|0,0:0|2:0,0:0:0:0:
448,172,90532,5,8,0:0:0:0:
415,178,92168,6,0,B|355:154|355:154|312:176|256:160,1,151.124993082047,8|0,0:0|2:0,0:0:0:0:
112,68,92441,2,0,B|160:128|160:128|168:160|116:200,1,151.124993082047,8|0,0:0|2:0,0:0:0:0:
428,232,92714,5,12,0:0:0:0:
308,252,93941,2,0,L|300:296,2,38.75,0|0|8,0:0|0:0|0:0,0:0:0:0:
112,124,94214,1,0,0:0:0:0:
328,220,94350,6,0,P|276:224|228:192,1,100.749995388031,8|0,0:0|0:0,0:0:0:0:
448,44,94623,2,0,P|444:108|464:180,1,125.937494235039,8|0,0:0|2:0,0:0:0:0:
176,272,94896,2,0,B|184:216|152:168|120:152,1,125.937494235039
416,208,95168,2,0,B|364:224|375:253|375:253|420:288,1,125.937494235039
88,216,95441,2,0,P|88:176|32:104,1,125.937494235039
388,148,95714,2,0,L|500:172,1,100.749995388031,8|0,0:0|0:0,0:0:0:0:
208,176,95987,5,12,0:0:0:0:
212,188,96259,1,0,0:0:0:0:
200,252,96532,1,0,0:0:0:0:
20,232,96668,1,0,0:0:0:0:
396,260,96805,1,0,0:0:0:0:
152,160,96941,2,0,P|124:104|88:88,1,100.749995388031
404,208,97214,1,0,0:0:0:0:
168,224,97350,1,0,0:0:0:0:
408,132,97487,2,0,L|462:73,1,77.5,8|0,0:0|0:0,0:0:0:0:
183,169,97759,2,0,L|248:212,1,77.5,8|8,0:0|0:0,0:0:0:0:
488,228,98032,1,0,0:0:0:0:
228,276,98168,6,0,L|152:286,1,77.5,12|0,0:0|0:0,0:0:0:0:
496,76,98441,2,0,L|432:132,1,77.5,12|0,0:0|0:0,0:0:0:0:
129,132,98714,2,0,L|64:68,1,77.5,4|0,0:0|0:0,0:0:0:0:
512,168,98987,1,12,0:0:0:0:
0,232,99259,5,8,0:0:0:0:
204,236,99396,1,0,0:0:0:0:
412,204,99532,1,0,0:0:0:0:
196,147,99668,2,0,B|150:134|124:59|112:167|62:79,1,155
280,188,100078,1,8,0:0:0:0:
412,216,100214,1,8,0:0:0:0:
32,292,100350,6,0,L|72:220,1,77.5,12|0,0:0|0:0,0:0:0:0:
280,60,100623,2,0,L|342:133,1,77.5,12|0,0:0|0:0,0:0:0:0:
0,176,100896,2,0,L|72:152,1,77.5,4|0,0:0|0:0,0:0:0:0:
344,112,101168,2,0,B|396:180|424:180,1,100.749995388031
128,68,101441,6,0,P|174:125|253:125,1,155,8|4,0:0|0:2,0:0:0:0:
456,88,101987,1,8,0:0:0:0:
208,228,102123,1,0,0:0:0:0:
184,264,102191,1,0,0:0:0:0:
472,204,102259,2,0,L|404:136,2,77.5,0|8|8,0:0|3:0|0:0,0:0:0:0:
120,188,102668,1,0,0:0:0:0:
404,224,102805,6,0,L|480:224,1,58.125,8|0,0:0|0:0,0:0:0:0:
228,252,103078,1,8,0:0:0:0:
116,216,103146,1,0,0:0:0:0:
0,184,103214,1,0,0:0:0:0:
252,100,103350,2,0,P|225:129|208:164,1,77.5,8|8,0:0|3:0,0:0:0:0:
440,172,103623,2,0,L|524:104,1,100.749995388031
88,144,104032,2,0,B|64:116|-12:164|-12:164|44:236|0:284,1,201.499990776062,10|12,0:0|1:0,3:0:0:0:
412,216,104441,1,0,0:0:0:0:
256,192,104509,12,0,105532,2:0:0:0:
