osu file format v14

[General]
AudioFilename: audio.mp3
AudioLeadIn: 0
PreviewTime: 44
Countdown: 0
SampleSet: Soft
StackLeniency: 0.7
Mode: 0
LetterboxInBreaks: 0
WidescreenStoryboard: 0

[Editor]
Bookmarks: 11292,21866,28341
DistanceSpacing: 1.1
BeatDivisor: 4
GridSize: 32
TimelineZoom: 1

[Metadata]
Title:A or A!?
TitleUnicode:A or A!?
Artist:petit milady
ArtistUnicode:petit milady
Creator:Nao Tomori
Version:Risensane
Source:ありすorありす
Tags:aoi yuuki ayana taketatsu dictate hanasaka yui featured artist alice or alice siscon niisan to futago no imouto anime fanservice lolis opening fa
BeatmapID:1608128
BeatmapSetID:764785

[Difficulty]
HPDrainRate:6
CircleSize:4.2
OverallDifficulty:8
ApproachRate:8.5
SliderMultiplier:1.4
SliderTickRate:1

[Events]
//Background and Video events
0,0,"a or a bg.jpg",0,0
//Break Periods
//Storyboard Layer 0 (Background)
//Storyboard Layer 1 (Fail)
//Storyboard Layer 2 (Pass)
//Storyboard Layer 3 (Foreground)
//Storyboard Sound Samples

[TimingPoints]
773,329.308452250274,4,2,1,66,1,0
773,-71.4285714285714,4,2,1,66,0,0
21794,-83.3333333333333,4,2,1,66,0,0
30163,-83.3333333333333,4,2,1,5,0,0

[Colours]
Combo1 : 235,88,84
Combo2 : 208,225,249
Combo3 : 118,165,243
Combo4 : 244,192,157

[HitObjects]
185,112,114,6,0,B|236:105|236:105|303:129,1,105,2|0,0:0|0:0,0:0:0:0:
334,190,443,2,0,L|331:277,1,70,8|0,0:3|0:0,0:0:0:0:
76,338,773,6,0,B|62:292|62:292|82:218,1,97.9999970092774,4|0,3:2|0:0,0:0:0:0:
210,133,1102,2,0,B|223:181|223:181|209:227,1,97.9999970092774,0|0,3:0|0:0,0:0:0:0:
309,307,1431,2,0,B|355:321|355:321|403:307,1,97.9999970092774,0|0,3:0|0:0,0:0:0:0:
360,215,1761,1,0,3:0:0:0:
224,269,1925,6,0,L|205:367,2,97.9999970092774,2|0|0,0:0|3:0|0:0,0:0:0:0:
131,61,2419,2,0,L|205:125,1,97.9999970092774,0|0,3:0|0:0,0:0:0:0:
431,149,2748,2,0,L|338:181,1,97.9999970092774,0|0,3:0|0:0,0:0:0:0:
129,275,3078,2,0,B|180:283|180:283|228:267,1,97.9999970092774,0|0,3:0|0:0,0:0:0:0:
429,247,3407,6,0,L|431:133,1,97.9999970092774,0|0,3:0|0:0,0:0:0:0:
326,28,3736,2,0,L|327:125,1,97.9999970092774,0|0,3:0|0:0,0:0:0:0:
241,298,4066,1,0,3:0:0:0:
429,247,4230,2,0,B|443:294|443:294|431:364,1,97.9999970092774,0|0,3:0|0:0,0:0:0:0:
241,298,4560,6,0,B|180:276|180:276|59:322,1,146.999995513916,0|0,3:0|0:0,0:0:0:0:
8,350,4889,1,0,3:0:0:0:
100,193,5054,2,0,L|106:86,1,97.9999970092774,0|0,3:0|0:0,0:0:0:0:
185,246,5383,5,2,3:2:0:0:
9,126,5547,1,2,0:0:0:0:
208,16,5712,2,0,L|322:24,1,97.9999970092774,2|2,3:2|0:0,0:0:0:0:
433,212,6041,6,0,B|473:257|473:257|489:105,1,195.999994018555,4|0,3:2|0:0,0:0:0:0:
344,180,6535,2,0,B|340:238|340:238|403:311,1,146.999995513916,0|0,3:0|0:0,0:0:0:0:
475,369,6865,1,0,3:0:0:0:
284,347,7029,2,0,L|165:350,1,97.9999970092774,8|0,2:3|0:0,0:0:0:0:
37,174,7359,6,0,B|67:124|67:124|93:287,1,195.999994018555,4|0,3:2|0:0,0:0:0:0:
179,178,7853,2,0,B|228:142|228:142|317:173,1,146.999995513916,0|0,3:0|0:0,0:0:0:0:
402,200,8182,1,0,3:0:0:0:
284,65,8347,2,0,B|211:40|211:40|130:100,1,146.999995513916,8|0,2:3|0:0,0:0:0:0:
66,76,8676,6,0,B|84:141|84:141|54:276,1,195.999994018555,0|0,3:0|0:0,0:0:0:0:
196,346,9170,2,0,L|303:332,1,97.9999970092774,0|0,3:0|0:0,0:0:0:0:
408,197,9499,2,0,B|451:158|451:158|445:307,1,195.999994018555,0|0,3:0|0:0,0:0:0:0:
351,111,9993,5,0,3:0:0:0:
293,333,10158,1,0,3:0:0:0:
162,117,10322,2,0,B|115:106|115:106|45:129,1,97.9999970092774,0|0,3:0|0:0,0:0:0:0:
323,229,10652,1,0,3:0:0:0:
501,126,10816,2,0,B|440:149|440:149|309:107,1,195.999994018555,0|0,3:0|0:0,0:0:0:0:
103,208,11310,6,0,B|89:255|89:255|113:320,1,97.9999970092774,4|0,3:2|0:0,0:0:0:0:
223,245,11640,2,0,B|237:198|237:198|213:133,1,97.9999970092774,0|0,3:0|0:0,0:0:0:0:
315,328,11969,2,0,L|412:335,1,97.9999970092774,0|0,3:0|0:0,0:0:0:0:
223,245,12298,1,0,3:0:0:0:
105,300,12463,6,0,L|7:286,2,97.9999970092774,2|0|0,0:0|3:0|0:0,0:0:0:0:
237,73,12957,2,0,L|176:150,1,97.9999970092774,0|0,3:0|0:0,0:0:0:0:
295,369,13286,2,0,L|258:278,1,97.9999970092774,0|0,3:0|0:0,0:0:0:0:
368,138,13616,2,0,L|416:231,1,97.9999970092774,0|0,3:0|0:0,0:0:0:0:
270,104,13945,6,0,B|295:62|295:62|352:35,1,97.9999970092774,0|0,3:0|0:0,0:0:0:0:
186,196,14274,2,0,L|72:182,1,97.9999970092774,0|0,3:0|0:0,0:0:0:0:
315,220,14603,2,0,B|327:272|327:272|308:328,1,97.9999970092774,0|0,3:0|0:0,0:0:0:0:
88,184,14933,2,0,B|73:141|73:141|115:40,1,146.999995513916,0|0,3:0|0:0,0:0:0:0:
203,27,15262,5,0,0:0:0:0:
337,154,15427,1,0,3:0:0:0:
337,154,15509,1,0,3:0:0:0:
337,154,15591,2,0,B|491:141,1,146.999995513916,0|0,3:0|0:0,0:0:0:0:
414,57,15921,2,0,B|362:62|362:62|302:40,1,97.9999970092774,0|2,3:0|0:0,0:0:0:0:
168,251,16250,2,0,B|211:234|211:234|263:239,1,97.9999970092774,0|2,3:0|0:0,0:0:0:0:
73,292,16579,6,0,B|46:153|46:153|100:187,1,195.999994018555,4|0,3:2|0:0,0:0:0:0:
246,334,17073,2,0,B|329:340|329:340|413:293,1,146.999995513916,0|0,3:0|0:0,0:0:0:0:
469,255,17403,1,0,3:0:0:0:
302,149,17567,2,0,L|310:264,1,97.9999970092774,8|0,2:3|0:0,0:0:0:0:
484,157,17897,6,0,B|497:24|497:24|439:64,1,195.999994018555,4|8,3:2|0:3,0:0:0:0:
302,149,18391,2,0,B|211:169|211:169|153:136,1,146.999995513916,0|0,3:0|0:0,0:0:0:0:
226,79,18720,1,0,3:0:0:0:
391,190,18884,2,0,B|386:355,1,146.999995513916,8|0,2:3|0:0,0:0:0:0:
306,369,19214,6,0,B|222:318|222:318|115:350,1,195.999994018555,0|0,3:0|0:0,0:0:0:0:
18,251,19708,2,0,B|12:201|12:201|35:150,1,97.9999970092774,0|0,3:0|0:0,0:0:0:0:
162,60,20037,1,0,3:0:0:0:
162,60,20119,1,0,3:0:0:0:
162,60,20202,2,0,B|277:57|277:57,1,97.9999970092774,0|0,3:0|0:0,0:0:0:0:
473,214,20531,5,0,3:0:0:0:
252,165,20696,1,8,0:3:0:0:
459,119,20860,1,0,3:0:0:0:
259,257,21025,1,8,0:3:0:0:
484,363,21190,5,0,3:0:0:0:
379,145,21354,1,8,0:3:0:0:
279,360,21519,1,0,3:0:0:0:
477,255,21684,1,8,0:3:0:0:
340,244,21848,6,0,B|290:249|290:249|260:272|260:272|198:277,1,125.999996154785,4|0,3:2|0:0,0:0:0:0:
155,232,22178,2,0,B|144:188|144:188|163:142,1,83.9999974365235,2|0,0:0|0:0,0:0:0:0:
267,72,22507,1,0,3:0:0:0:
376,169,22672,2,0,B|434:190|434:190|514:174,1,125.999996154785,2|0,3:2|0:0,0:0:0:0:
440,96,23001,5,4,3:2:0:0:
236,244,23330,1,0,3:0:0:0:
104,42,23659,1,0,3:0:0:0:
194,91,23824,2,0,L|191:181,1,83.9999974365235,2|0,0:0|0:0,0:0:0:0:
306,105,24153,2,0,B|313:64|313:64|303:21,1,83.9999974365235,2|0,0:0|0:0,0:0:0:0:
100,113,24483,6,0,B|76:161|76:161|95:246,1,125.999996154785,4|0,3:2|0:0,0:0:0:0:
145,294,24812,2,0,L|135:394,1,83.9999974365235,2|0,0:0|0:0,0:0:0:0:
239,232,25141,1,0,3:0:0:0:
377,352,25306,2,0,B|456:369|455:369|455:369|529:336,1,125.999996154785,0|0,3:0|0:0,0:0:0:0:
445,272,25635,5,4,3:2:0:0:
176,335,25965,1,0,3:0:0:0:
176,335,26129,1,2,0:0:0:0:
244,192,26294,2,0,B|256:233|256:233|247:274,1,83.9999974365235,0|0,3:0|0:0,0:0:0:0:
147,154,26623,1,0,3:0:0:0:
200,48,26788,2,0,B|225:88|225:88|306:84,1,125.999996154785,2|0,0:0|0:0,0:0:0:0:
386,36,27117,6,0,B|394:84|394:84|383:147,1,83.9999974365235,0|0,3:0|0:0,0:0:0:0:
312,284,27446,1,8,0:3:0:0:
187,143,27611,1,0,0:0:0:0:
426,240,27776,1,0,3:0:0:0:
194,346,27940,1,0,3:0:0:0:
284,106,28105,1,8,2:3:0:0:
188,362,28270,5,6,0:2:0:0:
256,192,28352,12,0,30163,0:0:0:0:
