osu file format v14

[General]
AudioFilename: audio.mp3
AudioLeadIn: 0
PreviewTime: 44
Countdown: 0
SampleSet: Soft
StackLeniency: 0.7
Mode: 0
LetterboxInBreaks: 0
WidescreenStoryboard: 1

[Editor]
Bookmarks: 11292,21866,28341
DistanceSpacing: 1.1
BeatDivisor: 4
GridSize: 32
TimelineZoom: 1

[Metadata]
Title:A or A!?
TitleUnicode:A or A!?
Artist:petit milady
ArtistUnicode:petit milady
Creator:Nao Tomori
Version:Normal
Source:ありすorありす
Tags:aoi yuuki ayana taketatsu dictate hanasaka yui featured artist alice or alice siscon niisan to futago no imouto anime fanservice lolis opening fa
BeatmapID:1608127
BeatmapSetID:764785

[Difficulty]
HPDrainRate:3
CircleSize:3
OverallDifficulty:4
ApproachRate:5
SliderMultiplier:1
SliderTickRate:1

[Events]
//Background and Video events
0,0,"a or a bg.jpg",0,0
//Break Periods
//Storyboard Layer 0 (Background)
//Storyboard Layer 1 (Fail)
//Storyboard Layer 2 (Pass)
//Storyboard Layer 3 (Foreground)
//Storyboard Sound Samples

[TimingPoints]
773,329.308452250274,4,2,1,66,1,0
773,-90.9090909090909,4,2,1,66,0,0
21794,-90.9090909090909,4,2,1,66,0,0
30163,-90.9090909090909,4,2,1,5,0,0

[Colours]
Combo1 : 235,88,84
Combo2 : 208,225,249
Combo3 : 118,165,243
Combo4 : 244,192,157

[HitObjects]
162,165,114,6,0,P|206:136|260:142,1,100,2|8,0:0|0:3,0:0:0:0:
261,143,773,6,0,P|328:174|380:163,1,110.000003356934,4|0,3:2|3:0,0:0:0:0:
468,112,1431,1,0,3:0:0:0:
384,24,1760,1,0,3:0:0:0:
384,24,1925,2,0,L|256:17,1,110.000003356934,2|0,0:0|0:0,0:0:0:0:
257,76,2419,2,0,P|205:101|130:95,1,110.000003356934,0|0,3:0|3:0,0:0:0:0:
63,20,3078,1,0,3:0:0:0:
4,125,3407,6,0,P|-3:188|15:239,1,110.000003356934,0|0,3:0|3:0,0:0:0:0:
120,282,4066,2,0,L|129:218,2,55.0000016784668,0|0|0,3:0|3:0|3:3,0:0:0:0:
165,321,4560,2,0,P|224:299|277:307,1,110.000003356934,0|0,3:0|3:0,0:0:0:0:
311,347,5054,2,0,L|438:344,1,110.000003356934,0|2,3:0|3:2,0:0:0:0:
485,242,5712,5,2,3:2:0:0:
389,167,6041,1,4,3:2:0:0:
295,243,6371,1,0,0:0:0:0:
295,243,6535,2,0,L|162:246,1,110.000003356934,0|0,3:0|3:0,0:0:0:0:
129,220,7029,1,8,2:3:0:0:
211,131,7359,5,4,3:2:0:0:
329,152,7688,1,0,0:0:0:0:
329,152,7853,2,0,P|360:105|349:34,1,110.000003356934,0|0,3:0|3:0,0:0:0:0:
324,2,8347,1,8,2:3:0:0:
208,37,8676,5,0,3:0:0:0:
90,9,9005,1,0,0:0:0:0:
54,125,9335,2,0,L|-6:117,2,55.0000016784668,0|0|0,3:0|3:3|0:0,0:0:0:0:
165,171,9993,2,0,L|199:301,1,110.000003356934,0|0,3:0|3:0,0:0:0:0:
312,299,10652,1,0,3:0:0:0:
312,299,10816,1,0,3:0:0:0:
480,221,11310,6,0,P|454:181|459:101,2,110.000003356934,4|0|0,3:2|3:0|3:0,0:0:0:0:
411,320,12298,1,0,3:0:0:0:
411,320,12463,2,0,P|350:308|299:318,1,110.000003356934,2|0,2:2|2:0,0:0:0:0:
256,354,12957,2,0,L|134:344,1,110.000003356934,0|0,3:3|3:0,0:0:0:0:
46,276,13616,1,0,3:0:0:0:
95,165,13945,6,0,L|103:56,1,110.000003356934,0|0,3:0|3:0,0:0:0:0:
223,54,14603,1,0,0:0:0:0:
223,54,14933,2,0,L|231:163,1,110.000003356934,0|0,3:0|3:0,0:0:0:0:
336,222,15591,1,0,3:0:0:0:
447,174,15921,2,0,P|458:226|439:294,1,110.000003356934,0|0,3:0|3:0,0:0:0:0:
350,354,16579,6,0,B|306:339|306:339|242:381,1,110.000003356934,4|0,3:2|0:0,0:0:0:0:
192,371,17073,2,0,L|80:348,1,110.000003356934,0|0,3:0|3:0,0:0:0:0:
27,327,17567,1,8,2:3:0:0:
2,208,17897,6,0,P|29:153|92:149,1,110.000003356934,4|0,3:2|0:0,0:0:0:0:
132,153,18391,2,0,L|145:273,1,110.000003356934,0|0,3:0|3:0,0:0:0:0:
181,309,18884,1,8,2:3:0:0:
302,307,19214,5,0,3:0:0:0:
388,222,19543,1,0,0:0:0:0:
289,152,19872,1,0,3:0:0:0:
198,232,20202,1,0,3:0:0:0:
96,166,20531,6,0,B|79:108|120:64|120:64|189:100|243:77,2,220.000006713867,0|0|4,3:0|3:0|3:2,0:0:0:0:
236,343,22507,5,0,3:0:0:0:
236,343,22672,2,0,P|296:329|351:316,1,110.000003356934,2|4,3:2|3:2,0:0:0:0:
463,313,23330,1,0,3:0:0:0:
477,196,23659,1,0,3:0:0:0:
477,196,23824,2,0,L|488:130,2,55.0000016784668,2|0|2,0:0|0:0|0:0,0:0:0:0:
357,215,24483,6,0,P|306:178|237:181,1,110.000003356934,4|2,3:2|0:0,0:0:0:0:
159,240,25141,1,0,3:0:0:0:
159,240,25306,2,0,L|24:229,2,110.000003356934,0|4|0,3:0|3:2|3:0,0:0:0:0:
245,324,26294,1,0,3:0:0:0:
341,250,26623,1,0,3:0:0:0:
341,250,26788,2,0,P|354:201|333:147,1,110.000003356934,2|0,0:0|3:0,0:0:0:0:
233,78,27446,5,8,0:3:0:0:
122,127,27776,2,0,L|55:120,2,55.0000016784668,0|0|8,3:0|3:0|2:3,0:0:0:0:
256,192,28270,12,0,30163,0:0:0:0:
