osu file format v14

[General]
AudioFilename: audio.mp3
AudioLeadIn: 0
PreviewTime: 44
Countdown: 0
SampleSet: Soft
StackLeniency: 0.7
Mode: 0
LetterboxInBreaks: 0
WidescreenStoryboard: 1

[Editor]
Bookmarks: 11292,21866,28341
DistanceSpacing: 1.1
BeatDivisor: 4
GridSize: 32
TimelineZoom: 1

[Metadata]
Title:A or A!?
TitleUnicode:A or A!?
Artist:petit milady
ArtistUnicode:petit milady
Creator:Nao Tomori
Version:Airinsane
Source:ありすorありす
Tags:aoi yuuki ayana taketatsu dictate hanasaka yui featured artist alice or alice siscon niisan to futago no imouto anime fanservice lolis opening fa
BeatmapID:1608125
BeatmapSetID:764785

[Difficulty]
HPDrainRate:6
CircleSize:4.2
OverallDifficulty:8
ApproachRate:8.5
SliderMultiplier:1.4
SliderTickRate:1

[Events]
//Background and Video events
0,0,"a or a bg.jpg",0,0
//Break Periods
//Storyboard Layer 0 (Background)
//Storyboard Layer 1 (Fail)
//Storyboard Layer 2 (Pass)
//Storyboard Layer 3 (Foreground)
//Storyboard Sound Samples

[TimingPoints]
773,329.308452250274,4,2,1,66,1,0
773,-71.4285714285714,4,2,1,66,0,0
21789,-83.3333333333333,4,2,1,66,0,0
30163,-83.3333333333333,4,2,1,5,0,0

[Colours]
Combo1 : 235,88,84
Combo2 : 208,225,249
Combo3 : 118,165,243
Combo4 : 244,192,157

[HitObjects]
104,137,114,6,0,P|140:104|215:120,1,105,2|0,0:0|0:0,0:0:0:0:
262,156,443,2,0,P|315:165|349:166,1,70,8|0,0:3|0:0,0:0:0:0:
493,113,773,6,0,P|504:58|488:9,1,97.9999970092774,4|0,3:2|0:0,0:0:0:0:
391,231,1102,2,0,P|380:286|396:335,1,97.9999970092774,0|0,3:0|0:0,0:0:0:0:
356,114,1431,2,0,P|294:112|251:116,1,97.9999970092774,0|0,3:0|0:0,0:0:0:0:
151,244,1760,1,0,3:0:0:0:
65,89,1925,6,0,P|66:41|85:-3,2,97.9999970092774,2|0|0,0:0|3:0|0:0,0:0:0:0:
277,138,2419,2,0,P|248:99|207:75,1,97.9999970092774,0|0,3:0|0:0,0:0:0:0:
65,237,2748,2,0,P|113:231|156:208,1,97.9999970092774,0|0,3:0|0:0,0:0:0:0:
272,297,3078,2,0,P|320:303|363:327,1,97.9999970092774,0|0,3:0|0:0,0:0:0:0:
276,180,3407,6,0,P|267:126|280:73,1,97.9999970092774,0|0,3:0|0:0,0:0:0:0:
458,152,3736,2,0,P|467:206|454:259,1,97.9999970092774,0|0,3:0|0:0,0:0:0:0:
362,138,4066,1,0,3:0:0:0:
221,260,4230,2,0,P|151:268|101:248,1,97.9999970092774,0|0,3:0|0:0,0:0:0:0:
166,34,4560,6,0,P|188:103|163:208,1,146.999995513916,0|0,3:0|0:0,0:0:0:0:
99,174,4889,1,0,3:0:0:0:
286,309,5054,2,0,P|347:326|401:304,1,97.9999970092774,0|0,3:0|0:0,0:0:0:0:
272,186,5383,5,2,3:2:0:0:
155,363,5547,1,2,0:0:0:0:
54,189,5712,2,0,P|43:134|66:83,1,97.9999970092774,2|2,3:2|0:0,0:0:0:0:
248,13,6041,6,0,P|333:76|425:41,1,195.999994018555,4|0,3:2|0:0,0:0:0:0:
178,94,6535,2,0,P|161:163|190:235,1,146.999995513916,0|0,3:0|0:0,0:0:0:0:
256,281,6865,1,0,3:0:0:0:
404,204,7029,2,0,P|465:188|515:202,1,97.9999970092774,8|0,2:3|0:0,0:0:0:0:
304,101,7359,6,0,P|224:50|126:92,1,195.999994018555,4|0,3:2|0:0,0:0:0:0:
269,329,7853,2,0,P|305:271|292:194,1,146.999995513916,0|0,3:0|0:0,0:0:0:0:
212,148,8182,1,0,3:0:0:0:
86,299,8347,2,0,P|35:316|26:232,1,146.999995513916,8|0,2:3|0:0,0:0:0:0:
174,323,8676,6,0,P|232:335|372:313,1,195.999994018555,0|0,3:0|0:0,0:0:0:0:
501,368,9170,2,0,P|484:310|483:249,1,97.9999970092774,0|0,3:0|0:0,0:0:0:0:
489,98,9499,2,0,P|440:150|300:177,1,195.999994018555,0|0,3:0|0:0,0:0:0:0:
154,44,9993,5,0,3:0:0:0:
381,90,10158,1,0,3:0:0:0:
212,283,10322,2,0,P|201:336|210:387,1,97.9999970092774,0|0,3:0|0:0,0:0:0:0:
352,250,10652,1,0,3:0:0:0:
185,139,10816,2,0,P|95:197|-3:166,1,195.999994018555,0|0,3:0|0:0,0:0:0:0:
260,47,11310,6,0,P|286:106|290:169,1,97.9999970092774,4|0,3:2|0:0,0:0:0:0:
177,346,11640,2,0,P|186:298|208:254,1,97.9999970092774,0|0,3:0|0:0,0:0:0:0:
388,236,11969,2,0,P|436:243|484:240,1,97.9999970092774,0|0,3:0|0:0,0:0:0:0:
290,170,12298,1,0,3:0:0:0:
404,53,12463,6,0,P|432:93|446:146,2,97.9999970092774,2|0|0,0:0|3:0|0:0,0:0:0:0:
206,120,12957,2,0,P|226:75|265:37,1,97.9999970092774,0|0,3:0|0:0,0:0:0:0:
364,258,13286,2,0,P|315:262|262:247,1,97.9999970092774,0|0,3:0|0:0,0:0:0:0:
115,345,13616,2,0,P|50:351|8:374,1,97.9999970092774,0|0,3:0|0:0,0:0:0:0:
146,216,13945,6,0,P|141:159|98:97,1,97.9999970092774,0|0,3:0|0:0,0:0:0:0:
291,39,14274,2,0,P|279:91|287:156,1,97.9999970092774,0|0,3:0|0:0,0:0:0:0:
408,235,14603,2,0,P|466:247|509:270,1,97.9999970092774,0|0,3:0|0:0,0:0:0:0:
274,270,14933,2,0,P|268:211|340:123,1,146.999995513916,0|0,3:0|0:0,0:0:0:0:
403,129,15262,5,0,0:0:0:0:
223,100,15427,1,0,3:0:0:0:
223,100,15509,1,0,3:0:0:0:
223,100,15591,2,0,P|153:117|75:92,1,146.999995513916,0|0,3:0|0:0,0:0:0:0:
22,148,15921,2,0,P|12:203|34:259,1,97.9999970092774,0|2,3:0|0:0,0:0:0:0:
165,371,16250,2,0,P|175:316|153:260,1,97.9999970092774,0|2,3:0|0:0,0:0:0:0:
436,260,16579,6,0,P|401:323|281:351,1,195.999994018555,4|0,3:2|0:0,0:0:0:0:
154,240,17073,2,0,P|172:186|242:234,1,146.999995513916,0|0,3:0|0:0,0:0:0:0:
221,296,17403,1,0,3:0:0:0:
64,236,17567,2,0,P|73:172|99:135,1,97.9999970092774,8|0,2:3|0:0,0:0:0:0:
307,110,17897,6,0,P|365:152|486:123,1,195.999994018555,4|8,3:2|0:3,0:0:0:0:
243,240,18391,2,0,P|172:256|164:184,1,146.999995513916,0|0,3:0|0:0,0:0:0:0:
239,154,18720,1,0,3:0:0:0:
321,309,18884,2,0,P|416:351|496:321,1,146.999995513916,8|0,2:3|0:0,0:0:0:0:
502,266,19214,6,0,P|456:227|321:222,1,195.999994018555,0|0,3:0|0:0,0:0:0:0:
179,294,19708,2,0,P|124:303|62:283,1,97.9999970092774,0|0,3:0|0:0,0:0:0:0:
4,174,20037,1,0,3:0:0:0:
4,174,20119,1,0,3:0:0:0:
4,174,20202,2,0,P|16:121|8:74,1,97.9999970092774,0|0,3:0|0:0,0:0:0:0:
195,213,20531,5,0,3:0:0:0:
417,128,20696,1,8,0:3:0:0:
239,23,20860,1,0,3:0:0:0:
330,228,21025,1,8,0:3:0:0:
126,103,21190,5,0,3:0:0:0:
386,151,21354,1,8,0:3:0:0:
127,209,21519,1,0,3:0:0:0:
380,60,21684,1,8,0:3:0:0:
214,158,21848,6,0,B|151:149|150:201|78:181,1,125.999996154785,4|0,3:2|0:0,0:0:0:0:
28,126,22178,2,0,P|18:78|40:37,1,83.9999974365235,2|0,0:0|0:0,0:0:0:0:
214,22,22507,1,0,3:0:0:0:
294,82,22672,2,0,P|317:141|293:223,1,125.999996154785,2|0,3:2|0:0,0:0:0:0:
229,152,23001,5,4,3:2:0:0:
469,53,23330,1,0,3:0:0:0:
472,317,23659,1,0,3:0:0:0:
375,255,23824,2,0,P|367:207|379:167,1,83.9999974365235,2|0,0:0|0:0,0:0:0:0:
465,133,24153,2,0,P|474:173|465:214,1,83.9999974365235,2|0,0:0|0:0,0:0:0:0:
294,319,24483,6,0,P|246:304|174:363,1,125.999996154785,4|0,3:2|0:0,0:0:0:0:
101,329,24812,2,0,P|90:284|106:230,1,83.9999974365235,2|0,0:0|0:0,0:0:0:0:
214,169,25141,1,0,3:0:0:0:
88,103,25306,2,0,P|24:116|40:189,1,125.999996154785,0|0,3:0|0:0,0:0:0:0:
113,190,25635,5,4,3:2:0:0:
316,238,25965,1,0,3:0:0:0:
316,238,26129,1,2,0:0:0:0:
400,99,26294,2,0,P|412:139|402:180,1,83.9999974365235,0|0,3:0|0:0,0:0:0:0:
323,141,26623,1,0,3:0:0:0:
270,63,26788,2,0,P|209:58|167:102,1,125.999996154785,2|0,0:0|0:0,0:0:0:0:
234,184,27117,6,0,P|237:229|232:287,1,83.9999974365235,0|0,3:0|0:0,0:0:0:0:
23,361,27446,1,8,0:3:0:0:
157,235,27611,1,0,0:0:0:0:
321,325,27776,1,0,3:0:0:0:
87,301,27940,1,0,3:0:0:0:
229,161,28105,1,8,2:3:0:0:
432,217,28270,5,6,0:2:0:0:
256,192,28352,12,0,30163,0:0:0:0:
