osu file format v14

[General]
AudioFilename: audio.mp3
AudioLeadIn: 0
PreviewTime: 44
Countdown: 1
SampleSet: Soft
StackLeniency: 0.7
Mode: 2
LetterboxInBreaks: 0
WidescreenStoryboard: 1

[Editor]
DistanceSpacing: 1.4
BeatDivisor: 4
GridSize: 32
TimelineZoom: 2.799999

[Metadata]
Title:A or A!?
TitleUnicode:A or A!?
Artist:petit milady
ArtistUnicode:petit milady
Creator:Ascendance
Version:Salad
Source:ありすorありす
Tags:alice or alice siscon niisan to futago no imouto anime fanservice lolis opening jbhyperion jbh
BeatmapID:1635660
BeatmapSetID:778804

[Difficulty]
HPDrainRate:4
CircleSize:3
OverallDifficulty:7
ApproachRate:7
SliderMultiplier:1.4
SliderTickRate:1

[Events]
//Background and Video events
0,0,"cropped-1920-1080-770610.png",0,0
//Break Periods
//Storyboard Layer 0 (Background)
//Storyboard Layer 1 (Fail)
//Storyboard Layer 2 (Pass)
//Storyboard Layer 3 (Foreground)
//Storyboard Sound Samples

[TimingPoints]
785,329.308452250274,4,2,1,66,1,0
785,-100,4,2,1,66,0,0
21794,-100,4,2,1,66,0,0
29752,-100,4,2,1,66,0,0
29834,-100,4,2,1,66,0,0
29916,-100,4,2,1,66,0,0
29999,-100,4,2,1,66,0,0
30081,-100,4,2,1,66,0,0
30163,-100,4,2,1,66,0,0
30175,-100,4,2,1,5,0,0

[Colours]
Combo1 : 235,88,84
Combo2 : 208,225,249
Combo3 : 118,165,243
Combo4 : 244,192,157

[HitObjects]
278,195,126,6,0,L|108:194,1,140,2|2,0:0|0:0,0:0:0:0:
432,333,785,6,0,L|431:172,1,140,4|0,3:2|3:0,0:0:0:0:
268,153,1443,1,0,3:0:0:0:
113,148,1772,2,0,L|260:148,2,140,0|0|0,3:0|3:0|3:0,0:0:0:0:
267,117,2760,2,0,L|408:118,1,140,0|0,3:0|3:0,0:0:0:0:
232,75,3419,6,0,L|75:75,1,140,0|0,3:0|3:0,0:0:0:0:
256,114,4078,2,0,L|347:114,1,70,0|0,3:0|3:0,0:0:0:0:
68,311,4572,2,0,P|15:256|87:155,1,210,0|0,3:0|3:0,0:0:0:0:
256,156,5395,2,0,L|102:156,1,140,2|2,3:2|3:2,0:0:0:0:
396,315,6053,6,0,P|461:252|379:177,1,210,4|0,3:2|3:0,0:0:0:0:
220,171,6877,2,0,L|320:171,1,70,0|8,3:0|2:3,0:0:0:0:
100,317,7371,2,0,P|35:254|117:179,1,210,4|0,3:2|3:0,0:0:0:0:
269,175,8194,1,0,0:0:0:0:
147,176,8359,1,0,0:0:0:0:
354,241,8688,6,0,L|512:241,1,140,0|0,3:0|0:0,0:0:0:0:
217,167,9347,2,0,L|135:168,2,70,0|0|0,0:0|3:0|0:0,0:0:0:0:
412,171,9840,1,0,0:0:0:0:
275,170,10170,2,0,L|182:170,1,70,0|0,0:0|3:0,0:0:0:0:
41,308,10664,2,0,L|30:218,1,70,0|0,3:0|3:0,0:0:0:0:
364,250,11322,6,0,L|536:250,1,140,4|0,3:2|3:0,0:0:0:0:
331,212,11981,2,0,L|179:212,1,140,0|0,3:0|3:0,0:0:0:0:
39,222,12640,2,0,L|188:222,1,140,0|0,3:0|3:0,0:0:0:0:
334,222,13298,2,0,L|486:222,1,140,0|0,3:0|3:0,0:0:0:0:
306,186,13957,6,0,L|142:186,2,140,0|0|0,3:0|3:0|0:0,0:0:0:0:
473,190,14945,1,0,0:0:0:0:
188,67,15274,2,0,L|35:68,1,140,0|0,0:0|3:0,0:0:0:0:
132,66,15768,2,0,L|283:66,1,140,0|2,0:0|0:0,0:0:0:0:
364,68,16262,1,0,3:0:0:0:
99,319,16591,6,0,P|34:256|116:181,1,210,4|0,3:2|3:0,0:0:0:0:
292,171,17415,2,0,L|192:171,1,70,0|8,3:0|2:3,0:0:0:0:
396,315,17909,2,0,P|461:252|379:177,1,210,4|0,3:2|3:0,0:0:0:0:
228,170,18732,1,0,0:0:0:0:
342,171,18896,1,0,0:0:0:0:
135,88,19226,6,0,L|295:88,1,140,0|0,3:0|0:0,0:0:0:0:
78,256,19884,2,0,L|58:103,1,140,0|0,0:0|3:0,0:0:0:0:
378,351,20543,2,0,P|472:270|419:192,1,210,0|8,3:0|0:3,0:0:0:0:
268,217,21202,2,0,P|198:172|265:59,1,210,0|8,3:0|0:3,0:0:0:0:
416,46,21860,5,4,3:2:0:0:
241,133,22519,2,0,L|153:134,1,70,0|2,3:0|3:2,0:0:0:0:
344,224,23013,2,0,L|177:224,2,140,4|0|0,3:2|3:0|3:0,0:0:0:0:
215,157,23836,2,0,L|138:158,1,70
52,173,24165,2,0,L|52:249,1,70
232,297,24495,5,4,3:2:0:0:
447,300,25153,2,0,L|369:299,1,70,0|0,3:0|3:0,0:0:0:0:
253,300,25647,2,0,L|401:300,1,140,4|0,3:2|3:0,0:0:0:0:
216,227,26141,5,2,0:0:0:0:
82,299,26471,1,0,0:0:0:0:
25,263,26635,1,0,3:0:0:0:
22,196,26800,1,2,0:0:0:0:
76,157,26964,1,0,0:0:0:0:
262,107,27129,6,0,L|427:107,1,140,0|8,3:0|0:3,0:0:0:0:
227,53,27788,2,0,L|140:53,2,70,0|0|8,3:0|3:0|2:3,0:0:0:0:
416,47,28282,5,6,0:2:0:0:
256,192,28611,12,0,30175,0:0:0:0:
