osu file format v14

[General]
AudioFilename: audio.mp3
AudioLeadIn: 0
PreviewTime: 44
Countdown: 1
SampleSet: Soft
StackLeniency: 0.7
Mode: 2
LetterboxInBreaks: 0
WidescreenStoryboard: 1

[Editor]
DistanceSpacing: 1.6
BeatDivisor: 4
GridSize: 4
TimelineZoom: 2.799999

[Metadata]
Title:A or A!?
TitleUnicode:A or A!?
Artist:petit milady
ArtistUnicode:petit milady
Creator:Ascendance
Version:Hyperion's Cup
Source:ありすorありす
Tags:alice or alice siscon niisan to futago no imouto anime fanservice lolis opening jbhyperion jbh
BeatmapID:1635657
BeatmapSetID:778804

[Difficulty]
HPDrainRate:3
CircleSize:2.5
OverallDifficulty:6
ApproachRate:6
SliderMultiplier:1.2
SliderTickRate:1

[Events]
//Background and Video events
0,0,"cropped-1920-1080-770610.png",0,0
//Break Periods
//Storyboard Layer 0 (Background)
//Storyboard Layer 1 (Fail)
//Storyboard Layer 2 (Pass)
//Storyboard Layer 3 (Foreground)
//Storyboard Sound Samples

[TimingPoints]
785,329.308452250274,4,2,1,66,1,0
785,-100,4,2,1,66,0,0
15274,-80,4,2,1,66,0,0
15603,-100,4,2,1,66,0,0
21794,-100,4,2,1,66,0,0
29752,-100,4,2,1,66,0,0
29834,-100,4,2,1,66,0,0
29916,-100,4,2,1,66,0,0
29999,-100,4,2,1,66,0,0
30081,-100,4,2,1,66,0,0
30163,-100,4,2,1,66,0,0
30175,-100,4,2,1,5,0,0

[Colours]
Combo1 : 235,88,84
Combo2 : 208,225,249
Combo3 : 118,165,243
Combo4 : 244,192,157

[HitObjects]
324,192,126,5,2,0:0:0:0:
180,192,455,1,0,0:0:0:0:
348,192,785,6,0,L|436:108,2,120,4|0|0,3:2|3:0|3:0,0:0:0:0:
216,192,1772,1,0,3:0:0:0:
372,192,2102,6,0,L|296:100,1,120,0|0,3:0|3:0,0:0:0:0:
164,192,2760,2,0,L|240:100,1,120,0|0,3:0|3:0,0:0:0:0:
372,104,3419,6,0,L|492:104,1,120,0|0,3:0|3:0,0:0:0:0:
348,104,4078,2,0,L|344:44,1,60,0|0,3:0|3:0,0:0:0:0:
200,44,4572,6,0,L|76:44,1,120,0|0,3:0|3:0,0:0:0:0:
32,44,5066,1,0,3:0:0:0:
188,136,5395,2,0,L|80:192,1,120,2|2,3:2|3:2,0:0:0:0:
248,192,6053,6,0,L|368:192,1,120,4|0,3:2|0:0,0:0:0:0:
308,280,6547,2,0,L|184:280,1,120,0|0,3:0|3:0,0:0:0:0:
128,280,7041,1,8,2:3:0:0:
284,104,7371,6,0,L|164:104,1,120,4|0,3:2|0:0,0:0:0:0:
224,192,7865,2,0,L|348:192,1,120,0|0,3:0|3:0,0:0:0:0:
416,192,8359,1,8,2:3:0:0:
260,192,8688,6,0,L|256:68,1,120,0|0,3:0|0:0,0:0:0:0:
424,72,9347,2,0,L|448:16,2,60,0|0|0,0:0|3:0|0:0,0:0:0:0:
280,76,10005,6,0,L|159:119,1,120,0|0,0:0|3:0,0:0:0:0:
312,116,10664,1,0,3:0:0:0:
240,116,10828,1,0,3:0:0:0:
24,192,11322,6,0,L|144:192,2,120,4|0|0,3:2|3:0|3:0,0:0:0:0:
168,192,12310,1,0,3:0:0:0:
324,192,12640,6,0,L|376:80,1,120,0|0,3:0|3:0,0:0:0:0:
244,192,13298,2,0,L|192:80,1,120,0|0,3:0|3:0,0:0:0:0:
336,84,13957,6,0,L|439:144,1,120,0|0,3:0|3:0,0:0:0:0:
308,144,14615,1,0,3:0:0:0:
464,144,14945,1,0,3:0:0:0:
292,144,15274,6,0,P|240:188|292:232,1,150,0|0,0:0|3:0,0:0:0:0:
356,232,15768,1,0,0:0:0:0:
424,232,15933,2,0,L|300:232,1,120,0|0,3:0|3:0,0:0:0:0:
148,228,16591,6,0,L|144:108,1,120,4|0,3:2|0:0,0:0:0:0:
224,108,17085,2,0,L|344:108,1,120,0|0,3:0|3:0,0:0:0:0:
284,108,17579,1,8,2:3:0:0:
128,296,17909,6,0,L|248:296,1,120,4|8,3:2|0:3,0:0:0:0:
328,200,18403,2,0,L|208:200,1,120,0|0,3:0|3:0,0:0:0:0:
280,200,18897,1,8,2:3:0:0:
418,200,19226,6,0,L|426:80,1,120,0|0,3:0|0:0,0:0:0:0:
294,80,19884,1,0,0:0:0:0:
438,80,20214,1,0,3:0:0:0:
276,80,20543,6,0,L|172:140,1,120,0|0,3:0|3:0,0:0:0:0:
352,144,21202,2,0,L|455:204,1,120,0|0,3:0|3:0,0:0:0:0:
294,204,21860,5,4,3:2:0:0:
162,204,22190,1,2,0:0:0:0:
306,204,22519,2,0,L|314:272,1,60,0|2,3:0|3:2,0:0:0:0:
158,264,23013,6,0,L|50:200,2,120,4|0|0,3:2|3:0|3:0,0:0:0:0:
230,264,23836,1,2,0:0:0:0:
86,192,24165,1,2,0:0:0:0:
242,192,24495,5,4,3:2:0:0:
308,192,24659,1,0,0:0:0:0:
375,192,24825,1,2,0:0:0:0:
230,192,25154,2,0,L|222:124,1,60,0|0,3:0|3:0,0:0:0:0:
378,132,25648,6,0,L|486:196,2,120,4|0|0,3:2|3:0|3:0,0:0:0:0:
306,132,26471,1,0,0:0:0:0:
174,132,26800,1,2,0:0:0:0:
318,132,27129,6,0,L|326:252,1,120,0|8,3:0|0:3,0:0:0:0:
170,252,27788,2,0,L|98:252,2,60,0|0|8,3:0|3:0|2:3,0:0:0:0:
264,252,28281,1,6,0:2:0:0:
256,192,28611,12,0,30175,0:0:0:0:
