osu file format v14

[General]
AudioFilename: audio.mp3
AudioLeadIn: 0
PreviewTime: 64241
Countdown: 0
SampleSet: Soft
StackLeniency: 0.7
Mode: 0
LetterboxInBreaks: 0
WidescreenStoryboard: 1

[Editor]
Bookmarks: 11915,23078,28136,28485,34241,45404,47322,53601,65461,66159,74706
DistanceSpacing: 1
BeatDivisor: 4
GridSize: 8
TimelineZoom: 2.2

[Metadata]
Title:360-Do Hoshi no Orchestra (TV Size)
TitleUnicode:360°星のオーケストラ (TV Size)
Artist:petit milady
ArtistUnicode:petit milady
Creator:Lafayla
Version:Seto's Insane
Source:七星のスバル
Tags:seven senses of the reunion shichisei no subaru opening anime petit milady ailv aliv anvil cococolaco lolicatgirl loli_catgirl -akito akito trynna doj seto kousuke seto_kousuke Yuuki Aoi Taketatsu Ayana degrees
BeatmapID:1775107
BeatmapSetID:843722

[Difficulty]
HPDrainRate:5
CircleSize:4
OverallDifficulty:8
ApproachRate:8.8
SliderMultiplier:1.8
SliderTickRate:1

[Events]
//Background and Video events
Video,840,"[ Shichisei no Subaru ] Opening 1.mp4"
0,0,"a9da0f336a2de95c6b026d5a2c76f890fa650985_s2_n1.jpg",0,0
//Break Periods
2,57987,60472
//Storyboard Layer 0 (Background)
//Storyboard Layer 1 (Fail)
//Storyboard Layer 2 (Pass)
//Storyboard Layer 3 (Foreground)
//Storyboard Sound Samples

[TimingPoints]
753,348.837209302326,4,2,1,45,1,0
753,-133.333333333333,4,2,1,45,0,0
4939,-200,4,2,1,45,0,0
6334,-133.333333333333,4,2,1,45,0,0
9125,-200,4,2,1,45,0,0
11915,-100,4,2,1,70,0,0
23078,-133.333333333333,4,2,1,55,0,0
32846,-117.647058823529,4,2,1,55,0,0
45404,-100,4,2,1,55,0,0
48194,-100,4,2,1,60,0,0
48718,-133.333333333333,4,2,1,60,0,0
49415,-100,4,2,1,60,0,0
50287,-133.333333333333,4,2,1,60,0,0
50985,-100,4,2,1,60,0,0
51508,-133.333333333333,4,2,1,60,0,0
52206,-100,4,2,1,60,0,0
53776,-100,4,2,1,70,0,0
56566,-200,4,2,1,55,0,0
58485,-133.333333333333,4,2,1,55,0,0
61276,-100,4,2,1,60,0,0
64241,348.837209302326,4,2,1,75,1,1
64241,-100,4,2,1,75,0,1
85345,-100,4,2,1,60,0,1
86566,-133.333333333333,4,2,1,75,0,0
87089,-133.333333333333,4,2,1,60,0,0
89357,-133.333333333333,4,2,1,5,0,0

[Colours]
Combo1 : 255,206,170
Combo2 : 170,181,255
Combo3 : 255,170,202
Combo4 : 217,170,255

[HitObjects]
79,163,753,5,0,0:0:0:0:
19,117,927,1,0,0:0:0:0:
79,163,1101,2,0,P|112:160|145:164,1,67.5000025749208,2|0,0:0|0:0,0:0:0:0:
268,210,1450,2,0,P|235:215|202:212,1,67.5000025749208,2|0,0:0|0:0,0:0:0:0:
74,257,1799,2,0,P|107:254|141:259,1,67.5000025749208,2|0,0:0|0:0,0:0:0:0:
330,311,2148,6,0,B|264:293|259:328|197:309,2,135.000005149842,2|2|2,0:0|0:0|0:0,0:0:0:0:
398,279,3020,1,0,0:0:0:0:
450,332,3194,2,0,P|471:305|473:272,1,67.5000025749208,2|0,0:0|0:0,0:0:0:0:
434,207,3543,2,0,L|357:187,1,67.5000025749208,2|0,0:0|0:0,0:0:0:0:
240,216,3892,2,0,L|306:233,1,67.5000025749208,2|0,0:0|0:0,0:0:0:0:
333,122,4241,2,0,L|256:102,1,67.5000025749208,2|0,0:0|0:0,0:0:0:0:
141,111,4590,2,0,P|172:97|197:75,1,67.5000025749208,2|0,0:0|0:0,0:0:0:0:
366,55,4939,6,0,L|368:205,1,135.000005149842,2|0,0:0|0:0,0:0:0:0:
367,189,5636,1,2,0:0:0:0:
294,255,5811,2,0,P|245:241|193:250,1,90,2|0,0:0|0:0,0:0:0:0:
141,284,6334,5,2,0:0:0:0:
204,325,6508,1,0,0:0:0:0:
141,284,6683,2,0,P|128:251|141:207,1,67.5000025749208,2|0,0:0|0:0,0:0:0:0:
198,107,7032,2,0,P|203:140|191:171,1,67.5000025749208,2|0,0:0|0:0,0:0:0:0:
55,153,7380,2,0,P|85:141|119:146,1,67.5000025749208,2|0,0:0|0:0,0:0:0:0:
233,249,7729,6,0,L|221:334,1,67.5000025749208,2|0,0:0|0:0,0:0:0:0:
329,187,8078,2,0,L|341:272,1,67.5000025749208,2|0,0:0|0:0,0:0:0:0:
248,93,8427,2,0,L|236:178,1,67.5000025749208,2|0,0:0|0:0,0:0:0:0:
344,31,8776,2,0,L|356:116,1,67.5000025749208,2|0,0:0|0:0,0:0:0:0:
427,206,9125,6,0,L|447:59,1,135,2|2,0:0|0:0,0:0:0:0:
316,25,9822,2,0,L|330:127,1,90,2|0,0:0|0:0,0:0:0:0:
280,191,10346,1,2,0:0:0:0:
207,116,10520,6,0,P|153:109|112:135,1,90,2|0,0:0|0:0,0:0:0:0:
62,210,11043,1,2,0:0:0:0:
73,355,11218,1,2,0:0:0:0:
312,281,11566,1,0,3:0:0:0:
312,281,11683,1,0,3:0:0:0:
312,281,11799,1,0,3:0:0:0:
312,281,11915,6,0,L|321:371,1,90,4|0,3:1|0:0,0:0:0:0:
466,265,12264,2,0,L|393:317,1,90,0|0,1:0|0:0,0:0:0:0:
303,192,12613,2,0,L|385:229,1,90,0|0,3:0|0:0,0:0:0:0:
449,91,12962,1,0,1:0:0:0:
457,178,13136,1,0,0:0:0:0:
297,105,13311,5,0,3:0:0:0:
385,229,13485,1,0,0:0:0:0:
303,192,13659,1,0,1:0:0:0:
449,91,13834,2,0,L|458:181,1,90,0|0,0:0|3:0,0:0:0:0:
394,319,14183,1,0,0:0:0:0:
303,192,14358,2,0,L|311:281,1,90,0|0,1:0|0:0,0:0:0:0:
302,287,14619,1,0,0:0:0:0:
295,295,14706,6,0,P|266:256|215:244,1,90,0|0,3:0|0:0,0:0:0:0:
60,201,15055,2,0,L|149:202,1,90,0|0,1:0|0:0,0:0:0:0:
221,68,15404,2,0,P|211:112|224:154,1,90,0|0,3:0|0:0,0:0:0:0:
393,195,15753,2,0,L|304:197,1,90,0|0,1:0|0:0,0:0:0:0:
146,112,16101,5,0,3:0:0:0:
72,249,16276,1,0,0:0:0:0:
67,69,16450,1,0,1:0:0:0:
149,202,16625,1,0,0:0:0:0:
143,22,16799,1,0,3:0:0:0:
69,159,16973,1,0,0:0:0:0:
224,65,17148,1,0,1:0:0:0:
227,246,17322,1,0,3:0:0:0:
231,250,17409,1,0,3:0:0:0:
235,254,17497,6,0,L|346:243,1,90,4|0,3:1|0:0,0:0:0:0:
450,153,17846,1,0,1:0:0:0:
413,236,18020,1,0,0:0:0:0:
271,171,18195,2,0,L|360:162,1,90,0|0,3:0|0:0,0:0:0:0:
503,226,18543,1,0,1:0:0:0:
466,308,18718,1,0,0:0:0:0:
376,316,18892,6,0,L|286:325,1,90,0|0,3:0|0:0,0:0:0:0:
181,179,19241,1,0,1:0:0:0:
63,288,19415,2,0,L|152:296,1,90,0|0,0:0|3:0,0:0:0:0:
271,171,19764,1,0,0:0:0:0:
286,325,19939,1,0,1:0:0:0:
413,236,20113,1,0,3:0:0:0:
413,236,20200,1,0,3:0:0:0:
413,236,20287,6,0,L|407:136,1,90,4|0,3:1|0:0,0:0:0:0:
326,5,20636,2,0,L|332:95,1,90,0|0,1:0|0:0,0:0:0:0:
276,260,20985,2,0,L|270:160,1,90,0|0,3:0|0:0,0:0:0:0:
189,29,21334,2,0,L|194:118,1,90,0|0,1:0|0:0,0:0:0:0:
124,288,21683,5,0,3:0:0:0:
36,154,21857,1,0,3:0:0:0:
194,118,22032,1,4,3:0:0:0:
149,301,22206,2,0,L|149:184,1,90,4|0,3:1|3:0,0:0:0:0:
96,41,22555,1,0,3:0:0:0:
96,41,22642,1,0,3:0:0:0:
96,41,22729,1,0,1:0:0:0:
36,154,22904,1,0,3:0:0:0:
209,111,23078,6,0,L|302:112,1,67.5000025749208,4|0,0:1|0:0,0:0:0:0:
434,115,23427,2,0,L|399:173,1,67.5000025749208,0|2,3:0|0:0,0:0:0:0:
323,48,23776,2,0,L|356:106,1,67.5000025749208,2|0,3:2|0:0,0:0:0:0:
368,240,24125,1,0,3:0:0:0:
356,106,24299,1,2,0:0:0:0:
275,187,24473,6,0,L|207:186,1,67.5000025749208,2|0,3:2|0:0,0:0:0:0:
61,221,24822,2,0,L|128:221,1,67.5000025749208,0|2,3:0|0:0,0:0:0:0:
256,271,25171,2,0,L|188:270,1,67.5000025749208,2|0,3:2|0:0,0:0:0:0:
80,137,25520,1,0,3:0:0:0:
230,110,25694,1,2,0:0:0:0:
256,271,25869,6,0,P|258:305|255:352,1,67.5000025749208,2|0,3:2|0:0,0:0:0:0:
116,231,26218,2,0,P|114:265|117:312,1,67.5000025749208,0|2,3:0|0:0,0:0:0:0:
194,127,26566,2,0,P|196:161|193:208,1,67.5000025749208,2|0,3:2|0:0,0:0:0:0:
24,230,26915,1,0,3:0:0:0:
99,378,27090,1,2,0:0:0:0:
253,298,27264,6,0,P|296:292|344:298,1,67.5000025749208,2|0,3:2|0:0,0:0:0:0:
429,371,27613,2,0,P|423:328|429:280,1,67.5000025749208,0|2,3:0|0:0,0:0:0:0:
497,165,27962,1,2,3:2:0:0:
355,214,28136,1,0,3:0:0:0:
363,222,28223,1,0,3:0:0:0:
371,230,28311,5,0,3:0:0:0:
373,196,28398,1,0,3:0:0:0:
356,168,28485,1,0,3:0:0:0:
325,154,28572,1,0,3:0:0:0:
293,160,28659,5,2,3:2:0:0:
235,92,28834,1,0,0:0:0:0:
118,195,29008,1,2,3:2:0:0:
147,110,29183,1,0,0:0:0:0:
265,244,29357,1,2,3:2:0:0:
207,176,29532,1,0,0:0:0:0:
89,280,29706,2,0,P|121:281|156:276,1,67.5000025749208,2|0,3:2|0:0,0:0:0:0:
289,92,30055,6,0,P|288:124|293:159,1,67.5000025749208,2|0,3:2|0:0,0:0:0:0:
472,280,30404,2,0,P|440:281|405:276,1,67.5000025749208,2|0,3:2|0:0,0:0:0:0:
441,77,30753,2,0,P|440:109|445:144,1,67.5000025749208,2|0,3:2|0:0,0:0:0:0:
312,335,31101,2,0,P|316:301|316:267,1,67.5000025749208,2|0,3:2|0:0,0:0:0:0:
289,92,31450,6,0,L|211:134,1,67.5000025749208,2|0,3:2|0:0,0:0:0:0:
93,87,31799,2,0,L|153:120,1,67.5000025749208,0|2,3:0|0:0,0:0:0:0:
294,175,32148,2,0,L|216:217,1,67.5000025749208,2|0,3:2|0:0,0:0:0:0:
98,170,32497,1,0,3:0:0:0:
84,309,32671,1,2,0:0:0:0:
88,313,32758,1,0,0:0:0:0:
92,317,32846,6,0,L|187:318,1,76.5000014591217,2|0,3:2|0:0,0:0:0:0:
252,263,33194,1,0,3:0:0:0:
282,362,33369,1,0,3:0:0:0:
414,269,33543,1,0,3:0:0:0:
334,208,33718,1,0,3:0:0:0:
334,208,33805,1,0,3:0:0:0:
334,208,33892,2,0,P|333:160|344:120,1,76.5000014591217,0|2,3:0|0:0,0:0:0:0:
365,103,34154,1,0,3:0:0:0:
365,103,34241,6,0,L|260:88,1,76.5000014591217,4|0,0:1|0:0,0:0:0:0:
211,25,34590,1,0,3:0:0:0:
143,153,34764,1,2,0:0:0:0:
143,153,34939,2,0,P|136:191|136:248,1,76.5000014591217,2|0,3:2|0:0,0:0:0:0:
298,231,35287,2,0,P|296:192|289:155,1,76.5000014591217,0|2,3:0|0:0,0:0:0:0:
148,48,35636,6,0,L|54:39,1,76.5000014591217,2|0,3:2|0:0,0:0:0:0:
27,235,35985,1,0,3:0:0:0:
18,129,36159,1,2,0:0:0:0:
18,129,36334,2,0,L|119:136,1,76.5000014591217,2|0,3:2|0:0,0:0:0:0:
204,264,36683,2,0,L|127:258,1,76.5000014591217,0|2,3:0|0:0,0:0:0:0:
322,137,37032,6,0,P|362:138|405:162,1,76.5000014591217,2|0,3:2|0:0,0:0:0:0:
349,342,37380,1,0,3:0:0:0:
474,304,37555,1,2,0:0:0:0:
474,304,37729,2,0,L|476:217,1,76.5000014591217,2|0,3:2|0:0,0:0:0:0:
415,80,38078,1,0,3:0:0:0:
336,198,38253,1,2,0:0:0:0:
336,198,38427,6,0,P|336:236|347:281,1,76.5000014591217,2|0,3:2|0:0,0:0:0:0:
202,168,38776,2,0,P|201:206|191:251,1,76.5000014591217,0|2,3:0|0:0,0:0:0:0:
277,52,39125,2,0,P|277:90|288:135,1,76.5000014591217,2|0,3:2|0:0,0:0:0:0:
143,22,39474,2,0,P|142:60|132:105,1,76.5000014591217,0|0,3:0|0:0,0:0:0:0:
20,241,39822,5,2,3:2:0:0:
52,141,39997,1,0,0:0:0:0:
142,312,40171,1,2,3:2:0:0:
110,212,40346,1,0,0:0:0:0:
231,140,40520,1,2,3:2:0:0:
321,311,40695,1,0,0:0:0:0:
363,191,40869,1,2,3:2:0:0:
199,240,41044,1,0,0:0:0:0:
334,79,41218,6,0,P|371:75|421:79,1,76.5000014591217,2|0,3:2|0:0,0:0:0:0:
486,276,41566,2,0,P|447:277|409:274,1,76.5000014591217,2|0,3:2|0:0,0:0:0:0:
260,134,41915,2,0,P|271:170|278:208,1,76.5000014591217,2|0,3:2|0:0,0:0:0:0:
325,67,42264,1,2,3:2:0:0:
211,21,42439,6,0,L|117:23,1,76.5000014591217,2|0,0:0|3:0,0:0:0:0:
10,73,42787,1,2,0:0:0:0:
118,144,42962,2,0,P|128:183|117:232,1,76.5000014591217,2|0,3:2|0:0,0:0:0:0:
4,321,43311,2,0,L|96:321,1,76.5000014591217,2|0,3:2|0:0,0:0:0:0:
269,326,43659,1,2,3:2:0:0:
223,232,43834,1,2,0:0:0:0:
175,324,44008,5,2,3:2:0:0:
363,328,44183,1,0,0:0:0:0:
317,234,44357,1,2,3:2:0:0:
171,328,44532,1,2,0:0:0:0:
167,332,44619,1,0,3:0:0:0:
163,336,44706,1,4,3:1:0:0:
215,224,44880,1,2,3:2:0:0:
219,228,44967,1,0,3:0:0:0:
223,232,45054,1,0,3:0:0:0:
118,237,45229,1,2,0:0:0:0:
286,145,45404,6,0,L|385:146,1,90,4|0,3:1|0:0,0:0:0:0:
215,67,45753,1,0,1:0:0:0:
328,54,45927,1,0,3:0:0:0:
332,58,46014,1,0,0:0:0:0:
336,62,46101,1,0,3:0:0:0:
196,62,46276,1,0,3:0:0:0:
270,246,46450,1,0,3:0:0:0:
269,137,46625,1,0,3:0:0:0:
113,234,46799,6,0,P|66:231|0:210,1,90,0|0,3:0|0:0,0:0:0:0:
38,27,47148,1,4,3:1:0:0:
163,144,47322,1,2,2:0:0:0:
302,26,47497,1,2,3:2:0:0:
327,179,47671,1,2,3:2:0:0:
331,183,47758,1,0,3:0:0:0:
335,187,47845,1,2,3:2:0:0:
446,96,48020,1,2,3:2:0:0:
450,314,48194,6,0,L|331:314,1,90,4|0,3:1|3:0,0:0:0:0:
356,318,48718,5,2,3:2:0:0:
352,322,48805,1,0,3:0:0:0:
348,326,48892,2,0,L|256:323,1,67.5000025749208,2|0,1:2|0:0,0:0:0:0:
122,246,49241,1,0,0:0:0:0:
137,333,49415,6,0,P|201:296|186:192,1,180,2|0,3:2|3:0,0:0:0:0:
118,150,49939,1,2,3:2:0:0:
431,42,50287,6,0,L|433:109,1,67.5000025749208,2|0,1:2|0:0,0:0:0:0:
330,178,50636,1,0,0:0:0:0:
408,185,50811,1,0,3:0:0:0:
450,314,50985,6,0,L|331:314,1,90,2|0,3:2|3:0,0:0:0:0:
356,318,51509,5,2,3:2:0:0:
352,322,51596,1,0,3:0:0:0:
348,326,51683,2,0,L|256:323,1,67.5000025749208,2|0,1:2|0:0,0:0:0:0:
239,193,52032,1,4,2:0:0:0:
320,139,52206,6,0,P|378:186|311:249,1,180,2|0,3:2|3:0,0:0:0:0:
239,193,52729,1,2,3:2:0:0:
69,343,53078,6,0,L|141:352,2,60,2|0|0,1:2|3:0|3:0,0:0:0:0:
45,308,53427,1,0,3:0:0:0:
49,263,53514,1,0,3:0:0:0:
78,230,53601,1,0,3:0:0:0:
121,220,53688,1,0,1:0:0:0:
162,236,53776,6,0,P|207:245|269:230,1,90,0|0,1:0|0:0,0:0:0:0:
324,59,54125,1,2,1:2:0:0:
434,187,54299,1,0,3:0:0:0:
434,187,54386,1,0,0:0:0:0:
434,187,54473,2,0,L|328:168,1,90,2|0,1:2|3:0,0:0:0:0:
142,154,54822,1,2,1:2:0:0:
230,53,54997,1,0,3:0:0:0:
289,248,55171,6,0,P|291:292|284:356,1,90,2|0,1:2|3:0,0:0:0:0:
74,339,55520,2,0,P|71:294|73:250,1,90,2|0,1:2|3:0,0:0:0:0:
42,216,55782,1,0,3:0:0:0:
42,216,55869,2,0,L|149:207,1,90,2|0,1:2|3:0,0:0:0:0:
216,44,56218,1,2,1:2:0:0:
384,150,56392,1,0,3:0:0:0:
384,150,56479,1,0,3:0:0:0:
384,150,56566,6,0,B|328:136|298:172|238:136,1,135,2|0,0:2|0:0,0:0:0:0:
167,108,57439,2,0,P|163:136|169:164,2,45,2|2|0,0:2|0:2|0:0,0:0:0:0:
174,137,61101,5,2,0:2:0:0:
312,214,61276,2,0,L|310:107,1,90,4|0,0:1|0:0,0:0:0:0:
211,293,61625,1,2,3:2:0:0:
398,331,61799,1,2,3:2:0:0:
398,331,61886,1,0,0:0:0:0:
398,331,61973,1,2,3:2:0:0:
398,331,62061,1,0,1:0:0:0:
398,331,62148,1,2,1:2:0:0:
93,336,62497,5,2,1:2:0:0:
93,336,63020,5,0,3:0:0:0:
40,271,63194,1,2,1:2:0:0:
120,191,63368,1,0,3:0:0:0:
35,78,63543,1,2,1:2:0:0:
188,275,63718,2,0,L|311:263,1,90,2|2,3:2|0:2,0:0:0:0:
469,54,64241,6,0,P|460:98|473:150,1,90,4|0,0:1|3:0,0:0:0:0:
473,149,64502,1,0,3:0:0:0:
478,156,64589,2,0,L|376:162,1,90,2|0,1:2|3:0,0:0:0:0:
284,40,64938,2,0,L|373:45,1,90,2|0,1:2|3:0,0:0:0:0:
284,163,65287,1,2,1:2:0:0:
182,33,65461,1,0,3:0:0:0:
182,33,65549,1,0,3:0:0:0:
182,33,65636,6,0,L|158:143,1,90,2|0,1:2|3:0,0:0:0:0:
106,280,65985,1,2,1:2:0:0:
74,180,66160,1,0,3:0:0:0:
245,182,66334,1,2,1:2:0:0:
162,120,66508,1,0,3:0:0:0:
211,281,66682,1,2,1:2:0:0:
330,123,66857,1,0,3:0:0:0:
429,260,67031,5,2,1:2:0:0:
390,57,67205,1,0,3:0:0:0:
507,192,67380,1,2,1:2:0:0:
489,91,67554,1,0,3:0:0:0:
331,226,67729,1,2,1:2:0:0:
298,40,67903,1,0,3:0:0:0:
145,204,68078,2,0,L|29:181,1,90,2|0,1:2|3:0,0:0:0:0:
48,181,68339,1,0,3:0:0:0:
41,174,68427,6,0,P|49:121|101:87,1,90,2|0,1:2|3:0,0:0:0:0:
234,220,68775,2,0,L|215:335,1,90,2|0,1:2|0:0,0:0:0:0:
222,318,69036,1,0,3:0:0:0:
225,327,69124,1,2,1:2:0:0:
332,171,69299,1,2,0:0:0:0:
367,350,69473,1,0,1:0:0:0:
486,238,69647,1,0,1:0:0:0:
486,238,69735,1,0,3:0:0:0:
486,238,69822,6,0,L|476:134,1,90,4|0,0:1|0:0,0:0:0:0:
346,37,70171,1,2,1:2:0:0:
461,25,70345,1,0,3:0:0:0:
371,159,70520,1,2,1:2:0:0:
335,20,70694,1,0,3:0:0:0:
244,120,70868,1,2,1:2:0:0:
139,22,71043,1,0,3:0:0:0:
139,22,71130,1,0,3:0:0:0:
139,22,71217,6,0,L|113:114,1,90,2|0,1:2|3:0,0:0:0:0:
24,273,71566,2,0,L|0:187,1,90,2|0,1:2|3:0,0:0:0:0:
202,213,71915,2,0,L|177:299,1,90,2|0,1:2|3:0,0:0:0:0:
111,124,72264,1,2,1:2:0:0:
314,95,72438,1,0,3:0:0:0:
314,95,72525,1,0,3:0:0:0:
314,95,72613,6,0,P|370:109|490:65,1,180,2|0,1:2|1:0,0:0:0:0:
390,14,73136,1,2,0:0:0:0:
289,95,73310,2,0,B|208:108|200:51|84:97,1,180,2|0,1:2|1:0,0:0:0:0:
30,148,73834,1,2,0:0:0:0:
28,156,73921,1,0,3:0:0:0:
26,164,74008,6,0,L|44:270,1,90,2|0,1:2|3:0,0:0:0:0:
149,238,74357,1,0,1:0:0:0:
107,339,74531,1,2,0:0:0:0:
191,137,74706,1,2,1:2:0:0:
250,237,74880,1,0,3:0:0:0:
254,241,74967,1,0,3:0:0:0:
258,245,75054,1,0,1:0:0:0:
319,94,75229,1,2,0:2:0:0:
442,181,75403,6,0,P|439:222|425:278,1,90,4|0,1:0|3:0,0:0:0:0:
254,358,75752,2,0,P|257:317|271:261,1,90,0|2,1:0|0:0,0:0:0:0:
319,94,76101,1,2,1:2:0:0:
349,205,76275,1,0,3:0:0:0:
237,175,76450,1,0,1:0:0:0:
431,124,76624,1,2,0:0:0:0:
279,16,76799,6,0,L|188:23,1,90,2|0,1:2|3:0,0:0:0:0:
135,190,77147,2,0,L|226:183,1,90,0|2,1:0|0:0,0:0:0:0:
232,178,77409,1,0,3:0:0:0:
239,172,77496,2,0,P|232:223|260:277,1,90,2|0,1:2|3:0,0:0:0:0:
108,358,77845,1,0,1:0:0:0:
32,243,78020,1,2,0:0:0:0:
32,243,78107,1,0,3:0:0:0:
32,243,78194,6,0,L|29:136,1,90,4|0,0:1|3:0,0:0:0:0:
100,14,78543,2,0,L|103:121,1,90,0|2,1:0|0:0,0:0:0:0:
180,247,78892,1,2,1:2:0:0:
177,157,79066,1,0,3:0:0:0:
98,295,79241,1,0,1:0:0:0:
95,205,79415,1,2,0:0:0:0:
265,289,79589,6,0,P|311:294|382:280,1,90,2|0,1:2|3:0,0:0:0:0:
349,112,79938,2,0,P|302:106|232:121,1,90,0|2,1:0|0:0,0:0:0:0:
422,202,80287,1,2,1:2:0:0:
421,32,80461,1,0,3:0:0:0:
259,112,80636,1,0,3:0:0:0:
259,112,80723,1,0,3:0:0:0:
259,112,80810,1,0,3:0:0:0:
259,112,80897,1,0,3:0:0:0:
259,112,80985,6,0,B|238:200|287:203|247:305,1,180,4|2,0:1|3:2,0:0:0:0:
98,317,81508,1,2,1:2:0:0:
98,317,81595,1,0,3:2:0:0:
98,317,81682,2,0,P|142:315|187:348,1,90,0|2,1:0|3:2,0:0:0:0:
325,351,82031,1,0,1:0:0:0:
178,241,82206,6,0,L|180:139,1,90,2|0,3:2|1:0,0:0:0:0:
360,70,82554,1,0,3:2:0:0:
360,70,82642,1,0,3:2:0:0:
360,70,82729,2,0,L|358:172,1,90,2|0,1:2|3:2,0:0:0:0:
361,168,82991,1,0,3:2:0:0:
363,176,83078,2,0,P|309:166|260:186,1,90,2|0,3:2|3:2,0:0:0:0:
83,130,83427,1,2,1:2:0:0:
225,37,83601,1,0,3:2:0:0:
294,279,83775,5,4,0:1:0:0:
421,239,83950,1,0,1:0:0:0:
421,239,84037,1,0,3:2:0:0:
421,239,84124,1,0,1:0:0:0:
355,351,84299,2,0,P|250:362|205:291,1,180,2|2,3:2|3:2,0:0:0:0:
254,182,84822,1,0,0:0:0:0:
116,232,84996,6,0,L|15:233,1,90,2|0,3:2|0:0,0:0:0:0:
142,130,85345,1,0,3:0:0:0:
228,330,85520,1,0,0:0:0:0:
316,154,86392,2,0,L|373:154,2,45,0|0|4,3:0|3:0|0:1,0:0:0:0:
256,192,86653,12,0,89357,0:0:0:0:
