osu file format v14

[General]
AudioFilename: audio.mp3
AudioLeadIn: 0
PreviewTime: 64241
Countdown: 0
SampleSet: Soft
StackLeniency: 0.7
Mode: 0
LetterboxInBreaks: 0
WidescreenStoryboard: 0

[Editor]
DistanceSpacing: 0.8
BeatDivisor: 4
GridSize: 4
TimelineZoom: 1.8

[Metadata]
Title:360-Do Hoshi no Orchestra (TV Size)
TitleUnicode:360°星のオーケストラ (TV Size)
Artist:petit milady
ArtistUnicode:petit milady
Creator:Lafayla
Version:Insane
Source:七星のスバル
Tags:seven senses of the reunion shichisei no subaru opening anime petit milady ailv aliv anvil cococolaco lolicatgirl loli_catgirl -akito akito trynna doj seto kousuke seto_kousuke Yuuki Aoi Taketatsu Ayana degrees
BeatmapID:1765143
BeatmapSetID:843722

[Difficulty]
HPDrainRate:5
CircleSize:4.2
OverallDifficulty:8
ApproachRate:8.8
SliderMultiplier:1.8
SliderTickRate:1

[Events]
//Background and Video events
Video,840,"[ Shichisei no Subaru ] Opening 1.mp4"
0,0,"a9da0f336a2de95c6b026d5a2c76f890fa650985_s2_n1.jpg",0,0
//Break Periods
//Storyboard Layer 0 (Background)
//Storyboard Layer 1 (Fail)
//Storyboard Layer 2 (Pass)
//Storyboard Layer 3 (Foreground)
//Storyboard Sound Samples

[TimingPoints]
753,348.837209302326,4,2,1,45,1,0
753,-181.818181818181,4,2,1,45,0,0
5462,-181.818181818181,4,2,1,5,0,0
5636,-181.818181818181,4,2,1,45,0,0
11915,-111.111111111111,4,2,1,70,0,0
23078,-125,4,2,1,55,0,0
34241,-111.111111111111,4,2,1,55,0,0
48194,-111.111111111111,4,2,1,60,0,0
53776,-100,4,2,1,70,0,0
56566,-181.818181818181,4,2,1,55,0,0
61276,-181.818181818181,4,2,1,60,0,0
62497,-100,4,2,1,60,0,0
64241,348.837209302326,4,2,1,75,1,1
64241,-100,4,2,1,75,0,1
64589,-90.9090909090909,4,2,1,75,0,1
64938,-100,4,2,1,75,0,1
67380,-90.9090909090909,4,2,1,75,0,1
67729,-100,4,2,1,75,0,1
68775,-90.9090909090909,4,2,1,75,0,1
69822,-100,4,2,1,75,0,1
70171,-90.9090909090909,4,2,1,75,0,1
70520,-100,4,2,1,75,0,1
80985,-100,4,2,1,75,0,1
84996,-90.9090909090909,4,2,1,75,0,1
85345,-100,4,2,1,60,0,1
86566,-90.9090909090909,4,2,1,75,0,0
87089,-90.9090909090909,4,2,1,60,0,0
89357,-90.9090909090909,4,2,1,5,0,0

[Colours]
Combo1 : 255,206,170
Combo2 : 170,181,255
Combo3 : 255,170,202
Combo4 : 217,170,255

[HitObjects]
432,132,753,5,0,0:0:0:0:
421,142,1101,2,0,P|468:131|512:151,2,99.0000030212403,2|2|2,0:0|0:0|0:0,0:0:0:0:
328,94,2148,2,0,B|317:197,1,99.0000030212403,2|2,0:0|0:0,0:0:0:0:
213,209,2846,2,0,B|223:312,1,99.0000030212403,2|2,0:0|0:0,0:0:0:0:
288,365,3543,6,0,P|240:354|196:374,2,99.0000030212403,2|2|2,0:0|0:0|0:0,0:0:0:0:
377,301,4590,1,2,0:0:0:0:
389,312,4939,2,0,B|396:242|396:242|376:209|376:209|383:139,1,173.250005287171,2|0,0:0|0:0,0:0:0:0:
389,115,5636,1,2,0:0:0:0:
247,42,5811,2,0,B|257:140,1,99.0000030212403,2|0,0:0|0:0,0:0:0:0:
284,298,6334,5,2,0:0:0:0:
296,308,6683,2,0,B|394:297,2,99.0000030212403,2|2|2,0:0|0:0|0:0,0:0:0:0:
209,364,7729,2,0,P|193:318|203:252,1,99.0000030212403,2|2,0:0|0:0,0:0:0:0:
84,285,8427,2,0,P|87:235|71:189,1,99.0000030212403,2|2,0:0|0:0,0:0:0:0:
32,76,9125,6,0,P|78:92|127:88,1,99.0000030212403,2|0,0:0|0:0,0:0:0:0:
279,58,9648,1,2,0:0:0:0:
279,58,9822,2,0,B|269:156,1,99.0000030212403,2|0,0:0|0:0,0:0:0:0:
363,262,10346,1,2,0:0:0:0:
363,262,10520,2,0,P|313:258|267:274,1,99.0000030212403,2|0,0:0|0:0,0:0:0:0:
135,349,11043,1,2,0:0:0:0:
135,349,11218,1,2,0:0:0:0:
6,262,11566,5,0,3:0:0:0:
10,230,11683,1,0,3:0:0:0:
24,206,11799,1,0,3:0:0:0:
50,191,11915,6,0,P|107:172|167:175,1,121.499996292114,4|0,3:1|0:0,0:0:0:0:
89,141,12264,2,0,P|129:135|169:139,1,80.9999975280763,0|0,1:0|0:0,0:0:0:0:
338,97,12613,2,0,P|298:103|258:99,1,80.9999975280763,0|0,3:0|0:0,0:0:0:0:
258,99,12875,1,0,3:0:0:0:
258,99,12962,1,0,1:0:0:0:
387,3,13136,1,0,0:0:0:0:
512,183,13311,6,0,B|451:176|451:176|420:198|420:198|357:191,1,161.999995056153,0|0,3:0|1:0,0:0:0:0:
357,191,13747,1,0,0:0:0:0:
357,191,13834,1,0,0:0:0:0:
290,362,14008,2,0,L|298:282,1,80.9999975280763,0|0,3:0|0:0,0:0:0:0:
185,161,14357,2,0,L|193:241,1,80.9999975280763,0|0,1:0|0:0,0:0:0:0:
0,349,14706,6,0,P|77:311|155:341,1,161.999995056153,0|0,3:0|1:0,0:0:0:0:
221,257,15229,1,0,0:0:0:0:
79,172,15404,2,0,P|39:175|1:189,1,80.9999975280763,0|0,3:0|0:0,0:0:0:0:
165,105,15753,2,0,P|202:118|243:121,1,80.9999975280763,0|0,1:0|0:0,0:0:0:0:
355,0,16101,6,0,P|347:64|370:143,1,121.499996292114,0|0,3:0|0:0,0:0:0:0:
375,50,16450,2,0,P|378:90|393:127,1,80.9999975280763,0|0,1:0|0:0,0:0:0:0:
472,266,16799,2,0,P|486:228|490:188,1,80.9999975280763,0|0,3:0|0:0,0:0:0:0:
296,206,17148,1,0,1:0:0:0:
296,206,17235,1,0,3:0:0:0:
296,206,17322,1,0,3:0:0:0:
296,206,17409,1,0,3:0:0:0:
296,206,17497,6,0,L|376:214,1,80.9999975280763,4|0,3:1|0:0,0:0:0:0:
504,321,17846,2,0,L|424:313,1,80.9999975280763,0|0,1:0|0:0,0:0:0:0:
190,244,18194,1,0,3:0:0:0:
271,380,18369,1,0,3:0:0:0:
271,380,18456,1,0,3:0:0:0:
271,380,18543,2,0,L|215:386,1,40.4999987640381,0|0,1:0|0:0,0:0:0:0:
36,305,18718,2,0,L|91:311,1,40.4999987640381,0|0,3:0|0:0,0:0:0:0:
217,233,18892,6,0,P|145:218|133:127,1,161.999995056153,0|0,3:0|1:0,0:0:0:0:
206,32,19415,1,0,0:0:0:0:
296,110,19590,2,0,L|304:30,1,80.9999975280763,0|0,3:0|0:0,0:0:0:0:
403,90,19939,2,0,L|411:170,1,80.9999975280763,0|0,1:0|0:0,0:0:0:0:
512,297,20287,6,0,B|464:276|464:276|321:291,1,161.999995056153,4|0,3:1|1:0,0:0:0:0:
265,173,20811,1,0,0:0:0:0:
151,277,20985,2,0,P|193:272|231:285,1,80.9999975280763,0|0,3:0|0:0,0:0:0:0:
80,193,21334,2,0,P|41:204|1:199,1,80.9999975280763,0|0,1:0|0:0,0:0:0:0:
145,381,21683,5,0,3:0:0:0:
181,170,21857,1,0,3:0:0:0:
1,298,22032,1,4,3:0:0:0:
237,319,22206,1,4,3:1:0:0:
78,199,22380,1,0,3:0:0:0:
283,236,22555,5,0,3:0:0:0:
283,236,22642,1,0,3:0:0:0:
283,236,22729,1,0,1:0:0:0:
283,236,22816,1,0,3:0:0:0:
283,236,22904,1,0,3:0:0:0:
389,350,23078,6,0,L|404:206,1,144,4|0,0:1|3:0,0:0:0:0:
356,125,23601,1,2,0:0:0:0:
475,23,23776,2,0,P|434:86|349:93,1,144,2|0,3:2|3:0,0:0:0:0:
277,52,24299,1,2,0:0:0:0:
210,198,24473,6,0,B|205:147|205:147|181:118|181:118|176:62,1,144,2|0,3:2|3:0,0:0:0:0:
83,12,24997,1,2,0:0:0:0:
14,153,25171,2,0,P|15:116|0:83,2,72,2|0|0,3:2|0:0|3:0,0:0:0:0:
0,256,25694,1,2,0:0:0:0:
97,381,25869,6,0,L|112:237,1,144,2|0,3:2|3:0,0:0:0:0:
168,150,26392,1,2,0:0:0:0:
19,122,26566,2,0,B|59:102|59:102|166:113,1,144,2|0,3:2|3:0,0:0:0:0:
247,72,27090,1,2,0:0:0:0:
331,206,27264,6,0,P|273:165|290:74,1,144,2|0,3:2|3:0,0:0:0:0:
348,23,27787,1,2,0:0:0:0:
427,149,27962,2,0,L|437:53,1,72,2|0,3:2|0:0,0:0:0:0:
478,205,28311,2,0,L|467:109,1,72,0|0,3:0|0:0,0:0:0:0:
484,345,28659,6,0,P|425:297|342:317,1,144,2|2,3:2|3:2,0:0:0:0:
134,319,29357,2,0,P|203:324|257:278,1,144,2|2,3:2|3:2,0:0:0:0:
315,67,30055,2,0,L|330:211,1,144,2|2,3:2|3:2,0:0:0:0:
216,21,30753,2,0,L|201:165,1,144,2|2,3:2|3:2,0:0:0:0:
22,251,31450,6,0,B|76:244|76:244|110:261|110:261|160:256,1,144,2|0,3:2|3:0,0:0:0:0:
268,243,31973,1,2,0:0:0:0:
362,367,32148,2,0,P|344:289|261:274,1,144,2|0,3:2|3:0,0:0:0:0:
371,183,32671,1,2,0:0:0:0:
212,162,32846,6,0,P|176:162|140:171,1,72,2|0,3:2|0:0,0:0:0:0:
0,74,33194,2,0,P|34:82|70:82,1,72,0|0,3:0|3:0,0:0:0:0:
277,43,33543,1,0,3:0:0:0:
340,175,33718,5,0,3:0:0:0:
308,172,33805,1,0,3:0:0:0:
276,169,33892,1,0,3:0:0:0:
244,165,33979,1,0,3:0:0:0:
220,170,34066,1,2,3:2:0:0:
220,170,34154,1,0,3:0:0:0:
220,170,34241,6,0,P|208:254|277:296,1,161.999995056153,4|0,0:1|3:0,0:0:0:0:
314,384,34764,1,2,0:0:0:0:
396,240,34939,2,0,P|398:279|404:320,1,80.9999975280763,2|0,3:2|0:0,0:0:0:0:
512,225,35287,2,0,P|515:182|512:144,1,80.9999975280763,0|2,3:0|0:0,0:0:0:0:
329,31,35636,6,0,B|376:54|376:54|503:41,1,161.999995056153,2|0,3:2|3:0,0:0:0:0:
479,149,36159,1,2,0:0:0:0:
366,248,36334,2,0,P|364:171|294:140,1,161.999995056153,2|0,3:2|3:0,0:0:0:0:
188,157,36857,1,2,0:0:0:0:
93,20,37032,6,0,B|101:82|101:82|81:121|81:121|87:179,1,161.999995056153,2|0,3:2|3:0,0:0:0:0:
9,244,37555,1,2,0:0:0:0:
95,369,37729,2,0,L|103:288,1,80.9999975280763,2|0,3:2|0:0,0:0:0:0:
216,172,38078,2,0,L|216:252,1,80.9999975280763,0|2,3:0|0:0,0:0:0:0:
393,366,38427,6,0,P|390:288|321:255,1,161.999995056153,2|0,3:2|3:0,0:0:0:0:
222,284,38950,1,2,0:0:0:0:
137,162,39125,2,0,P|175:173|215:172,1,80.9999975280763,2|0,3:2|0:0,0:0:0:0:
400,129,39473,1,0,3:0:0:0:
323,229,39648,1,0,0:0:0:0:
443,324,39822,6,0,L|432:228,1,80.9999975280763,2|0,3:2|0:0,0:0:0:0:
512,80,40171,2,0,B|465:103|465:103|338:90,1,161.999995056153,2|2,3:2|3:2,0:0:0:0:
257,33,40694,1,0,0:0:0:0:
137,133,40869,2,0,L|232:122,1,80.9999975280763,2|0,3:2|0:0,0:0:0:0:
70,58,41218,6,0,P|32:124|65:206,1,161.999995056153,2|2,3:2|3:2,0:0:0:0:
167,232,41741,1,0,0:0:0:0:
0,315,41915,2,0,L|95:304,1,80.9999975280763,2|0,3:2|0:0,0:0:0:0:
262,264,42264,1,2,3:2:0:0:
160,384,42439,1,2,0:0:0:0:
162,193,42613,5,0,3:0:0:0:
264,373,42787,1,2,0:0:0:0:
317,200,42962,2,0,P|299:235|295:275,1,80.9999975280763,2|0,3:2|0:0,0:0:0:0:
419,207,43311,2,0,P|415:166|397:130,1,80.9999975280763,2|0,3:2|0:0,0:0:0:0:
267,30,43659,1,2,3:2:0:0:
273,216,43834,1,2,0:0:0:0:
78,116,44008,6,0,B|133:110|133:110|171:130|171:130|234:122,1,161.999995056153,2|2,3:2|3:2,0:0:0:0:
379,37,44532,1,2,0:0:0:0:
379,37,44619,1,0,3:0:0:0:
379,37,44706,1,4,3:1:0:0:
314,204,44880,1,2,3:2:0:0:
314,204,44968,1,0,3:0:0:0:
314,204,45055,1,0,3:0:0:0:
256,27,45229,1,2,0:0:0:0:
418,153,45404,6,0,P|431:192|429:232,1,80.9999975280763,4|0,3:1|0:0,0:0:0:0:
428,231,45665,1,0,3:0:0:0:
428,231,45753,1,0,1:0:0:0:
243,331,45927,1,0,3:0:0:0:
433,370,46101,1,0,3:0:0:0:
331,161,46276,1,0,3:0:0:0:
339,351,46450,1,0,3:0:0:0:
451,154,46625,1,0,3:0:0:0:
465,354,46799,5,0,3:0:0:0:
447,329,47148,1,4,3:1:0:0:
239,362,47322,1,2,2:0:0:0:
308,141,47497,1,2,3:2:0:0:
356,374,47671,1,2,3:2:0:0:
356,374,47758,1,0,3:0:0:0:
356,374,47846,1,2,3:2:0:0:
478,177,48020,1,2,3:2:0:0:
224,207,48194,5,4,3:1:0:0:
224,207,48369,1,0,3:0:0:0:
56,372,48718,1,2,3:2:0:0:
56,372,48805,1,0,3:0:0:0:
56,372,48892,2,0,P|90:291|58:203,1,161.999995056153,2|0,1:2|0:0,0:0:0:0:
190,88,49415,1,2,3:2:0:0:
190,87,49590,2,0,P|172:164|206:236,1,161.999995056153,2|2,3:2|3:2,0:0:0:0:
428,331,50287,2,0,L|347:339,1,80.9999975280763,2|0,1:2|0:0,0:0:0:0:
234,224,50636,2,0,L|315:232,1,80.9999975280763,0|0,0:0|3:0,0:0:0:0:
512,246,50985,5,2,3:2:0:0:
512,246,51159,1,0,3:0:0:0:
394,34,51508,1,2,3:2:0:0:
394,34,51596,1,0,3:0:0:0:
394,34,51683,2,0,L|412:206,1,161.999995056153,2|4,1:2|2:0,0:0:0:0:
274,294,52206,1,2,3:2:0:0:
274,294,52380,2,0,L|292:122,1,161.999995056153,2|2,3:2|3:2,0:0:0:0:
70,183,53078,6,0,P|64:154|53:131,2,53.9999983520508,2|0|0,1:2|3:0|3:0,0:0:0:0:
76,313,53427,5,0,3:0:0:0:
76,313,53514,1,0,3:0:0:0:
76,313,53601,1,0,3:0:0:0:
76,313,53689,1,0,1:0:0:0:
76,313,53776,6,0,L|248:295,1,135,0|0,1:0|0:0,0:0:0:0:
153,258,54125,2,0,L|242:267,1,90,2|0,1:2|3:0,0:0:0:0:
318,234,54386,1,0,0:0:0:0:
318,234,54473,2,0,L|327:323,1,90,2|0,1:2|3:0,0:0:0:0:
432,212,54822,2,0,L|441:122,1,90,2|0,1:2|3:0,0:0:0:0:
259,6,55171,5,2,1:2:0:0:
310,186,55346,1,0,3:0:0:0:
149,53,55520,2,0,P|167:93|174:139,1,90,2|0,1:2|3:0,0:0:0:0:
172,165,55782,1,0,3:0:0:0:
168,191,55869,1,2,1:2:0:0:
160,216,55956,1,0,3:0:0:0:
150,241,56043,1,0,3:0:0:0:
364,304,56218,5,2,1:2:0:0:
364,304,56305,1,0,3:0:0:0:
364,304,56392,1,0,3:0:0:0:
364,304,56479,1,0,3:0:0:0:
364,304,56566,1,2,0:2:0:0:
364,304,57439,6,0,L|432:304,2,49.5000015106202,2|2|2,0:2|0:2|0:2,0:0:0:0:
364,304,58659,6,0,P|315:327|250:326,1,99.0000030212403,2|2,0:2|0:2,0:0:0:0:
142,201,59183,2,0,P|191:205|234:227,1,99.0000030212403,2|2,0:2|0:2,0:0:0:0:
78,324,59706,1,2,0:2:0:0:
78,324,61101,1,2,0:2:0:0:
78,324,61276,5,4,0:1:0:0:
97,347,61625,1,2,3:2:0:0:
44,170,61799,1,2,3:2:0:0:
253,285,61973,1,2,3:2:0:0:
253,285,62061,1,0,1:0:0:0:
253,285,62148,1,2,1:2:0:0:
162,236,62497,6,0,B|228:228|228:228|273:252|273:252|349:243,1,180,2|0,1:2|0:0,0:0:0:0:
221,66,63020,1,0,3:0:0:0:
435,132,63194,1,2,1:2:0:0:
263,211,63369,1,0,3:0:0:0:
378,27,63543,1,2,1:2:0:0:
361,256,63718,1,2,3:2:0:0:
249,40,63892,1,2,0:2:0:0:
236,57,64241,6,0,P|284:58|331:46,1,90,4|0,0:1|3:0,0:0:0:0:
507,154,64589,2,0,P|435:138|360:140,1,148.50000453186,2|0,1:2|3:0,0:0:0:0:
421,173,64938,2,0,P|374:170|310:184,1,90,2|0,1:2|3:0,0:0:0:0:
223,221,65287,1,2,1:2:0:0:
325,379,65461,1,0,3:0:0:0:
325,379,65549,1,0,3:0:0:0:
325,379,65636,6,0,L|316:275,1,90,2|0,1:2|3:0,0:0:0:0:
200,122,65985,2,0,L|191:211,1,90,2|0,1:2|3:0,0:0:0:0:
191,211,66246,1,0,3:0:0:0:
191,211,66334,1,2,1:2:0:0:
286,315,66508,1,0,3:0:0:0:
84,334,66682,2,0,P|126:319|171:318,1,90,2|0,1:2|3:0,0:0:0:0:
0,200,67031,6,0,P|42:214|87:216,1,90,2|0,1:2|3:0,0:0:0:0:
257,155,67380,2,0,P|180:140|163:53,1,148.50000453186,2|0,1:2|3:0,0:0:0:0:
104,24,67729,2,0,L|193:33,1,90,2|0,1:2|3:0,0:0:0:0:
354,103,68078,1,2,1:2:0:0:
461,0,68252,5,0,3:0:0:0:
461,0,68339,1,0,3:0:0:0:
461,0,68427,2,0,L|452:89,1,90,2|0,1:2|3:0,0:0:0:0:
512,222,68775,2,0,P|436:192|352:206,1,148.50000453186,2|0,1:2|3:0,0:0:0:0:
343,211,69124,1,2,1:2:0:0:
431,354,69299,5,2,0:0:0:0:
384,349,69386,1,0,3:0:0:0:
336,344,69473,1,0,3:0:0:0:
288,339,69560,1,0,3:0:0:0:
248,342,69647,1,0,3:0:0:0:
248,342,69735,1,0,3:0:0:0:
248,342,69822,6,0,L|237:231,1,90,4|0,0:1|0:0,0:0:0:0:
138,107,70171,2,0,L|123:254,1,148.50000453186,2|0,1:2|3:0,0:0:0:0:
86,324,70520,2,0,L|77:235,1,90,2|0,1:2|3:0,0:0:0:0:
11,55,70868,1,2,1:2:0:0:
175,123,71043,5,0,3:0:0:0:
175,123,71130,1,0,3:0:0:0:
175,123,71217,2,0,P|221:123|266:114,1,90,2|0,1:2|3:0,0:0:0:0:
424,40,71566,2,0,P|379:31|334:32,1,90,2|0,1:2|3:0,0:0:0:0:
334,32,71828,1,0,3:0:0:0:
334,32,71915,1,2,1:2:0:0:
354,168,72089,1,0,3:0:0:0:
488,224,72264,2,0,P|490:179|477:136,1,90,2|0,1:2|3:0,0:0:0:0:
207,179,72613,6,0,B|274:170|274:170|318:195|318:195|380:187,1,180,2|0,1:2|1:0,0:0:0:0:
512,237,73136,1,2,0:0:0:0:
474,375,73310,2,0,P|396:325|313:354,1,180,2|0,1:2|1:0,0:0:0:0:
106,376,73834,5,2,0:0:0:0:
106,376,73921,1,0,0:0:0:0:
106,376,74008,2,0,P|155:361|186:328,1,90,2|0,1:2|3:0,0:0:0:0:
259,182,74357,1,0,1:0:0:0:
97,244,74531,1,2,0:0:0:0:
153,78,74706,5,2,1:2:0:0:
153,78,74793,1,0,3:0:0:0:
153,78,74880,1,0,3:0:0:0:
153,78,74967,1,0,3:0:0:0:
153,78,75054,2,0,L|159:141,1,45,0|0,1:0|3:0,0:0:0:0:
256,264,75229,2,0,L|260:219,1,45,2|0,0:2|3:0,0:0:0:0:
249,19,75403,6,0,B|299:48|299:48|442:33,1,180,4|0,1:0|1:0,0:0:0:0:
505,170,75927,1,2,0:0:0:0:
505,170,76101,2,0,P|505:118|515:74,1,90,2|0,1:2|3:0,0:0:0:0:
322,83,76450,1,0,1:0:0:0:
406,243,76624,5,2,0:0:0:0:
406,243,76799,2,0,P|406:191|396:147,1,90,2|0,1:2|3:0,0:0:0:0:
215,134,77147,1,0,1:0:0:0:
314,325,77322,5,2,0:0:0:0:
314,325,77409,1,0,3:0:0:0:
314,325,77496,1,2,1:2:0:0:
398,153,77671,1,0,3:0:0:0:
174,236,77845,1,0,1:0:0:0:
72,238,78020,5,2,0:0:0:0:
72,238,78107,1,0,3:0:0:0:
72,238,78194,2,0,P|75:157|162:140,1,180,4|0,0:1|1:0,0:0:0:0:
268,4,78717,1,2,0:0:0:0:
268,4,78892,2,0,L|278:94,1,90,2|0,1:2|3:0,0:0:0:0:
303,231,79241,1,0,1:0:0:0:
395,67,79415,5,2,0:0:0:0:
395,67,79589,2,0,L|405:157,1,90,2|0,1:2|3:0,0:0:0:0:
430,293,79938,1,0,1:0:0:0:
271,150,80113,5,2,0:0:0:0:
271,150,80200,1,0,3:0:0:0:
271,150,80287,1,2,1:2:0:0:
200,384,80461,1,0,3:0:0:0:
200,384,80549,1,0,3:0:0:0:
200,383,80636,1,0,3:0:0:0:
189,331,80723,1,0,3:0:0:0:
184,284,80810,1,0,3:0:0:0:
179,237,80897,1,0,3:0:0:0:
174,189,80985,6,0,B|107:180|107:180|63:205|63:205|1:197,1,180,4|2,0:1|3:2,0:0:0:0:
82,17,81508,1,2,1:2:0:0:
82,17,81595,1,0,3:2:0:0:
82,17,81682,1,0,1:0:0:0:
174,189,81857,1,2,3:2:0:0:
219,13,82031,1,0,1:0:0:0:
389,142,82206,5,2,3:2:0:0:
389,142,82293,1,0,3:2:0:0:
389,142,82380,2,0,P|346:156|302:153,1,90,0|0,1:0|3:2,0:0:0:0:
87,177,82729,2,0,P|131:173|173:188,1,90,2|0,1:2|3:2,0:0:0:0:
295,350,83078,1,2,3:2:0:0:
127,282,83252,1,0,3:2:0:0:
348,242,83427,1,2,1:2:0:0:
181,166,83601,5,0,3:2:0:0:
181,166,83688,1,0,3:2:0:0:
181,166,83775,1,4,0:1:0:0:
190,384,83950,1,0,1:0:0:0:
190,384,84037,1,0,3:2:0:0:
190,384,84124,1,0,1:0:0:0:
371,263,84299,6,0,L|275:273,1,90,2|0,3:2|0:0,0:0:0:0:
439,158,84647,2,0,L|349:148,1,90,2|0,3:2|0:0,0:0:0:0:
146,25,84996,2,0,P|198:94|200:176,1,148.50000453186,2|0,3:2|0:0,0:0:0:0:
197,185,85345,1,0,3:0:0:0:
56,274,85520,2,0,P|102:265|153:278,1,90,2|0,0:0|0:0,0:0:0:0:
293,317,85868,5,2,0:2:0:0:
320,337,86217,1,2,0:2:0:0:
297,134,86392,1,0,3:0:0:0:
297,134,86479,1,0,3:0:0:0:
297,134,86566,1,4,0:1:0:0:
256,192,86653,12,0,89357,0:0:0:0:
