osu file format v14

[General]
AudioFilename: audio.mp3
AudioLeadIn: 0
PreviewTime: 64241
Countdown: 0
SampleSet: Soft
StackLeniency: 0.7
Mode: 0
LetterboxInBreaks: 0
WidescreenStoryboard: 1

[Editor]
Bookmarks: 28136,28485,44532,45404,47322,65461,66159,74706
DistanceSpacing: 0.5
BeatDivisor: 4
GridSize: 16
TimelineZoom: 3.199999

[Metadata]
Title:360-Do Hoshi no Orchestra (TV Size)
TitleUnicode:360°星のオーケストラ (TV Size)
Artist:petit milady
ArtistUnicode:petit milady
Creator:Lafayla
Version:Doj's Insane
Source:七星のスバル
Tags:seven senses of the reunion shichisei no subaru opening anime petit milady ailv aliv anvil cococolaco lolicatgirl loli_catgirl -akito akito trynna doj seto kousuke seto_kousuke Yuuki Aoi Taketatsu Ayana degrees
BeatmapID:1765142
BeatmapSetID:843722

[Difficulty]
HPDrainRate:5
CircleSize:4.2
OverallDifficulty:8
ApproachRate:8.8
SliderMultiplier:1.8
SliderTickRate:1

[Events]
//Background and Video events
Video,840,"[ Shichisei no Subaru ] Opening 1.mp4"
0,0,"a9da0f336a2de95c6b026d5a2c76f890fa650985_s2_n1.jpg",0,0
//Break Periods
//Storyboard Layer 0 (Background)
//Storyboard Layer 1 (Fail)
//Storyboard Layer 2 (Pass)
//Storyboard Layer 3 (Foreground)
//Storyboard Sound Samples

[TimingPoints]
753,348.837209302326,4,2,1,45,1,0
753,-181.818181818181,4,2,1,45,0,0
2846,-133.333333333333,4,2,1,45,0,0
4939,-181.818181818182,4,2,1,45,0,0
5636,-181.818181818182,4,2,1,45,0,0
6247,-181.818181818182,4,2,1,5,0,0
6334,-133.333333333333,4,2,1,45,0,0
9125,-181.818181818182,4,2,1,45,0,0
10956,-181.818181818182,4,2,1,5,0,0
11043,-181.818181818182,4,2,1,45,0,0
11915,-111.111111111111,4,2,1,70,0,0
14619,-111.111111111111,4,2,1,5,0,0
14706,-111.111111111111,4,2,1,70,0,0
14968,-111.111111111111,4,2,1,5,0,0
15055,-111.111111111111,4,2,1,70,0,0
23078,-133.333333333333,4,2,1,55,0,0
32846,-125,4,2,1,55,0,0
34241,-125,4,2,1,55,0,0
48194,-125,4,2,1,60,0,0
49328,-125,4,2,1,5,0,0
49415,-125,4,2,1,60,0,0
49677,-125,4,2,1,5,0,0
49764,-125,4,2,1,60,0,0
52468,-125,4,2,1,5,0,0
52555,-125,4,2,1,60,0,0
53776,-100,4,2,1,70,0,0
54037,-100,4,2,1,5,0,0
54125,-100,4,2,1,70,0,0
56566,-222.222222222222,4,2,1,55,0,0
61101,-133.333333333333,4,2,1,55,0,0
61276,-133.333333333333,4,2,1,60,0,0
62409,-133.333333333333,4,2,1,5,0,0
62497,-117.647058823529,4,2,1,60,0,0
62933,-117.647058823529,4,2,1,5,0,0
63020,-117.647058823529,4,2,1,60,0,0
64241,348.837209302326,4,2,1,75,1,1
64241,-100,4,2,1,75,0,1
80985,-133.333333333333,4,2,1,75,0,1
83775,-100,4,2,1,75,0,1
84560,-100,4,2,1,5,0,1
84647,-100,4,2,1,75,0,1
84996,-90.9090909090909,4,2,1,75,0,1
85258,-90.9090909090909,4,2,1,5,0,1
85345,-90.9090909090909,4,2,1,60,0,1
86566,-133.333333333333,4,2,1,75,0,0
87089,-133.333333333333,4,2,1,60,0,0
89357,-133.333333333333,4,2,1,5,0,0

[Colours]
Combo1 : 255,206,170
Combo2 : 170,181,255
Combo3 : 255,170,202
Combo4 : 217,170,255

[HitObjects]
327,153,753,5,0,0:0:0:0:
327,153,1101,2,0,P|316:181|310:221,1,49.5000015106202,2|0,0:0|0:0,0:0:0:0:
219,76,1450,2,0,P|228:104|232:138,1,49.5000015106202,2|0,0:0|0:0,0:0:0:0:
110,88,1799,1,2,0:0:0:0:
110,88,2148,2,0,P|71:57|12:83,1,99.0000030212403,2|2,0:0|0:0,0:0:0:0:
126,203,2846,2,0,P|172:226|268:247,1,135.000005149842,2|2,0:0|0:0,0:0:0:0:
252,245,3543,6,0,P|220:247|186:271,1,67.5000025749208,2|0,0:0|0:0,0:0:0:0:
166,353,3892,1,2,0:0:0:0:
282,255,4241,1,2,0:0:0:0:
128,216,4590,1,2,0:0:0:0:
128,216,4939,2,0,P|106:137|165:105,1,148.50000453186,2|0,0:0|0:0,0:0:0:0:
152,105,5636,1,2,0:0:0:0:
234,59,5811,2,0,P|285:89|353:108,1,123.75000377655,2|0,0:0|0:0,0:0:0:0:
428,134,6334,6,0,P|466:122|511:112,2,67.5000025749208,2|0|2,0:0|0:0|0:0,0:0:0:0:
369,224,6857,1,0,0:0:0:0:
309,154,7032,2,0,B|337:190|337:190|342:233|312:289,1,135.000005149842,2|2,0:0|0:0,0:0:0:0:
231,359,7555,1,0,0:0:0:0:
231,359,7729,1,2,0:0:0:0:
99,328,8078,1,2,0:0:0:0:
29,212,8427,1,2,0:0:0:0:
62,81,8776,1,2,0:0:0:0:
62,81,9125,6,0,P|113:103|207:127,1,148.50000453186,2|2,0:0|0:0,0:0:0:0:
253,29,9822,2,0,P|270:58|383:56,1,148.50000453186,2|2,0:0|0:0,0:0:0:0:
430,0,10520,2,0,L|420:134,1,123.75000377655,2|0,0:0|0:0,0:0:0:0:
420,123,11043,1,2,0:0:0:0:
472,257,11218,1,2,0:0:0:0:
472,257,11566,2,2,L|483:208,2,33.0000010070801,0|0|0,0:0|0:0|0:0,0:0:0:0:
390,286,11915,6,0,L|402:381,1,80.9999975280763,4|0,3:1|0:0,0:0:0:0:
288,198,12264,2,0,L|276:293,1,80.9999975280763,0|0,1:0|0:0,0:0:0:0:
380,187,12613,1,0,3:0:0:0:
216,123,12787,1,0,0:0:0:0:
216,123,12875,1,0,3:0:0:0:
216,123,12962,1,0,1:0:0:0:
380,187,13136,1,0,0:0:0:0:
264,294,13311,6,0,P|221:292|189:255,1,80.9999975280763,0|0,3:0|0:0,0:0:0:0:
39,153,13659,1,0,1:0:0:0:
128,208,13834,2,0,P|139:250|147:299,1,80.9999975280763,0|0,0:0|3:0,0:0:0:0:
93,92,14183,1,0,0:0:0:0:
164,23,14357,2,0,B|237:17|202:83|305:60,1,121.499996292114,0|0,1:0|0:0,0:0:0:0:
330,15,14706,6,0,B|307:50|307:50|337:152,1,121.499996292114,0|0,3:0|0:0,0:0:0:0:
329,126,15055,1,0,1:0:0:0:
463,128,15229,1,0,0:0:0:0:
392,271,15404,2,0,P|349:263|292:260,1,80.9999975280763,0|0,3:0|0:0,0:0:0:0:
218,302,15665,1,0,3:0:0:0:
232,309,15753,2,0,P|252:280|246:232,1,80.9999975280763,0|0,1:0|0:0,0:0:0:0:
147,150,16101,5,0,3:0:0:0:
257,85,16276,1,0,0:0:0:0:
147,150,16450,2,0,P|107:165|67:172,1,80.9999975280763,0|0,1:0|0:0,0:0:0:0:
246,219,16799,2,0,P|285:226|323:240,1,80.9999975280763,0|0,3:0|0:0,0:0:0:0:
243,108,17148,2,0,P|228:68|221:28,1,80.9999975280763,0|0,1:0|3:0,0:0:0:0:
338,86,17409,1,0,3:0:0:0:
356,96,17497,6,0,P|357:165|346:282,1,161.999995056153,4|0,3:1|1:0,0:0:0:0:
239,288,18020,1,0,0:0:0:0:
336,355,18194,2,0,P|376:366|421:370,1,80.9999975280763,0|0,3:0|0:0,0:0:0:0:
225,308,18543,2,0,P|184:312|145:322,1,80.9999975280763,0|0,1:0|0:0,0:0:0:0:
25,362,18892,2,0,P|85:342|58:251,1,161.999995056153,0|0,3:0|1:0,0:0:0:0:
0,163,19415,1,0,0:0:0:0:
57,236,19590,2,0,L|161:219,1,80.9999975280763,0|0,3:0|0:0,0:0:0:0:
306,160,19939,1,0,1:0:0:0:
345,167,20026,1,0,3:0:0:0:
385,175,20113,1,0,3:0:0:0:
425,182,20200,1,0,3:0:0:0:
465,190,20287,6,0,L|455:295,1,80.9999975280763,4|0,3:1|0:0,0:0:0:0:
280,235,20636,2,0,L|270:130,1,80.9999975280763,0|0,1:0|0:0,0:0:0:0:
144,83,20985,1,0,3:0:0:0:
279,62,21159,1,0,0:0:0:0:
182,169,21334,1,0,1:0:0:0:
202,16,21508,1,0,0:0:0:0:
182,169,21683,5,0,3:0:0:0:
121,59,21857,1,0,3:0:0:0:
291,81,22032,1,4,3:0:0:0:
137,234,22206,1,4,3:1:0:0:
133,239,22555,2,0,P|138:269|147:299,1,40.4999987640381,0|0,3:0|3:0,0:0:0:0:
182,347,22729,1,0,1:0:0:0:
210,303,22816,1,0,3:0:0:0:
251,270,22904,1,0,3:0:0:0:
300,249,22991,1,0,3:0:0:0:
368,252,23078,6,0,P|365:292|357:345,2,67.5000025749208,4|0|0,0:1|0:0|3:0,0:0:0:0:
510,190,23601,1,2,0:0:0:0:
442,262,23776,2,0,P|427:198|423:105,1,135.000005149842,2|0,3:2|3:0,0:0:0:0:
352,13,24299,1,2,0:0:0:0:
444,57,24473,2,0,P|403:110|315:109,1,135.000005149842,2|0,3:2|3:0,0:0:0:0:
200,27,24997,1,2,0:0:0:0:
141,97,25171,2,0,P|154:152|169:253,1,135.000005149842,2|0,3:2|3:0,0:0:0:0:
69,315,25694,1,2,0:0:0:0:
13,238,25869,6,0,P|23:171|38:105,1,135.000005149842,2|0,3:2|3:0,0:0:0:0:
112,19,26392,1,2,0:0:0:0:
185,79,26566,2,0,B|229:60|262:89|245:128|323:109,1,135.000005149842,2|0,3:2|3:0,0:0:0:0:
417,46,27090,1,2,0:0:0:0:
478,113,27264,6,0,L|457:259,1,135.000005149842,2|0,3:2|3:0,0:0:0:0:
355,336,27787,1,2,0:0:0:0:
386,123,27962,1,2,3:2:0:0:
301,204,28136,1,0,0:0:0:0:
267,201,28223,1,0,0:0:0:0:
233,198,28311,1,0,3:0:0:0:
200,195,28398,1,0,0:0:0:0:
166,198,28485,1,0,0:0:0:0:
166,198,28572,1,0,0:0:0:0:
166,198,28659,6,0,P|171:246|170:293,1,67.5000025749208,2|0,3:2|0:0,0:0:0:0:
96,325,29008,1,2,3:2:0:0:
11,237,29183,1,0,0:0:0:0:
83,105,29357,2,0,P|74:155|72:192,1,67.5000025749208,2|0,3:2|0:0,0:0:0:0:
227,140,29706,1,2,3:2:0:0:
150,44,29880,1,0,0:0:0:0:
227,140,30055,6,0,B|272:134|272:134|315:155|315:155|374:149,1,135.000005149842,2|2,3:2|3:2,0:0:0:0:
479,63,30578,1,0,0:0:0:0:
409,117,30753,2,0,P|394:157|407:203,1,67.5000025749208,2|0,3:2|0:0,0:0:0:0:
469,279,31101,1,2,3:2:0:0:
512,167,31276,1,0,0:0:0:0:
469,279,31450,6,0,P|401:300|263:323,1,202.500007724762,2|2,3:2|0:0,0:0:0:0:
169,355,32148,2,0,P|121:329|167:213,1,202.500007724762,2|2,3:2|0:0,0:0:0:0:
243,230,32758,1,0,0:0:0:0:
243,230,32846,6,0,P|239:271|233:306,1,72,2|0,3:2|0:0,0:0:0:0:
160,186,33194,1,0,3:0:0:0:
326,192,33369,1,0,3:0:0:0:
160,186,33543,1,0,3:0:0:0:
214,300,33718,1,0,3:0:0:0:
255,120,33892,1,0,3:0:0:0:
427,186,34066,1,2,0:0:0:0:
427,186,34154,1,0,3:0:0:0:
427,186,34241,6,0,L|413:287,1,72,4|0,0:1|0:0,0:0:0:0:
325,207,34590,1,0,3:0:0:0:
511,262,34764,1,2,0:0:0:0:
325,207,34939,2,0,P|275:229|241:235,1,72,2|0,3:2|0:0,0:0:0:0:
164,147,35287,2,0,P|121:139|91:108,1,72,0|2,3:0|0:0,0:0:0:0:
37,65,35549,1,0,0:0:0:0:
53,55,35636,6,0,P|67:106|71:146,1,72,2|0,3:2|0:0,0:0:0:0:
97,276,35985,1,0,3:0:0:0:
0,201,36159,1,2,0:0:0:0:
97,276,36334,2,0,L|265:255,1,144,2|0,3:2|3:0,0:0:0:0:
393,213,36857,1,2,0:0:0:0:
468,266,37032,6,0,L|448:356,1,72,2|0,3:2|0:0,0:0:0:0:
372,191,37380,1,0,3:0:0:0:
281,266,37555,1,2,0:0:0:0:
293,127,37729,2,0,P|346:156|411:91,1,144,2|0,3:2|3:0,0:0:0:0:
277,24,38253,1,2,0:0:0:0:
196,92,38427,6,0,P|208:137|214:184,2,72,2|0|0,3:2|0:0|3:0,0:0:0:0:
86,163,38950,1,2,0:0:0:0:
181,266,39125,2,0,P|246:247|333:234,1,144,2|0,3:2|3:0,0:0:0:0:
462,296,39648,1,0,0:0:0:0:
396,361,39822,6,0,P|348:352|304:337,1,72,2|0,3:2|0:0,0:0:0:0:
158,249,40171,1,2,3:2:0:0:
77,338,40346,1,0,0:0:0:0:
181,317,40520,2,0,P|192:252|197:155,1,144,2|2,3:2|3:2,0:0:0:0:
101,62,41043,1,0,0:0:0:0:
101,62,41218,6,0,P|54:82|47:129,1,72,2|0,3:2|0:0,0:0:0:0:
180,142,41566,2,0,P|221:167|255:177,1,72,2|0,3:2|0:0,0:0:0:0:
436,110,41915,2,0,P|424:60|324:59,1,144,2|2,3:2|3:2,0:0:0:0:
268,176,42439,1,2,0:0:0:0:
378,257,42613,6,0,P|414:246|473:237,2,72,0|2|2,3:0|0:0|3:2,0:0:0:0:
286,165,43136,1,0,0:0:0:0:
188,238,43311,2,0,P|201:281|207:326,1,72,2|0,3:2|0:0,0:0:0:0:
11,175,43659,1,2,3:2:0:0:
11,175,43834,1,2,0:0:0:0:
107,129,44008,6,0,P|93:175|76:274,1,144,2|2,3:2|3:2,0:0:0:0:
257,180,44532,1,2,0:0:0:0:
257,180,44619,1,0,3:0:0:0:
257,180,44706,2,0,P|279:146|278:108,1,72,4|2,3:1|3:2,0:0:0:0:
343,54,44968,1,0,3:0:0:0:
343,54,45055,2,0,P|332:30|318:15,1,36,0|0,3:0|0:0,0:0:0:0:
195,56,45229,1,2,0:0:0:0:
377,160,45404,6,0,L|469:149,1,72,4|0,3:1|0:0,0:0:0:0:
272,89,45753,1,0,1:0:0:0:
190,182,45927,2,0,P|202:240|204:275,1,72,0|0,3:0|3:0,0:0:0:0:
181,350,46276,1,0,3:0:0:0:
90,260,46450,1,0,3:0:0:0:
275,219,46625,6,0,P|345:238|428:248,1,144,0|0,3:0|0:0,0:0:0:0:
352,111,47148,1,4,3:1:0:0:
477,125,47322,1,2,2:0:0:0:
327,108,47497,1,2,3:2:0:0:
422,285,47671,1,2,3:2:0:0:
422,285,47758,1,0,3:0:0:0:
422,285,47846,1,2,3:2:0:0:
410,177,48020,1,2,3:2:0:0:
250,198,48194,5,4,3:1:0:0:
261,374,48369,1,0,3:0:0:0:
261,374,48718,1,2,3:2:0:0:
261,374,48805,1,0,3:0:0:0:
261,374,48892,2,0,B|137:373|137:373|116:353|111:314,1,180,2|0,1:2|0:0,0:0:0:0:
32,327,49415,6,0,P|45:270|43:204,1,108,2|0,3:2|0:0,0:0:0:0:
25,223,49764,1,0,3:0:0:0:
2,70,49939,1,2,3:2:0:0:
2,70,50287,2,0,P|37:81|86:87,1,72,2|0,1:2|0:0,0:0:0:0:
199,129,50636,2,0,P|233:118|268:112,1,72,0|0,0:0|3:0,0:0:0:0:
367,53,50985,5,2,3:2:0:0:
473,187,51159,1,0,3:0:0:0:
473,187,51508,1,2,3:2:0:0:
473,187,51596,1,0,3:0:0:0:
473,187,51683,1,2,1:2:0:0:
326,150,51857,1,0,0:0:0:0:
467,71,52032,1,4,2:0:0:0:
390,233,52206,6,0,P|404:288|414:353,1,108,2|0,3:2|0:0,0:0:0:0:
436,344,52555,1,0,3:0:0:0:
299,235,52729,1,2,3:2:0:0:
299,235,53078,2,0,P|294:262|291:291,2,48,2|0|0,1:2|3:0|3:0,0:0:0:0:
197,271,53427,2,0,P|199:294|204:318,1,36,0|0,3:0|3:0,0:0:0:0:
144,383,53601,1,0,1:0:0:0:
108,272,53689,1,0,1:0:0:0:
108,272,53776,6,0,P|119:208|124:114,1,135,0|0,1:0|0:0,0:0:0:0:
101,121,54125,1,2,1:2:0:0:
5,199,54299,1,0,3:0:0:0:
11,220,54386,1,0,0:0:0:0:
17,241,54473,1,2,1:2:0:0:
204,197,54648,1,0,3:0:0:0:
241,116,54822,2,0,P|249:77|252:13,1,90,2|0,1:2|3:0,0:0:0:0:
153,63,55171,5,2,1:2:0:0:
343,27,55346,1,0,3:0:0:0:
143,56,55520,1,2,1:2:0:0:
338,138,55694,1,0,3:0:0:0:
338,138,55782,1,0,3:0:0:0:
338,138,55869,1,2,1:2:0:0:
476,62,56043,1,0,3:0:0:0:
432,202,56218,2,0,P|443:253|449:306,1,90,2|0,1:2|3:0,0:0:0:0:
406,355,56479,1,0,3:0:0:0:
406,355,56566,6,0,P|364:380|311:275,1,202.499993820191,2|2,0:2|0:2,0:0:0:0:
309,276,57613,1,2,0:2:0:0:
309,276,57787,1,2,0:2:0:0:
223,235,58659,2,0,P|194:253|143:273,1,80.9999975280763,2|2,0:2|0:2,0:0:0:0:
46,299,59183,2,0,P|83:313|118:334,1,80.9999975280763,2|2,0:2|0:2,0:0:0:0:
182,384,59706,1,2,0:2:0:0:
182,384,61101,5,2,0:2:0:0:
282,329,61276,2,0,P|337:308|426:295,1,135.000005149842,4|2,0:1|3:2,0:0:0:0:
471,160,61799,1,2,3:2:0:0:
362,72,61973,1,2,3:2:0:0:
362,72,62061,1,0,1:0:0:0:
362,72,62148,6,0,P|307:87|310:148,1,101.250003862381,2|0,1:2|0:0,0:0:0:0:
355,175,62497,2,0,B|324:174|299:155|299:155|257:155|225:169|225:169|203:149|152:147,1,191.250003647804,2|0,1:2|0:0,0:0:0:0:
150,158,63020,1,0,3:0:0:0:
66,63,63194,1,2,1:2:0:0:
201,46,63369,1,0,3:0:0:0:
201,46,63456,1,0,3:0:0:0:
201,46,63543,1,2,1:2:0:0:
10,20,63718,2,0,P|27:91|36:184,1,153.000002918243,2|0,3:2|0:0,0:0:0:0:
20,263,64154,1,0,0:0:0:0:
2,244,64241,6,0,P|44:222|128:305,1,180,4|2,0:1|1:2,0:0:0:0:
224,208,64764,1,0,3:0:0:0:
283,264,64938,2,0,P|276:316|265:357,1,90,2|0,1:2|3:0,0:0:0:0:
128,299,65287,1,2,1:2:0:0:
180,142,65461,1,0,3:0:0:0:
180,142,65549,1,0,3:0:0:0:
180,142,65636,6,0,B|262:96|282:191|372:144,1,180,2|2,1:2|1:2,0:0:0:0:
412,41,66159,1,0,3:0:0:0:
357,170,66334,2,0,P|372:218|396:263,1,90,2|0,1:2|3:0,0:0:0:0:
487,336,66682,1,2,1:2:0:0:
512,218,66857,1,0,3:0:0:0:
376,338,67031,6,0,P|318:323|276:318,1,90,2|0,1:2|3:0,0:0:0:0:
142,311,67380,1,2,1:2:0:0:
222,231,67554,1,0,3:0:0:0:
73,275,67729,2,0,P|89:336|92:391,1,90,2|0,1:2|3:0,0:0:0:0:
206,250,68078,1,2,1:2:0:0:
108,142,68252,1,0,3:0:0:0:
108,142,68339,1,0,3:0:0:0:
108,142,68427,6,0,P|125:79|131:29,1,90,2|0,1:2|3:0,0:0:0:0:
34,55,68775,1,2,1:2:0:0:
212,117,68950,1,0,3:0:0:0:
212,117,69037,1,0,3:0:0:0:
212,117,69124,1,2,1:2:0:0:
9,42,69299,1,2,0:0:0:0:
212,117,69473,2,0,P|263:109|324:90,1,90,0|0,1:0|1:0,0:0:0:0:
353,35,69735,1,0,3:0:0:0:
334,27,69822,6,0,P|296:73|358:167,1,180,4|2,0:1|1:2,0:0:0:0:
449,148,70345,1,0,3:0:0:0:
489,242,70520,2,0,P|484:284|475:334,1,90,2|0,1:2|3:0,0:0:0:0:
349,165,70868,2,0,P|353:207|363:257,1,90,2|0,1:2|3:0,0:0:0:0:
389,329,71130,1,0,3:0:0:0:
400,320,71217,6,0,P|347:287|315:298,1,90,2|0,1:2|3:0,0:0:0:0:
178,269,71566,1,2,1:2:0:0:
229,384,71741,1,0,3:0:0:0:
178,269,71915,2,0,P|190:206|193:147,1,90,2|0,1:2|3:0,0:0:0:0:
126,69,72264,1,2,1:2:0:0:
263,10,72438,1,0,3:0:0:0:
263,10,72525,1,0,3:0:0:0:
263,10,72613,6,0,P|324:35|289:142,1,180,2|0,1:2|1:0,0:0:0:0:
165,94,73136,1,2,0:0:0:0:
165,94,73223,1,0,3:0:0:0:
165,94,73310,1,2,1:2:0:0:
296,149,73485,1,0,0:0:0:0:
153,242,73659,1,0,1:0:0:0:
165,94,73834,1,2,0:0:0:0:
165,94,73921,1,0,3:0:0:0:
165,94,74008,5,2,1:2:0:0:
52,212,74182,1,0,3:0:0:0:
181,336,74357,1,0,1:0:0:0:
52,212,74531,1,2,0:0:0:0:
181,336,74706,5,2,1:2:0:0:
205,316,74793,1,0,3:0:0:0:
234,304,74880,1,0,3:0:0:0:
265,302,74967,1,0,3:0:0:0:
296,309,75054,1,0,1:0:0:0:
337,336,75142,1,0,3:0:0:0:
385,348,75229,1,2,0:2:0:0:
434,342,75316,1,0,3:0:0:0:
487,299,75403,6,0,P|500:218|504:107,1,180,4|0,1:0|1:0,0:0:0:0:
380,25,75927,1,2,0:0:0:0:
294,82,76101,2,0,P|292:166|371:198,1,180,2|0,1:2|1:0,0:0:0:0:
480,94,76624,1,2,0:0:0:0:
480,94,76711,1,0,3:0:0:0:
480,94,76799,5,2,1:2:0:0:
387,187,76973,1,0,3:0:0:0:
480,281,77147,1,0,1:0:0:0:
401,384,77322,1,2,0:0:0:0:
401,384,77409,1,0,3:0:0:0:
401,384,77496,1,2,1:2:0:0:
301,240,77671,1,0,3:0:0:0:
301,240,77758,1,0,3:0:0:0:
301,240,77845,2,0,P|270:236|236:222,1,45,0|0,1:0|0:0,0:0:0:0:
143,133,78020,1,0,0:0:0:0:
195,287,78194,6,0,P|214:210|223:96,1,180,4|0,0:1|1:0,0:0:0:0:
99,33,78717,1,2,0:0:0:0:
0,125,78892,2,0,P|7:214|28:302,1,180,2|0,1:2|1:0,0:0:0:0:
156,369,79415,1,2,0:0:0:0:
156,369,79502,1,0,3:0:0:0:
156,369,79589,1,2,1:2:0:0:
217,257,79764,1,0,3:0:0:0:
48,196,79938,1,0,1:0:0:0:
198,183,80113,1,2,0:0:0:0:
198,183,80200,1,0,3:0:0:0:
198,183,80287,6,0,P|243:204|301:217,1,90,2|0,1:2|3:0,0:0:0:0:
365,253,80549,1,0,3:0:0:0:
348,266,80636,1,0,3:0:0:0:
339,217,80723,1,0,3:0:0:0:
359,173,80810,1,0,3:0:0:0:
401,148,80897,1,0,3:0:0:0:
471,150,80985,6,0,P|484:198|491:243,1,67.5000025749208,4|0,0:1|3:2,0:0:0:0:
462,304,81334,1,2,3:2:0:0:
350,349,81508,1,2,1:2:0:0:
350,349,81595,1,0,3:2:0:0:
350,349,81682,1,0,1:0:0:0:
323,170,81857,1,2,3:2:0:0:
267,261,82031,1,0,1:0:0:0:
432,196,82206,1,2,3:2:0:0:
432,196,82293,1,0,3:2:0:0:
432,196,82380,5,0,1:0:0:0:
267,261,82554,1,0,3:2:0:0:
446,292,82729,1,2,1:2:0:0:
320,143,82903,1,0,3:2:0:0:
320,143,82991,1,0,3:2:0:0:
320,143,83078,1,2,3:2:0:0:
446,292,83252,1,0,3:2:0:0:
224,353,83427,1,2,1:2:0:0:
370,233,83601,1,0,3:2:0:0:
224,353,83775,6,0,P|181:340|113:329,1,90,4|0,0:1|1:0,0:0:0:0:
102,368,84037,1,0,3:2:0:0:
102,368,84124,1,0,1:0:0:0:
4,222,84299,2,0,P|75:205|146:174,1,135,2|0,3:2|0:0,0:0:0:0:
141,156,84647,1,2,3:2:0:0:
69,53,84822,1,0,0:0:0:0:
300,10,84996,6,0,L|284:175,1,148.50000453186,2|0,3:2|0:0,0:0:0:0:
221,231,85345,2,0,L|207:154,1,49.5000015106202,0|0,3:0|0:0,0:0:0:0:
187,42,85520,1,2,0:0:0:0:
194,49,86392,5,0,3:0:0:0:
194,49,86479,1,0,3:0:0:0:
194,49,86566,1,4,0:1:0:0:
256,192,86653,12,0,89357,0:0:0:0:
