osu file format v14

[General]
AudioFilename: audio.mp3
AudioLeadIn: 0
PreviewTime: 0
Countdown: 1
SampleSet: None
StackLeniency: 0.2
Mode: 0
LetterboxInBreaks: 0
WidescreenStoryboard: 1

[Editor]
DistanceSpacing: 0.1
BeatDivisor: 6
GridSize: 4
TimelineZoom: 1.500006

[Metadata]
Title:the osu!keyboard
TitleUnicode:the osu!keyboard
Artist:peppy
ArtistUnicode:peppy
Creator:RMEfan
Version:REALLY fast stremm goin at incredble hihg speeed
Source:osu!
Tags:
BeatmapID:1134499
BeatmapSetID:495074

[Difficulty]
HPDrainRate:0
CircleSize:4
OverallDifficulty:0
ApproachRate:9
SliderMultiplier:3.59999990463257
SliderTickRate:1

[Events]
//Background and Video events
Video,0,"The Osu! keyboard.mp4"
0,0,"maxresdefault.jpg",0,0
//Break Periods
2,6873,11373
//Storyboard Layer 0 (Background)
//Storyboard Layer 1 (Fail)
//Storyboard Layer 2 (Pass)
//Storyboard Layer 3 (Foreground)
//Storyboard Sound Samples

[TimingPoints]
0,6,4,1,0,100,1,0

[HitObjects]
88,45,0,5,0,0:0:0:0:
130,296,6,1,0,0:0:0:0:
189,46,12,1,0,0:0:0:0:
293,320,18,1,0,0:0:0:0:
77,150,24,1,0,0:0:0:0:
432,140,30,1,0,0:0:0:0:
78,302,36,1,0,0:0:0:0:
421,77,42,1,0,0:0:0:0:
94,115,48,1,0,0:0:0:0:
469,304,54,1,0,0:0:0:0:
146,342,60,1,0,0:0:0:0:
327,63,66,1,0,0:0:0:0:
166,248,72,1,0,0:0:0:0:
241,57,78,1,0,0:0:0:0:
402,263,84,1,0,0:0:0:0:
153,151,90,1,0,0:0:0:0:
355,188,96,1,0,0:0:0:0:
212,255,102,1,0,0:0:0:0:
308,143,108,1,0,0:0:0:0:
212,144,114,1,0,0:0:0:0:
325,252,120,1,0,0:0:0:0:
65,217,126,1,0,0:0:0:0:
430,132,132,1,0,0:0:0:0:
107,39,138,1,0,0:0:0:0:
342,313,144,1,0,0:0:0:0:
25,57,150,1,0,0:0:0:0:
77,339,156,1,0,0:0:0:0:
35,135,162,1,0,0:0:0:0:
104,311,168,1,0,0:0:0:0:
40,97,174,1,0,0:0:0:0:
234,310,180,1,0,0:0:0:0:
88,45,186,1,0,0:0:0:0:
431,298,192,1,0,0:0:0:0:
90,182,198,1,0,0:0:0:0:
451,206,204,1,0,0:0:0:0:
50,213,210,1,0,0:0:0:0:
433,226,216,1,0,0:0:0:0:
244,227,222,1,0,0:0:0:0:
351,318,228,1,0,0:0:0:0:
240,90,234,1,0,0:0:0:0:
142,262,240,1,0,0:0:0:0:
311,66,246,1,0,0:0:0:0:
126,94,252,1,0,0:0:0:0:
424,367,258,1,0,0:0:0:0:
50,212,264,1,0,0:0:0:0:
466,178,270,1,0,0:0:0:0:
76,258,276,1,0,0:0:0:0:
354,150,282,1,0,0:0:0:0:
158,211,288,1,0,0:0:0:0:
381,249,294,1,0,0:0:0:0:
209,182,300,1,0,0:0:0:0:
137,347,306,1,0,0:0:0:0:
440,229,312,1,0,0:0:0:0:
147,57,318,1,0,0:0:0:0:
243,303,324,1,0,0:0:0:0:
420,190,330,1,0,0:0:0:0:
78,156,336,1,0,0:0:0:0:
403,219,342,1,0,0:0:0:0:
45,252,348,1,0,0:0:0:0:
311,207,354,1,0,0:0:0:0:
273,318,360,1,0,0:0:0:0:
274,148,366,1,0,0:0:0:0:
165,322,372,1,0,0:0:0:0:
366,64,378,1,0,0:0:0:0:
138,106,384,1,0,0:0:0:0:
445,38,390,1,0,0:0:0:0:
118,29,396,1,0,0:0:0:0:
165,106,402,1,0,0:0:0:0:
335,262,408,1,0,0:0:0:0:
398,89,414,1,0,0:0:0:0:
66,154,420,1,0,0:0:0:0:
422,207,426,1,0,0:0:0:0:
77,29,432,1,0,0:0:0:0:
370,51,438,1,0,0:0:0:0:
151,26,444,1,0,0:0:0:0:
343,26,450,1,0,0:0:0:0:
208,17,456,1,0,0:0:0:0:
370,137,462,1,0,0:0:0:0:
175,148,468,1,0,0:0:0:0:
272,281,474,1,0,0:0:0:0:
57,282,480,1,0,0:0:0:0:
109,371,486,1,0,0:0:0:0:
315,360,492,1,0,0:0:0:0:
41,332,498,1,0,0:0:0:0:
367,352,504,1,0,0:0:0:0:
197,352,510,1,0,0:0:0:0:
285,365,516,1,0,0:0:0:0:
116,340,522,1,0,0:0:0:0:
342,301,528,1,0,0:0:0:0:
93,267,534,1,0,0:0:0:0:
341,276,540,1,0,0:0:0:0:
81,251,546,1,0,0:0:0:0:
386,295,552,1,0,0:0:0:0:
65,48,558,1,0,0:0:0:0:
100,298,564,1,0,0:0:0:0:
365,114,570,1,0,0:0:0:0:
113,267,576,1,0,0:0:0:0:
405,297,582,1,0,0:0:0:0:
102,203,588,1,0,0:0:0:0:
359,175,594,1,0,0:0:0:0:
186,241,600,1,0,0:0:0:0:
228,80,606,1,0,0:0:0:0:
218,283,612,1,0,0:0:0:0:
96,48,618,1,0,0:0:0:0:
90,248,624,1,0,0:0:0:0:
393,147,630,1,0,0:0:0:0:
48,125,636,1,0,0:0:0:0:
396,129,642,1,0,0:0:0:0:
43,135,648,1,0,0:0:0:0:
372,139,654,1,0,0:0:0:0:
15,38,660,1,0,0:0:0:0:
89,260,666,1,0,0:0:0:0:
15,102,672,1,0,0:0:0:0:
28,271,678,1,0,0:0:0:0:
69,106,684,1,0,0:0:0:0:
14,257,690,1,0,0:0:0:0:
299,104,696,1,0,0:0:0:0:
8,263,702,1,0,0:0:0:0:
120,131,708,1,0,0:0:0:0:
96,268,714,1,0,0:0:0:0:
174,127,720,1,0,0:0:0:0:
216,246,726,1,0,0:0:0:0:
243,148,732,1,0,0:0:0:0:
312,257,738,1,0,0:0:0:0:
139,179,744,1,0,0:0:0:0:
421,224,750,1,0,0:0:0:0:
63,228,756,1,0,0:0:0:0:
304,57,762,1,0,0:0:0:0:
195,300,768,1,0,0:0:0:0:
241,57,774,1,0,0:0:0:0:
212,255,780,1,0,0:0:0:0:
192,124,786,1,0,0:0:0:0:
355,260,792,1,0,0:0:0:0:
131,189,798,1,0,0:0:0:0:
345,243,804,1,0,0:0:0:0:
163,162,810,1,0,0:0:0:0:
379,173,816,1,0,0:0:0:0:
167,197,822,1,0,0:0:0:0:
348,195,828,1,0,0:0:0:0:
176,196,834,1,0,0:0:0:0:
358,234,840,1,0,0:0:0:0:
201,72,846,1,0,0:0:0:0:
170,280,852,1,0,0:0:0:0:
296,110,858,1,0,0:0:0:0:
164,269,864,1,0,0:0:0:0:
348,236,870,1,0,0:0:0:0:
95,193,876,1,0,0:0:0:0:
301,205,882,1,0,0:0:0:0:
90,169,888,1,0,0:0:0:0:
350,206,894,1,0,0:0:0:0:
46,157,900,1,0,0:0:0:0:
384,181,906,1,0,0:0:0:0:
116,280,912,1,0,0:0:0:0:
274,137,918,1,0,0:0:0:0:
290,326,924,1,0,0:0:0:0:
26,331,930,1,0,0:0:0:0:
444,332,936,1,0,0:0:0:0:
29,306,942,1,0,0:0:0:0:
169,38,948,1,0,0:0:0:0:
117,311,954,1,0,0:0:0:0:
99,67,960,1,0,0:0:0:0:
306,341,966,1,0,0:0:0:0:
94,115,972,1,0,0:0:0:0:
202,321,978,1,0,0:0:0:0:
207,107,984,1,0,0:0:0:0:
156,299,990,1,0,0:0:0:0:
240,90,996,1,0,0:0:0:0:
214,321,1002,1,0,0:0:0:0:
268,87,1008,1,0,0:0:0:0:
218,331,1014,1,0,0:0:0:0:
294,146,1020,1,0,0:0:0:0:
219,302,1026,1,0,0:0:0:0:
438,271,1032,1,0,0:0:0:0:
302,288,1038,1,0,0:0:0:0:
439,157,1044,1,0,0:0:0:0:
459,93,1050,1,0,0:0:0:0:
451,39,1056,1,0,0:0:0:0:
184,40,1062,1,0,0:0:0:0:
34,84,1068,1,0,0:0:0:0:
373,243,1074,1,0,0:0:0:0:
73,170,1080,1,0,0:0:0:0:
454,222,1086,1,0,0:0:0:0:
35,240,1092,1,0,0:0:0:0:
363,320,1098,1,0,0:0:0:0:
175,218,1104,1,0,0:0:0:0:
311,268,1110,1,0,0:0:0:0:
239,202,1116,1,0,0:0:0:0:
282,270,1122,1,0,0:0:0:0:
110,34,1128,1,0,0:0:0:0:
120,28,1134,1,0,0:0:0:0:
116,46,1140,1,0,0:0:0:0:
429,182,1146,1,0,0:0:0:0:
106,183,1152,1,0,0:0:0:0:
199,25,1158,1,0,0:0:0:0:
116,47,1164,1,0,0:0:0:0:
121,191,1170,1,0,0:0:0:0:
139,189,1176,1,0,0:0:0:0:
190,191,1182,1,0,0:0:0:0:
387,140,1188,1,0,0:0:0:0:
105,82,1194,1,0,0:0:0:0:
432,206,1200,1,0,0:0:0:0:
57,212,1206,1,0,0:0:0:0:
473,304,1212,1,0,0:0:0:0:
465,369,1218,1,0,0:0:0:0:
449,146,1224,1,0,0:0:0:0:
106,303,1230,1,0,0:0:0:0:
498,189,1236,1,0,0:0:0:0:
25,154,1242,1,0,0:0:0:0:
410,197,1248,1,0,0:0:0:0:
84,230,1254,1,0,0:0:0:0:
466,129,1260,1,0,0:0:0:0:
175,253,1266,1,0,0:0:0:0:
387,175,1272,1,0,0:0:0:0:
40,119,1278,1,0,0:0:0:0:
401,63,1284,1,0,0:0:0:0:
37,65,1290,1,0,0:0:0:0:
404,207,1296,1,0,0:0:0:0:
101,325,1302,1,0,0:0:0:0:
417,149,1308,1,0,0:0:0:0:
86,225,1314,1,0,0:0:0:0:
344,276,1320,1,0,0:0:0:0:
154,101,1326,1,0,0:0:0:0:
207,277,1332,1,0,0:0:0:0:
313,86,1338,1,0,0:0:0:0:
198,265,1344,1,0,0:0:0:0:
193,72,1350,1,0,0:0:0:0:
163,293,1356,1,0,0:0:0:0:
328,121,1362,1,0,0:0:0:0:
309,331,1368,1,0,0:0:0:0:
275,88,1374,1,0,0:0:0:0:
133,305,1380,1,0,0:0:0:0:
289,126,1386,1,0,0:0:0:0:
378,328,1392,1,0,0:0:0:0:
258,86,1398,1,0,0:0:0:0:
127,271,1404,1,0,0:0:0:0:
311,30,1410,1,0,0:0:0:0:
402,280,1416,1,0,0:0:0:0:
76,101,1422,1,0,0:0:0:0:
409,158,1428,1,0,0:0:0:0:
53,211,1434,1,0,0:0:0:0:
426,142,1440,1,0,0:0:0:0:
61,161,1446,1,0,0:0:0:0:
376,190,1452,1,0,0:0:0:0:
276,234,1458,1,0,0:0:0:0:
188,288,1464,1,0,0:0:0:0:
59,361,1470,1,0,0:0:0:0:
309,359,1476,1,0,0:0:0:0:
73,360,1482,1,0,0:0:0:0:
284,351,1488,1,0,0:0:0:0:
144,355,1494,1,0,0:0:0:0:
238,366,1500,1,0,0:0:0:0:
424,375,1506,1,0,0:0:0:0:
240,263,1512,1,0,0:0:0:0:
235,252,1518,1,0,0:0:0:0:
241,268,1524,1,0,0:0:0:0:
222,254,1530,1,0,0:0:0:0:
128,159,1536,1,0,0:0:0:0:
236,257,1542,1,0,0:0:0:0:
120,131,1548,1,0,0:0:0:0:
228,266,1554,1,0,0:0:0:0:
190,58,1560,1,0,0:0:0:0:
241,268,1566,1,0,0:0:0:0:
224,42,1572,1,0,0:0:0:0:
283,245,1578,1,0,0:0:0:0:
287,262,1584,1,0,0:0:0:0:
281,221,1590,1,0,0:0:0:0:
314,121,1596,1,0,0:0:0:0:
353,126,1602,1,0,0:0:0:0:
217,192,1608,1,0,0:0:0:0:
217,192,1614,1,0,0:0:0:0:
216,191,1620,1,0,0:0:0:0:
263,123,1626,1,0,0:0:0:0:
216,191,1632,1,0,0:0:0:0:
226,190,1638,1,0,0:0:0:0:
226,190,1644,1,0,0:0:0:0:
263,123,1650,1,0,0:0:0:0:
236,190,1656,1,0,0:0:0:0:
236,190,1662,1,0,0:0:0:0:
236,190,1668,1,0,0:0:0:0:
236,190,1674,1,0,0:0:0:0:
159,105,1680,1,0,0:0:0:0:
238,192,1686,1,0,0:0:0:0:
239,202,1692,1,0,0:0:0:0:
239,202,1698,1,0,0:0:0:0:
139,121,1704,1,0,0:0:0:0:
239,202,1710,1,0,0:0:0:0:
239,202,1716,1,0,0:0:0:0:
239,202,1722,1,0,0:0:0:0:
135,87,1728,1,0,0:0:0:0:
239,202,1740,1,0,0:0:0:0:
239,202,1746,1,0,0:0:0:0:
220,2,1752,1,0,0:0:0:0:
239,202,1758,1,0,0:0:0:0:
236,41,1764,1,0,0:0:0:0:
229,53,1770,1,0,0:0:0:0:
250,71,1776,1,0,0:0:0:0:
229,71,1788,1,0,0:0:0:0:
210,107,1794,1,0,0:0:0:0:
207,115,1800,1,0,0:0:0:0:
386,150,1806,1,0,0:0:0:0:
177,171,1812,1,0,0:0:0:0:
177,186,1818,1,0,0:0:0:0:
203,265,1824,1,0,0:0:0:0:
250,284,1836,1,0,0:0:0:0:
264,288,1842,1,0,0:0:0:0:
292,261,1848,1,0,0:0:0:0:
327,276,1854,1,0,0:0:0:0:
349,264,1860,1,0,0:0:0:0:
387,214,1866,1,0,0:0:0:0:
371,141,1878,1,0,0:0:0:0:
81,58,1884,1,0,0:0:0:0:
353,109,1890,1,0,0:0:0:0:
323,92,1896,1,0,0:0:0:0:
262,67,1908,1,0,0:0:0:0:
222,94,1920,1,0,0:0:0:0:
198,113,1926,1,0,0:0:0:0:
181,162,1932,1,0,0:0:0:0:
181,163,1938,1,0,0:0:0:0:
162,229,1950,1,0,0:0:0:0:
162,266,1956,1,0,0:0:0:0:
199,328,1968,1,0,0:0:0:0:
243,363,1974,1,0,0:0:0:0:
267,372,1980,1,0,0:0:0:0:
278,371,1986,1,0,0:0:0:0:
313,311,1998,1,0,0:0:0:0:
331,266,2004,1,0,0:0:0:0:
337,209,2010,1,0,0:0:0:0:
337,166,2022,1,0,0:0:0:0:
314,97,2034,1,0,0:0:0:0:
310,95,2040,1,0,0:0:0:0:
296,93,2046,1,0,0:0:0:0:
252,80,2058,1,0,0:0:0:0:
235,74,2064,1,0,0:0:0:0:
206,84,2076,1,0,0:0:0:0:
146,94,2082,1,0,0:0:0:0:
116,113,2088,1,0,0:0:0:0:
112,115,2100,1,0,0:0:0:0:
110,158,2106,1,0,0:0:0:0:
168,254,2118,1,0,0:0:0:0:
291,328,2130,1,0,0:0:0:0:
334,342,2136,1,0,0:0:0:0:
371,333,2142,1,0,0:0:0:0:
401,296,2154,1,0,0:0:0:0:
410,261,2160,1,0,0:0:0:0:
406,227,2166,1,0,0:0:0:0:
381,114,2178,1,0,0:0:0:0:
377,101,2184,1,0,0:0:0:0:
358,59,2190,1,0,0:0:0:0:
356,95,2208,1,0,0:0:0:0:
357,108,2214,1,0,0:0:0:0:
366,138,2220,1,0,0:0:0:0:
383,182,2232,1,0,0:0:0:0:
386,200,2238,1,0,0:0:0:0:
400,237,2244,1,0,0:0:0:0:
430,307,2250,1,0,0:0:0:0:
427,335,2256,1,0,0:0:0:0:
397,365,2268,1,0,0:0:0:0:
382,360,2274,1,0,0:0:0:0:
319,324,2286,1,0,0:0:0:0:
256,296,2292,1,0,0:0:0:0:
207,242,2304,1,0,0:0:0:0:
118,210,2310,1,0,0:0:0:0:
102,219,2322,1,0,0:0:0:0:
133,188,2334,1,0,0:0:0:0:
233,151,2352,1,0,0:0:0:0:
286,116,2364,1,0,0:0:0:0:
335,110,2370,1,0,0:0:0:0:
375,111,2382,1,0,0:0:0:0:
404,109,2394,1,0,0:0:0:0:
351,96,2412,1,0,0:0:0:0:
236,55,2424,1,0,0:0:0:0:
137,41,2436,1,0,0:0:0:0:
109,45,2442,1,0,0:0:0:0:
125,73,2460,1,0,0:0:0:0:
231,79,2472,1,0,0:0:0:0:
220,149,2478,1,0,0:0:0:0:
319,247,2496,1,0,0:0:0:0:
395,312,2508,1,0,0:0:0:0:
386,227,2520,1,0,0:0:0:0:
345,153,2526,1,0,0:0:0:0:
345,153,2532,1,0,0:0:0:0:
221,108,2550,1,0,0:0:0:0:
124,122,2556,1,0,0:0:0:0:
96,285,2574,1,0,0:0:0:0:
165,294,2586,1,0,0:0:0:0:
191,302,2598,1,0,0:0:0:0:
333,226,2610,1,0,0:0:0:0:
315,158,2622,1,0,0:0:0:0:
263,133,2634,1,0,0:0:0:0:
375,99,2694,1,0,0:0:0:0:
341,182,2718,1,0,0:0:0:0:
201,233,2724,1,0,0:0:0:0:
174,362,2730,1,0,0:0:0:0:
330,305,2736,1,0,0:0:0:0:
394,193,2754,1,0,0:0:0:0:
390,120,2760,1,0,0:0:0:0:
319,39,2766,1,0,0:0:0:0:
222,72,2778,1,0,0:0:0:0:
234,58,2784,1,0,0:0:0:0:
177,171,2790,1,0,0:0:0:0:
256,82,2796,1,0,0:0:0:0:
267,153,2808,1,0,0:0:0:0:
241,101,2814,1,0,0:0:0:0:
115,126,2838,1,0,0:0:0:0:
115,129,2844,1,0,0:0:0:0:
348,209,2850,1,0,0:0:0:0:
125,125,2856,1,0,0:0:0:0:
169,146,2868,1,0,0:0:0:0:
195,193,2874,1,0,0:0:0:0:
214,209,2880,1,0,0:0:0:0:
509,176,2892,1,0,0:0:0:0:
341,294,2898,1,0,0:0:0:0:
472,164,2904,1,0,0:0:0:0:
350,290,2910,1,0,0:0:0:0:
317,324,2916,1,0,0:0:0:0:
332,312,2922,1,0,0:0:0:0:
209,167,2928,1,0,0:0:0:0:
256,296,2934,1,0,0:0:0:0:
97,189,2946,1,0,0:0:0:0:
167,251,2952,1,0,0:0:0:0:
167,252,2958,1,0,0:0:0:0:
209,275,2964,1,0,0:0:0:0:
196,220,2970,1,0,0:0:0:0:
211,172,2982,1,0,0:0:0:0:
210,147,2988,1,0,0:0:0:0:
221,108,2994,1,0,0:0:0:0:
232,90,3000,1,0,0:0:0:0:
272,88,3006,1,0,0:0:0:0:
325,64,3018,1,0,0:0:0:0:
242,52,3030,1,0,0:0:0:0:
125,73,3048,1,0,0:0:0:0:
137,176,3060,1,0,0:0:0:0:
170,270,3072,1,0,0:0:0:0:
208,303,3078,1,0,0:0:0:0:
329,273,3096,1,0,0:0:0:0:
331,263,3108,1,0,0:0:0:0:
304,292,3114,1,0,0:0:0:0:
304,292,3120,1,0,0:0:0:0:
314,250,3126,1,0,0:0:0:0:
281,189,3138,1,0,0:0:0:0:
240,118,3144,1,0,0:0:0:0:
178,79,3156,1,0,0:0:0:0:
144,54,3162,1,0,0:0:0:0:
74,43,3168,1,0,0:0:0:0:
56,69,3174,1,0,0:0:0:0:
380,237,3216,1,0,0:0:0:0:
381,175,3222,1,0,0:0:0:0:
374,164,3228,1,0,0:0:0:0:
375,105,3234,1,0,0:0:0:0:
386,144,3240,1,0,0:0:0:0:
443,220,3252,1,0,0:0:0:0:
427,283,3258,1,0,0:0:0:0:
318,313,3276,1,0,0:0:0:0:
282,295,3282,1,0,0:0:0:0:
207,242,3288,1,0,0:0:0:0:
176,245,3294,1,0,0:0:0:0:
163,203,3306,1,0,0:0:0:0:
90,199,3312,1,0,0:0:0:0:
38,195,3318,1,0,0:0:0:0:
54,256,3324,1,0,0:0:0:0:
54,256,3330,1,0,0:0:0:0:
127,279,3342,1,0,0:0:0:0:
127,286,3348,1,0,0:0:0:0:
153,280,3354,1,0,0:0:0:0:
227,277,3366,1,0,0:0:0:0:
319,247,3378,1,0,0:0:0:0:
328,236,3384,1,0,0:0:0:0:
363,204,3390,1,0,0:0:0:0:
358,194,3396,1,0,0:0:0:0:
353,172,3402,1,0,0:0:0:0:
295,126,3408,1,0,0:0:0:0:
256,110,3414,1,0,0:0:0:0:
197,132,3420,1,0,0:0:0:0:
140,139,3432,1,0,0:0:0:0:
130,173,3438,1,0,0:0:0:0:
110,209,3444,1,0,0:0:0:0:
99,277,3450,1,0,0:0:0:0:
151,330,3456,1,0,0:0:0:0:
207,349,3468,1,0,0:0:0:0:
249,344,3474,1,0,0:0:0:0:
343,326,3480,1,0,0:0:0:0:
399,291,3492,1,0,0:0:0:0:
465,246,3498,1,0,0:0:0:0:
478,220,3504,1,0,0:0:0:0:
445,172,3510,1,0,0:0:0:0:
420,126,3516,1,0,0:0:0:0:
271,68,3522,1,0,0:0:0:0:
219,61,3528,1,0,0:0:0:0:
154,64,3540,1,0,0:0:0:0:
103,94,3546,1,0,0:0:0:0:
27,141,3552,1,0,0:0:0:0:
114,190,3558,1,0,0:0:0:0:
125,250,3564,1,0,0:0:0:0:
200,333,3576,1,0,0:0:0:0:
255,302,3582,1,0,0:0:0:0:
335,308,3588,1,0,0:0:0:0:
295,196,3606,1,0,0:0:0:0:
325,144,3612,1,0,0:0:0:0:
269,137,3618,1,0,0:0:0:0:
237,146,3624,1,0,0:0:0:0:
231,175,3630,1,0,0:0:0:0:
218,225,3636,1,0,0:0:0:0:
204,252,3648,1,0,0:0:0:0:
206,300,3654,1,0,0:0:0:0:
250,312,3660,1,0,0:0:0:0:
388,257,3666,1,0,0:0:0:0:
437,172,3678,1,0,0:0:0:0:
206,132,3690,1,0,0:0:0:0:
146,141,3696,1,0,0:0:0:0:
212,309,3714,1,0,0:0:0:0:
326,331,3720,1,0,0:0:0:0:
370,258,3732,1,0,0:0:0:0:
384,213,3744,1,0,0:0:0:0:
357,159,3750,1,0,0:0:0:0:
321,150,3756,1,0,0:0:0:0:
241,111,3762,1,0,0:0:0:0:
191,131,3768,1,0,0:0:0:0:
81,153,3774,1,0,0:0:0:0:
105,278,3786,1,0,0:0:0:0:
168,342,3798,1,0,0:0:0:0:
243,364,3804,1,0,0:0:0:0:
292,341,3810,1,0,0:0:0:0:
386,301,3816,1,0,0:0:0:0:
416,246,3822,1,0,0:0:0:0:
328,69,3834,1,0,0:0:0:0:
205,58,3846,1,0,0:0:0:0:
167,119,3858,1,0,0:0:0:0:
148,189,3864,1,0,0:0:0:0:
214,238,3870,1,0,0:0:0:0:
474,171,3900,1,0,0:0:0:0:
373,131,3912,1,0,0:0:0:0:
303,117,3918,1,0,0:0:0:0:
256,129,3924,1,0,0:0:0:0:
211,186,3930,1,0,0:0:0:0:
197,253,3936,1,0,0:0:0:0:
297,331,3942,1,0,0:0:0:0:
325,335,3954,1,0,0:0:0:0:
365,307,3960,1,0,0:0:0:0:
458,234,3966,1,0,0:0:0:0:
467,174,3972,1,0,0:0:0:0:
453,131,3978,1,0,0:0:0:0:
430,132,3984,1,0,0:0:0:0:
317,116,3990,1,0,0:0:0:0:
224,120,4002,1,0,0:0:0:0:
185,125,4008,1,0,0:0:0:0:
165,150,4014,1,0,0:0:0:0:
185,196,4020,1,0,0:0:0:0:
395,335,4038,1,0,0:0:0:0:
442,327,4044,1,0,0:0:0:0:
485,244,4050,1,0,0:0:0:0:
349,87,4062,1,0,0:0:0:0:
116,77,4080,1,0,0:0:0:0:
63,140,4086,1,0,0:0:0:0:
104,166,4092,1,0,0:0:0:0:
112,201,4098,1,0,0:0:0:0:
107,233,4104,1,0,0:0:0:0:
69,308,4116,1,0,0:0:0:0:
32,366,4122,1,0,0:0:0:0:
123,384,4128,1,0,0:0:0:0:
79,343,4140,1,0,0:0:0:0:
81,264,4152,1,0,0:0:0:0:
83,279,4158,1,0,0:0:0:0:
100,288,4170,1,0,0:0:0:0:
99,265,4182,1,0,0:0:0:0:
96,233,4188,1,0,0:0:0:0:
110,263,4194,1,0,0:0:0:0:
94,218,4200,1,0,0:0:0:0:
82,245,4206,1,0,0:0:0:0:
128,250,4212,1,0,0:0:0:0:
174,269,4224,1,0,0:0:0:0:
191,273,4230,1,0,0:0:0:0:
208,284,4236,1,0,0:0:0:0:
255,286,4242,1,0,0:0:0:0:
347,275,4254,1,0,0:0:0:0:
373,258,4266,1,0,0:0:0:0:
368,239,4272,1,0,0:0:0:0:
335,214,4278,1,0,0:0:0:0:
344,212,4284,1,0,0:0:0:0:
269,137,4296,1,0,0:0:0:0:
254,120,4302,1,0,0:0:0:0:
215,169,4308,1,0,0:0:0:0:
231,166,4314,1,0,0:0:0:0:
168,139,4320,1,0,0:0:0:0:
156,106,4326,1,0,0:0:0:0:
84,62,4338,1,0,0:0:0:0:
50,95,4350,1,0,0:0:0:0:
24,125,4356,1,0,0:0:0:0:
18,175,4362,1,0,0:0:0:0:
104,270,4368,1,0,0:0:0:0:
105,273,4374,1,0,0:0:0:0:
282,155,4380,1,0,0:0:0:0:
211,168,4381,1,0,0:0:0:0:
223,155,4382,1,0,0:0:0:0:
167,149,4384,1,0,0:0:0:0:
122,115,4385,1,0,0:0:0:0:
122,109,4386,1,0,0:0:0:0:
95,89,4388,1,0,0:0:0:0:
92,52,4390,1,0,0:0:0:0:
116,58,4391,1,0,0:0:0:0:
192,85,4392,1,0,0:0:0:0:
303,99,4395,1,0,0:0:0:0:
328,97,4396,1,0,0:0:0:0:
339,103,4398,1,0,0:0:0:0:
330,103,4400,1,0,0:0:0:0:
295,83,4401,1,0,0:0:0:0:
279,74,4402,1,0,0:0:0:0:
243,70,4404,1,0,0:0:0:0:
154,101,4406,1,0,0:0:0:0:
143,152,4407,1,0,0:0:0:0:
181,165,4408,1,0,0:0:0:0:
181,221,4410,1,0,0:0:0:0:
270,303,4412,1,0,0:0:0:0:
300,334,4414,1,0,0:0:0:0:
305,336,4415,1,0,0:0:0:0:
323,211,4416,1,0,0:0:0:0:
331,323,4417,1,0,0:0:0:0:
405,333,4419,1,0,0:0:0:0:
416,331,4420,1,0,0:0:0:0:
450,348,4422,1,0,0:0:0:0:
475,359,4423,1,0,0:0:0:0:
471,332,4425,1,0,0:0:0:0:
484,349,4426,1,0,0:0:0:0:
459,315,4428,1,0,0:0:0:0:
478,287,4431,1,0,0:0:0:0:
461,258,4433,1,0,0:0:0:0:
261,222,4434,1,0,0:0:0:0:
442,242,4435,1,0,0:0:0:0:
417,232,4437,1,0,0:0:0:0:
392,179,4438,1,0,0:0:0:0:
378,204,4439,1,0,0:0:0:0:
232,201,4440,1,0,0:0:0:0:
396,201,4441,1,0,0:0:0:0:
385,193,4442,1,0,0:0:0:0:
391,200,4443,1,0,0:0:0:0:
402,199,4446,1,0,0:0:0:0:
388,186,4447,1,0,0:0:0:0:
353,181,4449,1,0,0:0:0:0:
318,156,4452,1,0,0:0:0:0:
302,165,4453,1,0,0:0:0:0:
271,158,4455,1,0,0:0:0:0:
243,158,4457,1,0,0:0:0:0:
170,159,4458,1,0,0:0:0:0:
151,176,4460,1,0,0:0:0:0:
149,193,4461,1,0,0:0:0:0:
132,229,4462,1,0,0:0:0:0:
127,262,4464,1,0,0:0:0:0:
127,272,4465,1,0,0:0:0:0:
176,375,4468,1,0,0:0:0:0:
205,361,4470,1,0,0:0:0:0:
256,368,4472,1,0,0:0:0:0:
268,354,4474,1,0,0:0:0:0:
319,359,4477,1,0,0:0:0:0:
319,363,4478,1,0,0:0:0:0:
173,170,4479,1,0,0:0:0:0:
334,368,4480,1,0,0:0:0:0:
149,161,4481,1,0,0:0:0:0:
149,161,4482,1,0,0:0:0:0:
390,348,4484,1,0,0:0:0:0:
295,88,4485,1,0,0:0:0:0:
396,357,4486,1,0,0:0:0:0:
317,93,4487,1,0,0:0:0:0:
314,108,4488,1,0,0:0:0:0:
322,123,4489,1,0,0:0:0:0:
288,93,4490,1,0,0:0:0:0:
233,88,4491,1,0,0:0:0:0:
217,83,4493,1,0,0:0:0:0:
183,73,4494,1,0,0:0:0:0:
85,55,4495,1,0,0:0:0:0:
61,74,4496,1,0,0:0:0:0:
48,102,4497,1,0,0:0:0:0:
38,157,4498,1,0,0:0:0:0:
100,234,4499,1,0,0:0:0:0:
109,263,4501,1,0,0:0:0:0:
207,349,4502,1,0,0:0:0:0:
230,383,4503,1,0,0:0:0:0:
379,137,4505,1,0,0:0:0:0:
383,136,4507,1,0,0:0:0:0:
329,147,4508,1,0,0:0:0:0:
321,154,4510,1,0,0:0:0:0:
319,160,4511,1,0,0:0:0:0:
319,198,4513,1,0,0:0:0:0:
326,170,4514,1,0,0:0:0:0:
390,189,4515,1,0,0:0:0:0:
334,160,4516,1,0,0:0:0:0:
451,243,4517,1,0,0:0:0:0:
339,159,4518,1,0,0:0:0:0:
378,126,4519,1,0,0:0:0:0:
328,218,4520,1,0,0:0:0:0:
398,117,4521,1,0,0:0:0:0:
211,169,4522,1,0,0:0:0:0:
390,120,4523,1,0,0:0:0:0:
181,144,4524,1,0,0:0:0:0:
183,147,4525,1,0,0:0:0:0:
384,95,4526,1,0,0:0:0:0:
361,79,4527,1,0,0:0:0:0:
349,66,4528,1,0,0:0:0:0:
153,222,4529,1,0,0:0:0:0:
207,276,4530,1,0,0:0:0:0:
256,24,4531,1,0,0:0:0:0:
212,281,4532,1,0,0:0:0:0:
139,14,4533,1,0,0:0:0:0:
266,249,4534,1,0,0:0:0:0:
108,26,4535,1,0,0:0:0:0:
275,212,4536,1,0,0:0:0:0:
64,35,4537,1,0,0:0:0:0:
296,149,4538,1,0,0:0:0:0:
313,135,4539,1,0,0:0:0:0:
314,126,4540,1,0,0:0:0:0:
95,78,4541,1,0,0:0:0:0:
317,118,4543,1,0,0:0:0:0:
319,126,4544,1,0,0:0:0:0:
282,91,4545,1,0,0:0:0:0:
283,90,4546,1,0,0:0:0:0:
62,75,4547,1,0,0:0:0:0:
245,73,4548,1,0,0:0:0:0:
221,93,4549,1,0,0:0:0:0:
139,90,4550,1,0,0:0:0:0:
156,155,4551,1,0,0:0:0:0:
250,168,4552,1,0,0:0:0:0:
128,202,4553,1,0,0:0:0:0:
310,175,4554,1,0,0:0:0:0:
171,295,4556,1,0,0:0:0:0:
431,195,4557,1,0,0:0:0:0:
245,295,4558,1,0,0:0:0:0:
282,317,4559,1,0,0:0:0:0:
421,112,4561,1,0,0:0:0:0:
342,288,4562,1,0,0:0:0:0:
275,127,4563,1,0,0:0:0:0:
258,156,4564,1,0,0:0:0:0:
431,229,4565,1,0,0:0:0:0:
212,189,4566,1,0,0:0:0:0:
211,222,4568,1,0,0:0:0:0:
438,160,4569,1,0,0:0:0:0:
240,264,4570,1,0,0:0:0:0:
416,66,4572,1,0,0:0:0:0:
426,49,4573,1,0,0:0:0:0:
321,329,4574,1,0,0:0:0:0:
382,54,4576,1,0,0:0:0:0:
346,40,4577,1,0,0:0:0:0:
319,38,4578,1,0,0:0:0:0:
301,47,4579,1,0,0:0:0:0:
272,39,4581,1,0,0:0:0:0:
216,16,4583,1,0,0:0:0:0:
216,16,4584,1,0,0:0:0:0:
184,12,4585,1,0,0:0:0:0:
119,10,4586,1,0,0:0:0:0:
118,35,4587,1,0,0:0:0:0:
105,58,4589,1,0,0:0:0:0:
212,307,4590,1,0,0:0:0:0:
70,77,4591,1,0,0:0:0:0:
95,293,4593,1,0,0:0:0:0:
56,228,4594,1,0,0:0:0:0:
52,187,4596,1,0,0:0:0:0:
57,288,4597,1,0,0:0:0:0:
20,326,4598,1,0,0:0:0:0:
32,95,4599,1,0,0:0:0:0:
42,360,4600,1,0,0:0:0:0:
37,48,4602,1,0,0:0:0:0:
59,348,4603,1,0,0:0:0:0:
66,357,4604,1,0,0:0:0:0:
209,234,4605,1,0,0:0:0:0:
92,355,4606,1,0,0:0:0:0:
100,367,4607,1,0,0:0:0:0:
321,298,4608,1,0,0:0:0:0:
143,354,4609,1,0,0:0:0:0:
390,295,4610,1,0,0:0:0:0:
432,187,4613,1,0,0:0:0:0:
376,122,4616,1,0,0:0:0:0:
280,130,4619,1,0,0:0:0:0:
179,227,4622,1,0,0:0:0:0:
230,307,4625,1,0,0:0:0:0:
422,218,4629,1,0,0:0:0:0:
367,136,4633,1,0,0:0:0:0:
243,176,4635,1,0,0:0:0:0:
241,211,4637,1,0,0:0:0:0:
253,289,4640,1,0,0:0:0:0:
273,281,4643,1,0,0:0:0:0:
237,131,4647,1,0,0:0:0:0:
280,109,4650,1,0,0:0:0:0:
385,160,4653,1,0,0:0:0:0:
374,237,4656,1,0,0:0:0:0:
264,117,4664,1,0,0:0:0:0:
407,121,4666,1,0,0:0:0:0:
419,259,4670,1,0,0:0:0:0:
271,281,4673,1,0,0:0:0:0:
130,221,4676,1,0,0:0:0:0:
68,131,4679,1,0,0:0:0:0:
138,196,4682,1,0,0:0:0:0:
121,284,4685,1,0,0:0:0:0:
56,228,4691,1,0,0:0:0:0:
41,218,4695,1,0,0:0:0:0:
18,236,4697,1,0,0:0:0:0:
62,229,4702,1,0,0:0:0:0:
73,228,4704,1,0,0:0:0:0:
107,270,4706,1,0,0:0:0:0:
174,308,4709,1,0,0:0:0:0:
174,308,4710,1,0,0:0:0:0:
173,307,4712,1,0,0:0:0:0:
184,312,4714,1,0,0:0:0:0:
241,306,4717,1,0,0:0:0:0:
302,298,4719,1,0,0:0:0:0:
307,298,4721,1,0,0:0:0:0:
315,295,4722,1,0,0:0:0:0:
330,298,4724,1,0,0:0:0:0:
358,295,4726,1,0,0:0:0:0:
359,296,4728,1,0,0:0:0:0:
347,275,4729,1,0,0:0:0:0:
319,254,4731,1,0,0:0:0:0:
296,240,4733,1,0,0:0:0:0:
304,234,4736,1,0,0:0:0:0:
387,160,4739,1,0,0:0:0:0:
428,149,4741,1,0,0:0:0:0:
453,131,4744,1,0,0:0:0:0:
409,81,4748,1,0,0:0:0:0:
371,61,4749,1,0,0:0:0:0:
330,55,4752,1,0,0:0:0:0:
299,51,4754,1,0,0:0:0:0:
207,44,4757,1,0,0:0:0:0:
152,37,4760,1,0,0:0:0:0:
123,50,4763,1,0,0:0:0:0:
118,106,4766,1,0,0:0:0:0:
173,176,4770,1,0,0:0:0:0:
283,176,4774,1,0,0:0:0:0:
383,145,4776,1,0,0:0:0:0:
383,145,4778,1,0,0:0:0:0:
383,145,4779,1,0,0:0:0:0:
380,146,4781,1,0,0:0:0:0:
387,146,4784,1,0,0:0:0:0:
460,108,4787,1,0,0:0:0:0:
490,48,4790,1,0,0:0:0:0:
465,79,4795,1,0,0:0:0:0:
448,174,4798,1,0,0:0:0:0:
467,230,4801,1,0,0:0:0:0:
481,207,4803,1,0,0:0:0:0:
323,190,4807,1,0,0:0:0:0:
281,192,4810,1,0,0:0:0:0:
249,168,4812,1,0,0:0:0:0:
247,160,4814,1,0,0:0:0:0:
215,82,4818,1,0,0:0:0:0:
144,110,4821,1,0,0:0:0:0:
139,152,4823,1,0,0:0:0:0:
211,154,4826,1,0,0:0:0:0:
234,156,4827,1,0,0:0:0:0:
409,137,4830,1,0,0:0:0:0:
485,110,4833,1,0,0:0:0:0:
437,73,4835,1,0,0:0:0:0:
370,81,4837,1,0,0:0:0:0:
328,102,4839,1,0,0:0:0:0:
304,149,4845,1,0,0:0:0:0:
328,171,4848,1,0,0:0:0:0:
206,122,4853,1,0,0:0:0:0:
180,112,4854,1,0,0:0:0:0:
110,100,4857,1,0,0:0:0:0:
86,102,4858,1,0,0:0:0:0:
67,93,4860,1,0,0:0:0:0:
59,111,4861,1,0,0:0:0:0:
89,134,4863,1,0,0:0:0:0:
163,190,4865,1,0,0:0:0:0:
200,198,4866,1,0,0:0:0:0:
207,192,4868,1,0,0:0:0:0:
260,204,4871,1,0,0:0:0:0:
283,217,4872,1,0,0:0:0:0:
352,266,4875,1,0,0:0:0:0:
347,275,4876,1,0,0:0:0:0:
335,273,4878,1,0,0:0:0:0:
196,248,4882,1,0,0:0:0:0:
138,251,4884,1,0,0:0:0:0:
73,256,4886,1,0,0:0:0:0:
74,170,4889,1,0,0:0:0:0:
73,132,4891,1,0,0:0:0:0:
82,102,4892,1,0,0:0:0:0:
110,57,4895,1,0,0:0:0:0:
98,64,4897,1,0,0:0:0:0:
101,118,4899,1,0,0:0:0:0:
93,165,4900,1,0,0:0:0:0:
115,313,4903,1,0,0:0:0:0:
128,348,4905,1,0,0:0:0:0:
137,344,4906,1,0,0:0:0:0:
199,318,4910,1,0,0:0:0:0:
274,349,4912,1,0,0:0:0:0:
332,352,4914,1,0,0:0:0:0:
382,359,4916,1,0,0:0:0:0:
469,333,4919,1,0,0:0:0:0:
477,334,4921,1,0,0:0:0:0:
488,319,4923,1,0,0:0:0:0:
487,306,4925,1,0,0:0:0:0:
477,296,4927,1,0,0:0:0:0:
485,244,4929,1,0,0:0:0:0:
485,244,4932,1,0,0:0:0:0:
481,214,4933,1,0,0:0:0:0:
471,192,4935,1,0,0:0:0:0:
461,160,4937,1,0,0:0:0:0:
454,119,4940,1,0,0:0:0:0:
447,87,4942,1,0,0:0:0:0:
444,57,4944,1,0,0:0:0:0:
402,31,4947,1,0,0:0:0:0:
360,24,4950,1,0,0:0:0:0:
337,22,4952,1,0,0:0:0:0:
291,20,4954,1,0,0:0:0:0:
271,21,4956,1,0,0:0:0:0:
256,24,4958,1,0,0:0:0:0:
197,37,4962,1,0,0:0:0:0:
142,39,4963,1,0,0:0:0:0:
70,29,4967,1,0,0:0:0:0:
32,39,4969,1,0,0:0:0:0:
23,41,4971,1,0,0:0:0:0:
32,62,4973,1,0,0:0:0:0:
11,106,4975,1,0,0:0:0:0:
28,221,4978,1,0,0:0:0:0:
25,250,4980,1,0,0:0:0:0:
8,362,4986,1,0,0:0:0:0:
11,355,4987,1,0,0:0:0:0:
16,335,4990,1,0,0:0:0:0:
23,306,4992,1,0,0:0:0:0:
17,259,4995,1,0,0:0:0:0:
25,175,4998,1,0,0:0:0:0:
153,219,5005,1,0,0:0:0:0:
181,252,5008,1,0,0:0:0:0:
190,252,5010,1,0,0:0:0:0:
215,293,5013,1,0,0:0:0:0:
262,306,5015,1,0,0:0:0:0:
470,352,5020,1,0,0:0:0:0:
470,352,5021,1,0,0:0:0:0:
493,353,5023,1,0,0:0:0:0:
472,356,5026,1,0,0:0:0:0:
418,364,5029,1,0,0:0:0:0:
416,350,5032,1,0,0:0:0:0:
416,350,5034,1,0,0:0:0:0:
416,350,5035,1,0,0:0:0:0:
406,345,5038,1,0,0:0:0:0:
406,345,5041,1,0,0:0:0:0:
305,341,5045,1,0,0:0:0:0:
306,340,5046,1,0,0:0:0:0:
145,335,5052,1,0,0:0:0:0:
135,332,5054,1,0,0:0:0:0:
89,313,5057,1,0,0:0:0:0:
37,270,5059,1,0,0:0:0:0:
31,251,5061,1,0,0:0:0:0:
66,239,5063,1,0,0:0:0:0:
317,254,5078,1,0,0:0:0:0:
485,244,5079,1,0,0:0:0:0:
461,258,5082,1,0,0:0:0:0:
353,181,5090,1,0,0:0:0:0:
363,201,5094,1,0,0:0:0:0:
339,197,5096,1,0,0:0:0:0:
334,97,5097,1,0,0:0:0:0:
234,101,5098,1,0,0:0:0:0:
283,199,5101,1,0,0:0:0:0:
293,159,5103,1,0,0:0:0:0:
157,310,5114,1,0,0:0:0:0:
395,227,5121,1,0,0:0:0:0:
258,134,5126,1,0,0:0:0:0:
307,280,5130,1,0,0:0:0:0:
372,321,5132,1,0,0:0:0:0:
456,344,5134,1,0,0:0:0:0:
495,345,5139,1,0,0:0:0:0:
433,301,5140,1,0,0:0:0:0:
416,300,5144,1,0,0:0:0:0:
226,217,5151,1,0,0:0:0:0:
201,216,5153,1,0,0:0:0:0:
183,250,5155,1,0,0:0:0:0:
176,293,5157,1,0,0:0:0:0:
162,299,5159,1,0,0:0:0:0:
135,293,5161,1,0,0:0:0:0:
103,315,5164,1,0,0:0:0:0:
70,313,5167,1,0,0:0:0:0:
63,163,5173,1,0,0:0:0:0:
66,81,5177,1,0,0:0:0:0:
88,32,5180,1,0,0:0:0:0:
445,50,5193,1,0,0:0:0:0:
465,50,5194,1,0,0:0:0:0:
465,50,5196,1,0,0:0:0:0:
439,9,5210,1,0,0:0:0:0:
443,36,5214,1,0,0:0:0:0:
465,79,5216,1,0,0:0:0:0:
470,86,5218,1,0,0:0:0:0:
475,97,5220,1,0,0:0:0:0:
474,158,5224,1,0,0:0:0:0:
445,197,5228,1,0,0:0:0:0:
437,255,5233,1,0,0:0:0:0:
395,237,5236,1,0,0:0:0:0:
206,205,5248,1,0,0:0:0:0:
197,204,5250,1,0,0:0:0:0:
226,283,5264,1,0,0:0:0:0:
280,291,5266,1,0,0:0:0:0:
196,157,5274,1,0,0:0:0:0:
271,241,5283,1,0,0:0:0:0:
245,257,5285,1,0,0:0:0:0:
246,283,5287,1,0,0:0:0:0:
249,310,5289,1,0,0:0:0:0:
260,361,5292,1,0,0:0:0:0:
246,367,5294,1,0,0:0:0:0:
143,354,5302,1,0,0:0:0:0:
121,349,5305,1,0,0:0:0:0:
69,329,5308,1,0,0:0:0:0:
140,343,5312,1,0,0:0:0:0:
166,371,5314,1,0,0:0:0:0:
232,332,5319,1,0,0:0:0:0:
266,271,5322,1,0,0:0:0:0:
274,253,5323,1,0,0:0:0:0:
288,222,5325,1,0,0:0:0:0:
239,51,5331,1,0,0:0:0:0:
206,38,5333,1,0,0:0:0:0:
467,120,5427,1,0,0:0:0:0:
230,232,5434,1,0,0:0:0:0:
328,187,5435,1,0,0:0:0:0:
352,132,5437,1,0,0:0:0:0:
347,109,5439,1,0,0:0:0:0:
310,80,5441,1,0,0:0:0:0:
279,74,5442,1,0,0:0:0:0:
225,73,5444,1,0,0:0:0:0:
177,108,5447,1,0,0:0:0:0:
167,147,5449,1,0,0:0:0:0:
187,185,5452,1,0,0:0:0:0:
230,207,5454,1,0,0:0:0:0:
234,207,5455,1,0,0:0:0:0:
251,178,5457,1,0,0:0:0:0:
266,132,5459,1,0,0:0:0:0:
277,112,5461,1,0,0:0:0:0:
307,92,5463,1,0,0:0:0:0:
368,97,5465,1,0,0:0:0:0:
423,144,5467,1,0,0:0:0:0:
404,208,5469,1,0,0:0:0:0:
374,237,5471,1,0,0:0:0:0:
257,244,5474,1,0,0:0:0:0:
206,188,5476,1,0,0:0:0:0:
198,133,5478,1,0,0:0:0:0:
175,51,5480,1,0,0:0:0:0:
124,22,5483,1,0,0:0:0:0:
66,44,5485,1,0,0:0:0:0:
56,71,5487,1,0,0:0:0:0:
46,160,5489,1,0,0:0:0:0:
63,199,5491,1,0,0:0:0:0:
89,218,5493,1,0,0:0:0:0:
138,216,5495,1,0,0:0:0:0:
168,189,5497,1,0,0:0:0:0:
157,154,5499,1,0,0:0:0:0:
135,148,5501,1,0,0:0:0:0:
117,148,5503,1,0,0:0:0:0:
92,189,5505,1,0,0:0:0:0:
89,223,5507,1,0,0:0:0:0:
95,256,5509,1,0,0:0:0:0:
139,277,5511,1,0,0:0:0:0:
158,264,5513,1,0,0:0:0:0:
117,253,5515,1,0,0:0:0:0:
44,297,5517,1,0,0:0:0:0:
27,323,5519,1,0,0:0:0:0:
47,360,5522,1,0,0:0:0:0:
86,364,5523,1,0,0:0:0:0:
162,361,5525,1,0,0:0:0:0:
234,286,5528,1,0,0:0:0:0:
276,271,5530,1,0,0:0:0:0:
332,277,5532,1,0,0:0:0:0:
357,320,5535,1,0,0:0:0:0:
305,335,5537,1,0,0:0:0:0:
258,336,5539,1,0,0:0:0:0:
252,311,5541,1,0,0:0:0:0:
277,249,5543,1,0,0:0:0:0:
320,230,5545,1,0,0:0:0:0:
434,259,5548,1,0,0:0:0:0:
449,283,5550,1,0,0:0:0:0:
454,304,5552,1,0,0:0:0:0:
426,331,5554,1,0,0:0:0:0:
366,335,5556,1,0,0:0:0:0:
275,316,5559,1,0,0:0:0:0:
266,283,5561,1,0,0:0:0:0:
282,253,5563,1,0,0:0:0:0:
282,252,5565,1,0,0:0:0:0:
331,215,5567,1,0,0:0:0:0:
378,185,5569,1,0,0:0:0:0:
388,164,5571,1,0,0:0:0:0:
390,131,5573,1,0,0:0:0:0:
384,101,5575,1,0,0:0:0:0:
347,60,5578,1,0,0:0:0:0:
304,42,5580,1,0,0:0:0:0:
272,39,5582,1,0,0:0:0:0:
219,48,5584,1,0,0:0:0:0:
178,67,5586,1,0,0:0:0:0:
148,89,5588,1,0,0:0:0:0:
134,119,5590,1,0,0:0:0:0:
130,147,5592,1,0,0:0:0:0:
146,204,5595,1,0,0:0:0:0:
244,235,5598,1,0,0:0:0:0:
306,192,5600,1,0,0:0:0:0:
306,159,5602,1,0,0:0:0:0:
285,130,5605,1,0,0:0:0:0:
239,121,5606,1,0,0:0:0:0:
215,116,5608,1,0,0:0:0:0:
157,116,5611,1,0,0:0:0:0:
123,129,5613,1,0,0:0:0:0:
108,148,5615,1,0,0:0:0:0:
109,203,5617,1,0,0:0:0:0:
137,244,5619,1,0,0:0:0:0:
192,273,5621,1,0,0:0:0:0:
343,264,5624,1,0,0:0:0:0:
423,177,5626,1,0,0:0:0:0:
434,96,5629,1,0,0:0:0:0:
411,38,5631,1,0,0:0:0:0:
391,22,5633,1,0,0:0:0:0:
352,22,5635,1,0,0:0:0:0:
337,22,5637,1,0,0:0:0:0:
337,22,5639,1,0,0:0:0:0:
337,22,5641,1,0,0:0:0:0:
350,49,5643,1,0,0:0:0:0:
371,61,5645,1,0,0:0:0:0:
405,68,5647,1,0,0:0:0:0:
437,73,5649,1,0,0:0:0:0:
457,44,5651,1,0,0:0:0:0:
463,25,5653,1,0,0:0:0:0:
482,28,5655,1,0,0:0:0:0:
503,55,5657,1,0,0:0:0:0:
496,104,5659,1,0,0:0:0:0:
455,125,5661,1,0,0:0:0:0:
415,126,5663,1,0,0:0:0:0:
467,128,5666,1,0,0:0:0:0:
474,155,5668,1,0,0:0:0:0:
462,210,5671,1,0,0:0:0:0:
437,241,5673,1,0,0:0:0:0:
365,247,5675,1,0,0:0:0:0:
343,225,5677,1,0,0:0:0:0:
361,205,5679,1,0,0:0:0:0:
381,218,5681,1,0,0:0:0:0:
383,268,5684,1,0,0:0:0:0:
363,301,5686,1,0,0:0:0:0:
316,318,5688,1,0,0:0:0:0:
259,318,5690,1,0,0:0:0:0:
233,286,5692,1,0,0:0:0:0:
251,286,5695,1,0,0:0:0:0:
249,314,5697,1,0,0:0:0:0:
220,336,5699,1,0,0:0:0:0:
174,348,5701,1,0,0:0:0:0:
109,319,5703,1,0,0:0:0:0:
100,292,5705,1,0,0:0:0:0:
109,265,5707,1,0,0:0:0:0:
114,263,5709,1,0,0:0:0:0:
121,284,5711,1,0,0:0:0:0:
110,306,5713,1,0,0:0:0:0:
72,308,5715,1,0,0:0:0:0:
37,268,5717,1,0,0:0:0:0:
41,215,5719,1,0,0:0:0:0:
91,177,5721,1,0,0:0:0:0:
114,222,5724,1,0,0:0:0:0:
103,228,5726,1,0,0:0:0:0:
84,209,5728,1,0,0:0:0:0:
93,168,5730,1,0,0:0:0:0:
149,135,5732,1,0,0:0:0:0:
228,175,5736,1,0,0:0:0:0:
221,185,5738,1,0,0:0:0:0:
215,186,5740,1,0,0:0:0:0:
218,165,5742,1,0,0:0:0:0:
255,154,5744,1,0,0:0:0:0:
312,172,5746,1,0,0:0:0:0:
338,217,5748,1,0,0:0:0:0:
332,245,5750,1,0,0:0:0:0:
319,254,5752,1,0,0:0:0:0:
317,239,5754,1,0,0:0:0:0:
325,230,5756,1,0,0:0:0:0:
364,241,5758,1,0,0:0:0:0:
351,301,5761,1,0,0:0:0:0:
306,320,5763,1,0,0:0:0:0:
242,309,5765,1,0,0:0:0:0:
237,280,5767,1,0,0:0:0:0:
236,284,5769,1,0,0:0:0:0:
197,304,5771,1,0,0:0:0:0:
123,289,5773,1,0,0:0:0:0:
80,226,5775,1,0,0:0:0:0:
74,170,5777,1,0,0:0:0:0:
93,99,5779,1,0,0:0:0:0:
122,89,5781,1,0,0:0:0:0:
128,89,5783,1,0,0:0:0:0:
76,85,5785,1,0,0:0:0:0:
25,79,5787,1,0,0:0:0:0:
27,29,5790,1,0,0:0:0:0:
52,28,5792,1,0,0:0:0:0:
67,54,5794,1,0,0:0:0:0:
29,73,5796,1,0,0:0:0:0:
0,61,5798,1,0,0:0:0:0:
38,43,5800,1,0,0:0:0:0:
100,71,5802,1,0,0:0:0:0:
93,116,5804,1,0,0:0:0:0:
33,140,5806,1,0,0:0:0:0:
72,112,5809,1,0,0:0:0:0:
56,157,5811,1,0,0:0:0:0:
37,150,5813,1,0,0:0:0:0:
64,158,5815,1,0,0:0:0:0:
48,195,5817,1,0,0:0:0:0:
30,189,5819,1,0,0:0:0:0:
45,238,5822,1,0,0:0:0:0:
66,231,5824,1,0,0:0:0:0:
33,271,5827,1,0,0:0:0:0:
84,291,5829,1,0,0:0:0:0:
68,336,5833,1,0,0:0:0:0:
42,330,5835,1,0,0:0:0:0:
100,334,5837,1,0,0:0:0:0:
56,346,5839,1,0,0:0:0:0:
128,331,5841,1,0,0:0:0:0:
100,346,5843,1,0,0:0:0:0:
163,340,5846,1,0,0:0:0:0:
199,318,5849,1,0,0:0:0:0:
232,344,5853,1,0,0:0:0:0:
187,343,5855,1,0,0:0:0:0:
243,344,5858,1,0,0:0:0:0:
231,312,5860,1,0,0:0:0:0:
232,341,5863,1,0,0:0:0:0:
288,312,5865,1,0,0:0:0:0:
306,354,5867,1,0,0:0:0:0:
262,351,5869,1,0,0:0:0:0:
328,335,5871,1,0,0:0:0:0:
293,358,5874,1,0,0:0:0:0:
331,326,5876,1,0,0:0:0:0:
367,347,5878,1,0,0:0:0:0:
332,352,5880,1,0,0:0:0:0:
388,321,5882,1,0,0:0:0:0:
328,366,5885,1,0,0:0:0:0:
380,326,5887,1,0,0:0:0:0:
418,364,5889,1,0,0:0:0:0:
356,360,5891,1,0,0:0:0:0:
431,329,5893,1,0,0:0:0:0:
440,321,5897,1,0,0:0:0:0:
459,363,5899,1,0,0:0:0:0:
408,349,5901,1,0,0:0:0:0:
483,361,5904,1,0,0:0:0:0:
434,355,5906,1,0,0:0:0:0:
491,329,5908,1,0,0:0:0:0:
484,364,5910,1,0,0:0:0:0:
422,338,5912,1,0,0:0:0:0:
464,290,5914,1,0,0:0:0:0:
458,321,5916,1,0,0:0:0:0:
398,295,5918,1,0,0:0:0:0:
446,251,5920,1,0,0:0:0:0:
410,290,5923,1,0,0:0:0:0:
476,234,5926,1,0,0:0:0:0:
430,234,5929,1,0,0:0:0:0:
499,235,5931,1,0,0:0:0:0:
458,296,5933,1,0,0:0:0:0:
466,248,5935,1,0,0:0:0:0:
504,284,5937,1,0,0:0:0:0:
424,241,5939,1,0,0:0:0:0:
481,201,5941,1,0,0:0:0:0:
477,257,5943,1,0,0:0:0:0:
454,174,5945,1,0,0:0:0:0:
490,186,5947,1,0,0:0:0:0:
477,213,5949,1,0,0:0:0:0:
470,143,5952,1,0,0:0:0:0:
433,99,5955,1,0,0:0:0:0:
426,59,5959,1,0,0:0:0:0:
471,89,5961,1,0,0:0:0:0:
429,82,5963,1,0,0:0:0:0:
457,32,5965,1,0,0:0:0:0:
481,68,5967,1,0,0:0:0:0:
420,29,5969,1,0,0:0:0:0:
453,34,5971,1,0,0:0:0:0:
390,60,5973,1,0,0:0:0:0:
381,29,5975,1,0,0:0:0:0:
413,73,5977,1,0,0:0:0:0:
316,29,5980,1,0,0:0:0:0:
279,74,5982,1,0,0:0:0:0:
255,32,5984,1,0,0:0:0:0:
225,29,5988,1,0,0:0:0:0:
168,59,5991,1,0,0:0:0:0:
205,24,5993,1,0,0:0:0:0:
205,60,5995,1,0,0:0:0:0:
142,39,5997,1,0,0:0:0:0:
217,40,5999,1,0,0:0:0:0:
106,39,6001,1,0,0:0:0:0:
128,22,6003,1,0,0:0:0:0:
154,53,6005,1,0,0:0:0:0:
95,15,6007,1,0,0:0:0:0:
163,45,6009,1,0,0:0:0:0:
150,64,6013,1,0,0:0:0:0:
139,23,6015,1,0,0:0:0:0:
175,31,6017,1,0,0:0:0:0:
132,16,6019,1,0,0:0:0:0:
179,26,6021,1,0,0:0:0:0:
124,95,6025,1,0,0:0:0:0:
170,44,6027,1,0,0:0:0:0:
104,115,6029,1,0,0:0:0:0:
176,81,6031,1,0,0:0:0:0:
133,154,6033,1,0,0:0:0:0:
207,131,6035,1,0,0:0:0:0:
175,193,6037,1,0,0:0:0:0:
199,241,6040,1,0,0:0:0:0:
176,224,6042,1,0,0:0:0:0:
188,257,6044,1,0,0:0:0:0:
153,208,6046,1,0,0:0:0:0:
262,256,6048,1,0,0:0:0:0:
159,226,6050,1,0,0:0:0:0:
322,186,6052,1,0,0:0:0:0:
205,204,6055,1,0,0:0:0:0:
321,206,6058,1,0,0:0:0:0:
216,193,6060,1,0,0:0:0:0:
340,131,6062,1,0,0:0:0:0:
394,189,6064,1,0,0:0:0:0:
323,233,6066,1,0,0:0:0:0:
344,110,6070,1,0,0:0:0:0:
382,163,6072,1,0,0:0:0:0:
350,231,6074,1,0,0:0:0:0:
266,220,6076,1,0,0:0:0:0:
219,164,6078,1,0,0:0:0:0:
255,116,6080,1,0,0:0:0:0:
352,110,6082,1,0,0:0:0:0:
390,166,6084,1,0,0:0:0:0:
378,228,6086,1,0,0:0:0:0:
291,256,6088,1,0,0:0:0:0:
183,250,6090,1,0,0:0:0:0:
109,184,6092,1,0,0:0:0:0:
123,127,6094,1,0,0:0:0:0:
249,111,6096,1,0,0:0:0:0:
336,146,6098,1,0,0:0:0:0:
355,216,6100,1,0,0:0:0:0:
319,276,6102,1,0,0:0:0:0:
109,252,6105,1,0,0:0:0:0:
89,166,6107,1,0,0:0:0:0:
162,112,6109,1,0,0:0:0:0:
306,117,6111,1,0,0:0:0:0:
344,106,6118,1,0,0:0:0:0:
382,253,6121,1,0,0:0:0:0:
263,284,6123,1,0,0:0:0:0:
167,274,6125,1,0,0:0:0:0:
124,242,6127,1,0,0:0:0:0:
227,203,6129,1,0,0:0:0:0:
271,150,6131,1,0,0:0:0:0:
155,39,6135,1,0,0:0:0:0:
66,52,6137,1,0,0:0:0:0:
29,130,6139,1,0,0:0:0:0:
55,198,6141,1,0,0:0:0:0:
76,240,6143,1,0,0:0:0:0:
77,270,6145,1,0,0:0:0:0:
58,307,6147,1,0,0:0:0:0:
27,320,6149,1,0,0:0:0:0:
17,243,6151,1,0,0:0:0:0:
44,277,6153,1,0,0:0:0:0:
37,331,6155,1,0,0:0:0:0:
24,359,6157,1,0,0:0:0:0:
22,372,6159,1,0,0:0:0:0:
41,374,6161,1,0,0:0:0:0:
63,377,6163,1,0,0:0:0:0:
85,377,6165,1,0,0:0:0:0:
103,374,6167,1,0,0:0:0:0:
120,368,6169,1,0,0:0:0:0:
166,366,6172,1,0,0:0:0:0:
195,364,6174,1,0,0:0:0:0:
209,368,6176,1,0,0:0:0:0:
221,372,6178,1,0,0:0:0:0:
236,373,6180,1,0,0:0:0:0:
270,369,6183,1,0,0:0:0:0:
292,368,6185,1,0,0:0:0:0:
315,365,6187,1,0,0:0:0:0:
458,347,6195,1,0,0:0:0:0:
489,335,6197,1,0,0:0:0:0:
502,305,6200,1,0,0:0:0:0:
496,269,6202,1,0,0:0:0:0:
476,213,6205,1,0,0:0:0:0:
467,173,6207,1,0,0:0:0:0:
425,83,6211,1,0,0:0:0:0:
404,61,6213,1,0,0:0:0:0:
335,29,6217,1,0,0:0:0:0:
291,28,6219,1,0,0:0:0:0:
134,119,6225,1,0,0:0:0:0:
152,176,6227,1,0,0:0:0:0:
189,202,6229,1,0,0:0:0:0:
207,213,6231,1,0,0:0:0:0:
228,180,6233,1,0,0:0:0:0:
277,156,6235,1,0,0:0:0:0:
338,254,6237,1,0,0:0:0:0:
204,167,6241,1,0,0:0:0:0:
247,208,6243,1,0,0:0:0:0:
120,191,6245,1,0,0:0:0:0:
93,107,6247,1,0,0:0:0:0:
227,82,6249,1,0,0:0:0:0:
170,175,6253,1,0,0:0:0:0:
298,125,6255,1,0,0:0:0:0:
219,142,6257,1,0,0:0:0:0:
423,160,6264,1,0,0:0:0:0:
472,190,6266,1,0,0:0:0:0:
467,239,6268,1,0,0:0:0:0:
375,258,6270,1,0,0:0:0:0:
348,136,6273,1,0,0:0:0:0:
361,47,6276,1,0,0:0:0:0:
96,215,6279,1,0,0:0:0:0:
357,34,6284,1,0,0:0:0:0:
156,69,6286,1,0,0:0:0:0:
85,207,6288,1,0,0:0:0:0:
469,154,6293,1,0,0:0:0:0:
330,58,6295,1,0,0:0:0:0:
209,292,6298,1,0,0:0:0:0:
364,80,6300,1,0,0:0:0:0:
236,330,6302,1,0,0:0:0:0:
175,51,6304,1,0,0:0:0:0:
405,146,6306,1,0,0:0:0:0:
222,304,6308,1,0,0:0:0:0:
154,137,6310,1,0,0:0:0:0:
190,348,6313,1,0,0:0:0:0:
183,48,6315,1,0,0:0:0:0:
388,155,6317,1,0,0:0:0:0:
411,271,6319,1,0,0:0:0:0:
163,297,6321,1,0,0:0:0:0:
444,137,6324,1,0,0:0:0:0:
296,326,6326,1,0,0:0:0:0:
267,94,6329,1,0,0:0:0:0:
175,313,6332,1,0,0:0:0:0:
205,102,6334,1,0,0:0:0:0:
352,132,6336,1,0,0:0:0:0:
414,262,6338,1,0,0:0:0:0:
269,336,6340,1,0,0:0:0:0:
332,122,6343,1,0,0:0:0:0:
162,227,6346,1,0,0:0:0:0:
153,280,6352,1,0,0:0:0:0:
210,88,6354,1,0,0:0:0:0:
378,122,6356,1,0,0:0:0:0:
399,249,6358,1,0,0:0:0:0:
245,306,6360,1,0,0:0:0:0:
153,201,6362,1,0,0:0:0:0:
273,56,6364,1,0,0:0:0:0:
431,132,6366,1,0,0:0:0:0:
362,256,6368,1,0,0:0:0:0:
226,39,6371,1,0,0:0:0:0:
227,310,6374,1,0,0:0:0:0:
374,85,6377,1,0,0:0:0:0:
161,181,6380,1,0,0:0:0:0:
190,261,6386,1,0,0:0:0:0:
146,100,6388,1,0,0:0:0:0:
350,117,6390,1,0,0:0:0:0:
385,204,6392,1,0,0:0:0:0:
227,277,6394,1,0,0:0:0:0:
151,198,6396,1,0,0:0:0:0:
248,88,6398,1,0,0:0:0:0:
277,144,6400,1,0,0:0:0:0:
292,271,6402,1,0,0:0:0:0:
232,278,6404,1,0,0:0:0:0:
182,189,6406,1,0,0:0:0:0:
152,227,6410,1,0,0:0:0:0:
230,58,6412,1,0,0:0:0:0:
268,166,6414,1,0,0:0:0:0:
299,136,6416,1,0,0:0:0:0:
303,134,6418,1,0,0:0:0:0:
304,142,6420,1,0,0:0:0:0:
328,187,6422,1,0,0:0:0:0:
328,187,6424,1,0,0:0:0:0:
328,187,6426,1,0,0:0:0:0:
386,189,6428,1,0,0:0:0:0:
262,159,6430,1,0,0:0:0:0:
324,148,6432,1,0,0:0:0:0:
293,118,6435,1,0,0:0:0:0:
293,118,6437,1,0,0:0:0:0:
274,141,6439,1,0,0:0:0:0:
200,115,6441,1,0,0:0:0:0:
192,273,6444,1,0,0:0:0:0:
423,177,6447,1,0,0:0:0:0:
114,112,6450,1,0,0:0:0:0:
263,89,6452,1,0,0:0:0:0:
251,239,6454,1,0,0:0:0:0:
62,221,6456,1,0,0:0:0:0:
50,45,6458,1,0,0:0:0:0:
52,31,6462,1,0,0:0:0:0:
128,97,6464,1,0,0:0:0:0:
110,165,6466,1,0,0:0:0:0:
25,149,6473,1,0,0:0:0:0:
54,151,6475,1,0,0:0:0:0:
31,167,6477,1,0,0:0:0:0:
5,72,6479,1,0,0:0:0:0:
67,172,6482,1,0,0:0:0:0:
63,189,6486,1,0,0:0:0:0:
35,205,6490,1,0,0:0:0:0:
98,168,6493,1,0,0:0:0:0:
36,181,6495,1,0,0:0:0:0:
31,93,6497,1,0,0:0:0:0:
105,170,6499,1,0,0:0:0:0:
66,257,6501,1,0,0:0:0:0:
14,249,6503,1,0,0:0:0:0:
63,306,6506,1,0,0:0:0:0:
17,289,6511,1,0,0:0:0:0:
107,290,6513,1,0,0:0:0:0:
103,357,6515,1,0,0:0:0:0:
64,380,6517,1,0,0:0:0:0:
28,309,6519,1,0,0:0:0:0:
103,316,6521,1,0,0:0:0:0:
75,373,6523,1,0,0:0:0:0:
23,348,6525,1,0,0:0:0:0:
30,275,6529,1,0,0:0:0:0:
132,343,6531,1,0,0:0:0:0:
156,367,6535,1,0,0:0:0:0:
131,356,6537,1,0,0:0:0:0:
146,338,6541,1,0,0:0:0:0:
199,380,6544,1,0,0:0:0:0:
184,338,6546,1,0,0:0:0:0:
270,357,6551,1,0,0:0:0:0:
215,356,6553,1,0,0:0:0:0:
263,374,6556,1,0,0:0:0:0:
251,319,6558,1,0,0:0:0:0:
301,377,6561,1,0,0:0:0:0:
302,294,6563,1,0,0:0:0:0:
378,330,6565,1,0,0:0:0:0:
372,313,6572,1,0,0:0:0:0:
465,357,6576,1,0,0:0:0:0:
392,383,6578,1,0,0:0:0:0:
438,294,6580,1,0,0:0:0:0:
455,345,6582,1,0,0:0:0:0:
377,304,6584,1,0,0:0:0:0:
506,307,6586,1,0,0:0:0:0:
415,349,6590,1,0,0:0:0:0:
429,260,6592,1,0,0:0:0:0:
483,314,6594,1,0,0:0:0:0:
434,335,6596,1,0,0:0:0:0:
441,235,6598,1,0,0:0:0:0:
469,281,6600,1,0,0:0:0:0:
435,276,6602,1,0,0:0:0:0:
445,190,6606,1,0,0:0:0:0:
442,160,6608,1,0,0:0:0:0:
486,144,6610,1,0,0:0:0:0:
502,130,6614,1,0,0:0:0:0:
487,40,6617,1,0,0:0:0:0:
493,66,6619,1,0,0:0:0:0:
437,34,6621,1,0,0:0:0:0:
426,4,6623,1,0,0:0:0:0:
469,53,6625,1,0,0:0:0:0:
427,42,6627,1,0,0:0:0:0:
406,53,6629,1,0,0:0:0:0:
377,15,6631,1,0,0:0:0:0:
420,32,6633,1,0,0:0:0:0:
345,42,6635,1,0,0:0:0:0:
289,27,6637,1,0,0:0:0:0:
276,9,6639,1,0,0:0:0:0:
243,48,6641,1,0,0:0:0:0:
187,40,6643,1,0,0:0:0:0:
146,15,6645,1,0,0:0:0:0:
57,72,6648,1,0,0:0:0:0:
116,63,6650,1,0,0:0:0:0:
95,115,6652,1,0,0:0:0:0:
65,83,6654,1,0,0:0:0:0:
135,100,6656,1,0,0:0:0:0:
142,79,6659,1,0,0:0:0:0:
201,231,6661,1,0,0:0:0:0:
312,172,6664,1,0,0:0:0:0:
156,233,6666,1,0,0:0:0:0:
304,159,6668,1,0,0:0:0:0:
319,239,6670,1,0,0:0:0:0:
219,234,6672,1,0,0:0:0:0:
231,215,6673,1,0,0:0:0:0:
372,174,11973,5,0,0:0:0:0:
290,159,11975,1,0,0:0:0:0:
191,131,11976,1,0,0:0:0:0:
119,60,11977,1,0,0:0:0:0:
98,82,11978,1,0,0:0:0:0:
110,141,11979,1,0,0:0:0:0:
143,187,11980,1,0,0:0:0:0:
148,210,11981,1,0,0:0:0:0:
227,247,11982,1,0,0:0:0:0:
297,259,11983,1,0,0:0:0:0:
382,178,11985,1,0,0:0:0:0:
386,126,11986,1,0,0:0:0:0:
336,44,11987,1,0,0:0:0:0:
329,50,11988,1,0,0:0:0:0:
252,67,11989,1,0,0:0:0:0:
161,119,11991,1,0,0:0:0:0:
148,171,11992,1,0,0:0:0:0:
143,209,11993,1,0,0:0:0:0:
187,240,11994,1,0,0:0:0:0:
290,106,12004,1,0,0:0:0:0:
310,228,12008,1,0,0:0:0:0:
390,293,12009,1,0,0:0:0:0:
416,307,12010,1,0,0:0:0:0:
423,307,12011,1,0,0:0:0:0:
426,286,12012,1,0,0:0:0:0:
416,253,12013,1,0,0:0:0:0:
464,217,12015,1,0,0:0:0:0:
409,32,12020,1,0,0:0:0:0:
231,20,12022,1,0,0:0:0:0:
186,22,12023,1,0,0:0:0:0:
175,35,12024,1,0,0:0:0:0:
181,259,12030,1,0,0:0:0:0:
205,290,12031,1,0,0:0:0:0:
233,311,12032,1,0,0:0:0:0:
320,289,12034,1,0,0:0:0:0:
392,265,12035,1,0,0:0:0:0:
240,125,12040,1,0,0:0:0:0:
227,152,12041,1,0,0:0:0:0:
241,201,12042,1,0,0:0:0:0:
242,211,12043,1,0,0:0:0:0:
262,269,12044,1,0,0:0:0:0:
231,249,12045,1,0,0:0:0:0:
190,231,12046,1,0,0:0:0:0:
160,230,12047,1,0,0:0:0:0:
90,203,12048,1,0,0:0:0:0:
90,196,12049,1,0,0:0:0:0:
290,159,12053,1,0,0:0:0:0:
382,186,12054,1,0,0:0:0:0:
432,217,12055,1,0,0:0:0:0:
447,243,12056,1,0,0:0:0:0:
415,265,12057,1,0,0:0:0:0:
389,265,12058,1,0,0:0:0:0:
283,262,12059,1,0,0:0:0:0:
227,252,12060,1,0,0:0:0:0:
185,233,12061,1,0,0:0:0:0:
129,225,12062,1,0,0:0:0:0:
125,241,12063,1,0,0:0:0:0:
130,270,12064,1,0,0:0:0:0:
147,316,12065,1,0,0:0:0:0:
198,358,12066,1,0,0:0:0:0:
250,374,12067,1,0,0:0:0:0:
291,360,12068,1,0,0:0:0:0:
338,319,12069,1,0,0:0:0:0:
345,277,12070,1,0,0:0:0:0:
339,220,12071,1,0,0:0:0:0:
276,154,12072,1,0,0:0:0:0:
163,76,12074,1,0,0:0:0:0:
28,250,12078,1,0,0:0:0:0:
28,259,12079,1,0,0:0:0:0:
37,301,12080,1,0,0:0:0:0:
43,320,12081,1,0,0:0:0:0:
98,360,12082,1,0,0:0:0:0:
110,350,12083,1,0,0:0:0:0:
113,316,12084,1,0,0:0:0:0:
92,231,12085,1,0,0:0:0:0:
85,179,12086,1,0,0:0:0:0:
78,131,12087,1,0,0:0:0:0:
79,107,12088,1,0,0:0:0:0:
88,82,12090,1,0,0:0:0:0:
151,67,12091,1,0,0:0:0:0:
184,67,12092,1,0,0:0:0:0:
