osu file format v14

[General]
AudioFilename: audio.mp3
AudioLeadIn: 0
PreviewTime: -1
Countdown: 0
SampleSet: Normal
StackLeniency: 0.7
Mode: 3
LetterboxInBreaks: 0
SpecialStyle: 0
WidescreenStoryboard: 0

[Editor]
DistanceSpacing: 1.3
BeatDivisor: 4
GridSize: 4
TimelineZoom: 2.299999

[Metadata]
Title:Scarlet Pinheel
TitleUnicode:Scarlet Pinheel
Artist:penoreri
ArtistUnicode:ぺのれり
Creator:Alsty-
Version:GRAVITY
Source:SDVX III -GRAVITY WARS-
Tags:e
BeatmapID:1324332
BeatmapSetID:628117

[Difficulty]
HPDrainRate:8
CircleSize:6
OverallDifficulty:9
ApproachRate:5
SliderMultiplier:1.4
SliderTickRate:1

[Events]
//Background and Video events
0,0,"Scarlet BG Pinheel.png",0,0
//Break Periods
//Storyboard Layer 0 (Background)
//Storyboard Layer 1 (Fail)
//Storyboard Layer 2 (Pass)
//Storyboard Layer 3 (Foreground)
//Storyboard Layer 4 (Overlay)
//Storyboard Sound Samples

[TimingPoints]
499,348.837209302326,4,1,0,15,1,0

[HitObjects]
213,192,1719,5,0,0:0:0:0:
298,192,1807,1,0,0:0:0:0:
128,192,1894,1,0,0:0:0:0:
42,192,1894,1,0,0:0:0:0:
384,192,1894,1,0,0:0:0:0:
469,192,1894,1,0,0:0:0:0:
213,192,1981,1,0,0:0:0:0:
298,192,2068,1,0,0:0:0:0:
384,192,2155,1,0,0:0:0:0:
469,192,2243,1,0,0:0:0:0:
42,192,2243,1,0,0:0:0:0:
128,192,2330,1,0,0:0:0:0:
213,192,2417,1,0,0:0:0:0:
298,192,2504,1,0,0:0:0:0:
384,192,2592,1,0,0:0:0:0:
469,192,2592,1,0,0:0:0:0:
42,192,2679,1,0,0:0:0:0:
128,192,2766,1,0,0:0:0:0:
298,192,2853,1,0,0:0:0:0:
213,192,2853,1,0,0:0:0:0:
384,192,2940,1,0,0:0:0:0:
469,192,3028,1,0,0:0:0:0:
42,192,3115,1,0,0:0:0:0:
128,192,3115,1,0,0:0:0:0:
213,192,3202,1,0,0:0:0:0:
298,192,3289,1,0,0:0:0:0:
384,192,3376,1,0,0:0:0:0:
469,192,3464,1,0,0:0:0:0:
42,192,3464,1,0,0:0:0:0:
298,192,3551,1,0,0:0:0:0:
128,192,3638,1,0,0:0:0:0:
213,192,3638,1,0,0:0:0:0:
298,192,3725,1,0,0:0:0:0:
384,192,3812,1,0,0:0:0:0:
469,192,3900,1,0,0:0:0:0:
42,192,3987,1,0,0:0:0:0:
298,192,3987,1,0,0:0:0:0:
128,192,3987,1,0,0:0:0:0:
384,192,4074,1,0,0:0:0:0:
469,192,4161,1,0,0:0:0:0:
213,192,4249,1,0,0:0:0:0:
42,192,4249,1,0,0:0:0:0:
469,192,4336,1,0,0:0:0:0:
384,192,4423,1,0,0:0:0:0:
298,192,4510,1,0,0:0:0:0:
42,192,4510,1,0,0:0:0:0:
213,192,4597,1,0,0:0:0:0:
384,192,4685,1,0,0:0:0:0:
469,192,4685,1,0,0:0:0:0:
298,192,4772,1,0,0:0:0:0:
213,192,4859,1,0,0:0:0:0:
42,192,4859,1,0,0:0:0:0:
469,192,4946,1,0,0:0:0:0:
384,192,5033,1,0,0:0:0:0:
128,192,5033,1,0,0:0:0:0:
298,192,5121,1,0,0:0:0:0:
213,192,5208,1,0,0:0:0:0:
128,192,5295,1,0,0:0:0:0:
469,192,5382,1,0,0:0:0:0:
42,192,5382,128,0,5905:0:0:0:0:
213,192,5557,128,0,5905:0:0:0:0:
384,192,5905,1,0,0:0:0:0:
298,192,6080,1,0,0:0:0:0:
128,192,6080,1,0,0:0:0:0:
469,192,6254,128,0,6778:0:0:0:0:
298,192,6516,128,0,6778:0:0:0:0:
384,192,6516,128,0,6778:0:0:0:0:
42,192,6778,1,0,0:0:0:0:
128,192,6778,1,0,0:0:0:0:
213,192,6865,1,0,0:0:0:0:
298,192,6952,1,0,0:0:0:0:
384,192,7039,1,0,0:0:0:0:
128,192,7126,1,0,0:0:0:0:
213,192,7214,1,0,0:0:0:0:
298,192,7301,1,0,0:0:0:0:
384,192,7388,1,0,0:0:0:0:
469,192,7475,1,0,0:0:0:0:
42,192,7475,128,0,8871:0:0:0:0:
469,192,7650,1,0,0:0:0:0:
128,192,7650,1,0,0:0:0:0:
213,192,7824,1,0,0:0:0:0:
298,192,7824,128,0,8435:0:0:0:0:
384,192,8173,128,0,8435:0:0:0:0:
469,192,8173,128,0,8435:0:0:0:0:
213,192,8435,128,0,9045:0:0:0:0:
469,192,8696,128,0,9045:0:0:0:0:
384,192,8696,128,0,9045:0:0:0:0:
128,192,8871,128,0,9568:0:0:0:0:
298,192,9045,128,0,9568:0:0:0:0:
42,192,9219,128,0,9568:0:0:0:0:
384,192,9568,128,0,10092:0:0:0:0:
213,192,9568,128,0,10092:0:0:0:0:
298,192,9830,128,0,10092:0:0:0:0:
128,192,9830,128,0,10092:0:0:0:0:
469,192,10092,128,0,11661:0:0:0:0:
42,192,10092,1,0,0:0:0:0:
42,192,10266,1,0,0:0:0:0:
128,192,10266,1,0,0:0:0:0:
384,192,10440,1,0,0:0:0:0:
42,192,10440,1,0,0:0:0:0:
298,192,10615,128,0,11225:0:0:0:0:
213,192,10615,1,0,0:0:0:0:
128,192,10964,128,0,11225:0:0:0:0:
384,192,10964,128,0,11225:0:0:0:0:
42,192,11225,128,0,11661:0:0:0:0:
384,192,11487,128,0,11661:0:0:0:0:
128,192,11661,1,0,0:0:0:0:
213,192,11661,1,0,0:0:0:0:
298,192,11661,1,0,0:0:0:0:
469,192,11836,1,0,0:0:0:0:
298,192,11923,1,0,0:0:0:0:
384,192,12010,1,0,0:0:0:0:
42,192,12010,1,0,0:0:0:0:
128,192,12010,1,0,0:0:0:0:
213,192,12185,1,0,0:0:0:0:
298,192,12359,1,0,0:0:0:0:
469,192,12359,1,0,0:0:0:0:
42,192,12359,1,0,0:0:0:0:
213,192,12533,1,0,0:0:0:0:
128,192,12708,1,0,0:0:0:0:
384,192,12708,1,0,0:0:0:0:
469,192,12795,1,0,0:0:0:0:
42,192,12795,1,0,0:0:0:0:
213,192,12882,1,0,0:0:0:0:
298,192,12882,1,0,0:0:0:0:
128,192,13057,1,0,0:0:0:0:
42,192,13057,1,0,0:0:0:0:
384,192,13057,1,0,0:0:0:0:
469,192,13057,1,0,0:0:0:0:
298,192,13231,1,0,0:0:0:0:
213,192,13318,1,0,0:0:0:0:
128,192,13405,1,0,0:0:0:0:
42,192,13405,1,0,0:0:0:0:
298,192,13580,1,0,0:0:0:0:
384,192,13580,1,0,0:0:0:0:
469,192,13580,1,0,0:0:0:0:
213,192,13754,1,0,0:0:0:0:
298,192,13842,1,0,0:0:0:0:
384,192,13929,1,0,0:0:0:0:
469,192,13929,1,0,0:0:0:0:
213,192,14103,1,0,0:0:0:0:
128,192,14103,1,0,0:0:0:0:
42,192,14103,1,0,0:0:0:0:
298,192,14278,1,0,0:0:0:0:
384,192,14365,1,0,0:0:0:0:
469,192,14452,1,0,0:0:0:0:
42,192,14452,1,0,0:0:0:0:
298,192,14626,1,0,0:0:0:0:
384,192,14626,1,0,0:0:0:0:
128,192,14626,1,0,0:0:0:0:
213,192,14801,1,0,0:0:0:0:
128,192,14888,1,0,0:0:0:0:
42,192,14975,1,0,0:0:0:0:
469,192,14975,1,0,0:0:0:0:
213,192,15150,1,0,0:0:0:0:
128,192,15150,1,0,0:0:0:0:
384,192,15150,1,0,0:0:0:0:
42,192,15324,1,0,0:0:0:0:
128,192,15411,1,0,0:0:0:0:
213,192,15499,1,0,0:0:0:0:
298,192,15499,1,0,0:0:0:0:
42,192,15673,1,0,0:0:0:0:
469,192,15673,1,0,0:0:0:0:
384,192,15673,1,0,0:0:0:0:
128,192,15847,128,0,16196:0:0:0:0:
213,192,15847,1,0,0:0:0:0:
298,192,15935,1,0,0:0:0:0:
384,192,16022,1,0,0:0:0:0:
469,192,16022,1,0,0:0:0:0:
213,192,16196,128,0,16545:0:0:0:0:
298,192,16196,1,0,0:0:0:0:
42,192,16196,1,0,0:0:0:0:
469,192,16371,1,0,0:0:0:0:
384,192,16458,1,0,0:0:0:0:
298,192,16545,128,0,16894:0:0:0:0:
128,192,16545,1,0,0:0:0:0:
42,192,16719,1,0,0:0:0:0:
469,192,16719,1,0,0:0:0:0:
384,192,16894,128,0,17243:0:0:0:0:
213,192,16894,1,0,0:0:0:0:
128,192,16981,1,0,0:0:0:0:
42,192,17068,1,0,0:0:0:0:
469,192,17243,128,0,17592:0:0:0:0:
213,192,17243,1,0,0:0:0:0:
128,192,17243,1,0,0:0:0:0:
298,192,17417,1,0,0:0:0:0:
384,192,17504,1,0,0:0:0:0:
42,192,17592,128,0,17940:0:0:0:0:
128,192,17592,1,0,0:0:0:0:
213,192,17679,1,0,0:0:0:0:
298,192,17766,1,0,0:0:0:0:
384,192,17766,1,0,0:0:0:0:
469,192,17766,1,0,0:0:0:0:
469,192,17940,128,0,18289:0:0:0:0:
213,192,17940,1,0,0:0:0:0:
128,192,17940,1,0,0:0:0:0:
384,192,18028,1,0,0:0:0:0:
298,192,18115,1,0,0:0:0:0:
213,192,18202,1,0,0:0:0:0:
384,192,18289,128,0,18638:0:0:0:0:
128,192,18289,1,0,0:0:0:0:
42,192,18376,1,0,0:0:0:0:
213,192,18464,1,0,0:0:0:0:
128,192,18551,1,0,0:0:0:0:
298,192,18638,128,0,20033:0:0:0:0:
469,192,18638,1,0,0:0:0:0:
42,192,18638,1,0,0:0:0:0:
42,192,18812,1,0,0:0:0:0:
213,192,18812,1,0,0:0:0:0:
384,192,18987,1,0,0:0:0:0:
469,192,18987,1,0,0:0:0:0:
213,192,19161,1,0,0:0:0:0:
128,192,19249,1,0,0:0:0:0:
42,192,19336,1,0,0:0:0:0:
469,192,19336,1,0,0:0:0:0:
128,192,19597,1,0,0:0:0:0:
384,192,19597,1,0,0:0:0:0:
42,192,19859,1,0,0:0:0:0:
128,192,19859,1,0,0:0:0:0:
213,192,19946,1,0,0:0:0:0:
469,192,20033,128,0,20731:0:0:0:0:
42,192,20208,1,0,0:0:0:0:
384,192,20208,1,0,0:0:0:0:
128,192,20382,1,0,0:0:0:0:
213,192,20382,1,0,0:0:0:0:
298,192,20557,1,0,0:0:0:0:
384,192,20557,1,0,0:0:0:0:
213,192,20731,128,0,21167:0:0:0:0:
42,192,20731,128,0,21167:0:0:0:0:
128,192,20731,128,0,21167:0:0:0:0:
298,192,20993,128,0,21167:0:0:0:0:
384,192,20993,128,0,21167:0:0:0:0:
42,192,21254,1,0,0:0:0:0:
213,192,21254,1,0,0:0:0:0:
298,192,21254,1,0,0:0:0:0:
384,192,21254,1,0,0:0:0:0:
128,192,21254,1,0,0:0:0:0:
469,192,21603,128,0,21778:0:0:0:0:
298,192,21603,1,0,0:0:0:0:
384,192,21778,128,0,21952:0:0:0:0:
213,192,21778,1,0,0:0:0:0:
298,192,21952,128,0,22126:0:0:0:0:
128,192,21952,1,0,0:0:0:0:
213,192,22126,128,0,22301:0:0:0:0:
42,192,22126,1,0,0:0:0:0:
128,192,22301,128,0,22475:0:0:0:0:
469,192,22301,1,0,0:0:0:0:
42,192,22475,128,0,22650:0:0:0:0:
384,192,22475,1,0,0:0:0:0:
298,192,22650,1,0,0:0:0:0:
213,192,22650,1,0,0:0:0:0:
384,192,22824,1,0,0:0:0:0:
469,192,22824,1,0,0:0:0:0:
128,192,22824,1,0,0:0:0:0:
42,192,22824,1,0,0:0:0:0:
213,192,22911,1,0,0:0:0:0:
298,192,22999,1,0,0:0:0:0:
469,192,23086,1,0,0:0:0:0:
384,192,23086,1,0,0:0:0:0:
42,192,23086,1,0,0:0:0:0:
128,192,23173,1,0,0:0:0:0:
213,192,23260,1,0,0:0:0:0:
469,192,23347,1,0,0:0:0:0:
42,192,23347,1,0,0:0:0:0:
298,192,23347,1,0,0:0:0:0:
128,192,23435,1,0,0:0:0:0:
213,192,23522,1,0,0:0:0:0:
298,192,23609,1,0,0:0:0:0:
42,192,23609,1,0,0:0:0:0:
469,192,23609,1,0,0:0:0:0:
384,192,23696,1,0,0:0:0:0:
128,192,23783,1,0,0:0:0:0:
213,192,23871,1,0,0:0:0:0:
298,192,23871,1,0,0:0:0:0:
42,192,23958,1,0,0:0:0:0:
469,192,23958,1,0,0:0:0:0:
384,192,24045,1,0,0:0:0:0:
128,192,24045,1,0,0:0:0:0:
213,192,24132,1,0,0:0:0:0:
298,192,24132,1,0,0:0:0:0:
128,192,24219,1,0,0:0:0:0:
42,192,24219,1,0,0:0:0:0:
384,192,24219,1,0,0:0:0:0:
469,192,24219,128,0,24568:0:0:0:0:
213,192,24394,128,0,24568:0:0:0:0:
298,192,24568,1,0,0:0:0:0:
42,192,24568,1,0,0:0:0:0:
384,192,24568,1,0,0:0:0:0:
42,192,24743,1,0,0:0:0:0:
384,192,24743,1,0,0:0:0:0:
469,192,24743,1,0,0:0:0:0:
128,192,24743,128,0,25266:0:0:0:0:
298,192,25092,128,0,25266:0:0:0:0:
469,192,25266,1,0,0:0:0:0:
42,192,25266,1,0,0:0:0:0:
384,192,25266,1,0,0:0:0:0:
213,192,25440,1,0,0:0:0:0:
298,192,25440,1,0,0:0:0:0:
384,192,25440,128,0,25789:0:0:0:0:
128,192,25440,128,0,25789:0:0:0:0:
42,192,25789,1,0,0:0:0:0:
469,192,25789,1,0,0:0:0:0:
213,192,25964,1,0,0:0:0:0:
128,192,25964,1,0,0:0:0:0:
469,192,25964,1,0,0:0:0:0:
384,192,26138,128,0,26487:0:0:0:0:
42,192,26138,128,0,26487:0:0:0:0:
298,192,26138,1,0,0:0:0:0:
213,192,26487,1,0,0:0:0:0:
298,192,26487,1,0,0:0:0:0:
128,192,26661,1,0,0:0:0:0:
469,192,26661,1,0,0:0:0:0:
384,192,26661,1,0,0:0:0:0:
298,192,26836,1,0,0:0:0:0:
42,192,26836,1,0,0:0:0:0:
213,192,27010,1,0,0:0:0:0:
128,192,27010,1,0,0:0:0:0:
469,192,27010,1,0,0:0:0:0:
384,192,27010,128,0,27359:0:0:0:0:
42,192,27185,128,0,27359:0:0:0:0:
128,192,27359,1,0,0:0:0:0:
213,192,27359,1,0,0:0:0:0:
298,192,27359,1,0,0:0:0:0:
298,192,27533,1,0,0:0:0:0:
384,192,27533,1,0,0:0:0:0:
42,192,27533,1,0,0:0:0:0:
469,192,27533,128,0,28057:0:0:0:0:
213,192,27882,128,0,28057:0:0:0:0:
298,192,28057,1,0,0:0:0:0:
384,192,28057,1,0,0:0:0:0:
42,192,28057,1,0,0:0:0:0:
42,192,28231,1,0,0:0:0:0:
469,192,28231,1,0,0:0:0:0:
128,192,28231,128,0,28580:0:0:0:0:
384,192,28231,128,0,28580:0:0:0:0:
213,192,28580,1,0,0:0:0:0:
298,192,28580,1,0,0:0:0:0:
42,192,28754,1,0,0:0:0:0:
384,192,28754,1,0,0:0:0:0:
469,192,28754,1,0,0:0:0:0:
128,192,28929,1,0,0:0:0:0:
298,192,28929,1,0,0:0:0:0:
213,192,29103,1,0,0:0:0:0:
469,192,29103,1,0,0:0:0:0:
298,192,29278,1,0,0:0:0:0:
42,192,29278,1,0,0:0:0:0:
128,192,29452,1,0,0:0:0:0:
384,192,29452,1,0,0:0:0:0:
213,192,29452,1,0,0:0:0:0:
469,192,29626,1,0,0:0:0:0:
298,192,29626,1,0,0:0:0:0:
213,192,29714,1,0,0:0:0:0:
128,192,29801,1,0,0:0:0:0:
469,192,29801,1,0,0:0:0:0:
384,192,29801,1,0,0:0:0:0:
42,192,29801,128,0,30150:0:0:0:0:
298,192,29975,128,0,30150:0:0:0:0:
213,192,30150,1,0,0:0:0:0:
384,192,30150,1,0,0:0:0:0:
469,192,30150,1,0,0:0:0:0:
213,192,30324,1,0,0:0:0:0:
298,192,30324,1,0,0:0:0:0:
384,192,30324,1,0,0:0:0:0:
128,192,30324,128,0,30673:0:0:0:0:
298,192,30673,128,0,30847:0:0:0:0:
213,192,30847,1,0,0:0:0:0:
42,192,30847,1,0,0:0:0:0:
469,192,30935,1,0,0:0:0:0:
384,192,30935,1,0,0:0:0:0:
128,192,31022,1,0,0:0:0:0:
42,192,31022,1,0,0:0:0:0:
213,192,31196,1,0,0:0:0:0:
298,192,31196,1,0,0:0:0:0:
384,192,31196,1,0,0:0:0:0:
469,192,31196,1,0,0:0:0:0:
469,192,31371,1,0,0:0:0:0:
384,192,31545,1,0,0:0:0:0:
298,192,31545,1,0,0:0:0:0:
213,192,31545,1,0,0:0:0:0:
128,192,31545,1,0,0:0:0:0:
384,192,31719,1,0,0:0:0:0:
298,192,31894,1,0,0:0:0:0:
213,192,31894,1,0,0:0:0:0:
128,192,31894,1,0,0:0:0:0:
42,192,31894,1,0,0:0:0:0:
384,192,32068,1,0,0:0:0:0:
469,192,32068,1,0,0:0:0:0:
42,192,32155,1,0,0:0:0:0:
298,192,32155,1,0,0:0:0:0:
213,192,32243,1,0,0:0:0:0:
128,192,32243,1,0,0:0:0:0:
298,192,32417,1,0,0:0:0:0:
384,192,32417,1,0,0:0:0:0:
213,192,32592,1,0,0:0:0:0:
128,192,32592,1,0,0:0:0:0:
469,192,32592,1,0,0:0:0:0:
42,192,32592,128,0,32940:0:0:0:0:
298,192,32766,128,0,32940:0:0:0:0:
384,192,32940,1,0,0:0:0:0:
469,192,32940,1,0,0:0:0:0:
213,192,32940,1,0,0:0:0:0:
42,192,33115,1,0,0:0:0:0:
128,192,33115,1,0,0:0:0:0:
384,192,33115,1,0,0:0:0:0:
469,192,33115,128,0,33638:0:0:0:0:
213,192,33464,128,0,33638:0:0:0:0:
128,192,33638,1,0,0:0:0:0:
42,192,33638,1,0,0:0:0:0:
384,192,33638,1,0,0:0:0:0:
213,192,33812,1,0,0:0:0:0:
298,192,33812,1,0,0:0:0:0:
128,192,33987,128,0,34161:0:0:0:0:
42,192,33987,128,0,34161:0:0:0:0:
384,192,33987,128,0,34161:0:0:0:0:
469,192,33987,128,0,34161:0:0:0:0:
384,192,34249,1,0,0:0:0:0:
469,192,34249,1,0,0:0:0:0:
128,192,34249,1,0,0:0:0:0:
42,192,34249,1,0,0:0:0:0:
213,192,34423,1,0,0:0:0:0:
298,192,34423,1,0,0:0:0:0:
42,192,34510,1,0,0:0:0:0:
469,192,34510,1,0,0:0:0:0:
128,192,34597,1,0,0:0:0:0:
384,192,34597,1,0,0:0:0:0:
298,192,34685,128,0,34859:0:0:0:0:
469,192,34685,128,0,34859:0:0:0:0:
42,192,34685,128,0,34859:0:0:0:0:
213,192,34685,128,0,34859:0:0:0:0:
213,192,34946,1,0,0:0:0:0:
42,192,34946,1,0,0:0:0:0:
298,192,34946,1,0,0:0:0:0:
469,192,34946,1,0,0:0:0:0:
298,192,35121,1,0,0:0:0:0:
213,192,35121,1,0,0:0:0:0:
128,192,35208,1,0,0:0:0:0:
384,192,35208,1,0,0:0:0:0:
298,192,35295,1,0,0:0:0:0:
213,192,35295,1,0,0:0:0:0:
42,192,35382,1,0,0:0:0:0:
469,192,35382,1,0,0:0:0:0:
213,192,35557,128,0,35731:0:0:0:0:
298,192,35557,128,0,35731:0:0:0:0:
128,192,35557,128,0,35731:0:0:0:0:
384,192,35557,128,0,35731:0:0:0:0:
42,192,35731,1,0,0:0:0:0:
469,192,35731,1,0,0:0:0:0:
213,192,35818,128,0,35993:0:0:0:0:
298,192,35818,128,0,35993:0:0:0:0:
384,192,35818,128,0,35993:0:0:0:0:
128,192,35818,128,0,35993:0:0:0:0:
213,192,36080,1,0,0:0:0:0:
298,192,36080,1,0,0:0:0:0:
469,192,36080,1,0,0:0:0:0:
42,192,36080,1,0,0:0:0:0:
128,192,36254,1,0,0:0:0:0:
384,192,36254,1,0,0:0:0:0:
298,192,36342,1,0,0:0:0:0:
213,192,36342,1,0,0:0:0:0:
42,192,36429,1,0,0:0:0:0:
469,192,36429,1,0,0:0:0:0:
384,192,36516,1,0,0:0:0:0:
128,192,36516,1,0,0:0:0:0:
213,192,36603,1,0,0:0:0:0:
298,192,36603,1,0,0:0:0:0:
42,192,36778,1,0,0:0:0:0:
128,192,36778,1,0,0:0:0:0:
384,192,36778,1,0,0:0:0:0:
469,192,36778,1,0,0:0:0:0:
298,192,36952,1,0,0:0:0:0:
213,192,36952,1,0,0:0:0:0:
384,192,37039,1,0,0:0:0:0:
42,192,37126,1,0,0:0:0:0:
469,192,37126,1,0,0:0:0:0:
213,192,37214,1,0,0:0:0:0:
128,192,37301,1,0,0:0:0:0:
384,192,37301,1,0,0:0:0:0:
298,192,37388,1,0,0:0:0:0:
213,192,37388,1,0,0:0:0:0:
469,192,37475,1,0,0:0:0:0:
384,192,37562,1,0,0:0:0:0:
42,192,37650,1,0,0:0:0:0:
298,192,37650,1,0,0:0:0:0:
128,192,37737,1,0,0:0:0:0:
213,192,37824,1,0,0:0:0:0:
469,192,37824,1,0,0:0:0:0:
42,192,37999,1,0,0:0:0:0:
384,192,37999,1,0,0:0:0:0:
128,192,38086,1,0,0:0:0:0:
213,192,38173,1,0,0:0:0:0:
298,192,38260,1,0,0:0:0:0:
384,192,38347,1,0,0:0:0:0:
469,192,38347,1,0,0:0:0:0:
128,192,38347,1,0,0:0:0:0:
42,192,38522,1,0,0:0:0:0:
213,192,38522,1,0,0:0:0:0:
469,192,38522,1,0,0:0:0:0:
128,192,38696,1,0,0:0:0:0:
298,192,38696,1,0,0:0:0:0:
384,192,38696,1,0,0:0:0:0:
213,192,38783,1,0,0:0:0:0:
42,192,38871,1,0,0:0:0:0:
469,192,38871,1,0,0:0:0:0:
128,192,38871,1,0,0:0:0:0:
384,192,38958,1,0,0:0:0:0:
298,192,39045,1,0,0:0:0:0:
128,192,39045,1,0,0:0:0:0:
213,192,39132,1,0,0:0:0:0:
42,192,39219,1,0,0:0:0:0:
384,192,39219,1,0,0:0:0:0:
469,192,39219,1,0,0:0:0:0:
384,192,39394,1,0,0:0:0:0:
128,192,39394,1,0,0:0:0:0:
213,192,39394,1,0,0:0:0:0:
298,192,39568,1,0,0:0:0:0:
469,192,39568,1,0,0:0:0:0:
42,192,39568,1,0,0:0:0:0:
128,192,39568,1,0,0:0:0:0:
213,192,39743,1,0,0:0:0:0:
384,192,39743,1,0,0:0:0:0:
128,192,39830,1,0,0:0:0:0:
42,192,39917,1,0,0:0:0:0:
298,192,40004,1,0,0:0:0:0:
384,192,40092,1,0,0:0:0:0:
469,192,40092,1,0,0:0:0:0:
213,192,40179,1,0,0:0:0:0:
128,192,40266,1,0,0:0:0:0:
42,192,40266,1,0,0:0:0:0:
298,192,40353,1,0,0:0:0:0:
384,192,40440,1,0,0:0:0:0:
469,192,40440,1,0,0:0:0:0:
213,192,40528,1,0,0:0:0:0:
42,192,40528,1,0,0:0:0:0:
298,192,40615,1,0,0:0:0:0:
384,192,40702,1,0,0:0:0:0:
213,192,40789,1,0,0:0:0:0:
128,192,40789,1,0,0:0:0:0:
298,192,40964,1,0,0:0:0:0:
469,192,40964,1,0,0:0:0:0:
42,192,40964,1,0,0:0:0:0:
384,192,40964,1,0,0:0:0:0:
213,192,41138,1,0,0:0:0:0:
384,192,41138,1,0,0:0:0:0:
128,192,41138,1,0,0:0:0:0:
469,192,41225,1,0,0:0:0:0:
42,192,41225,1,0,0:0:0:0:
298,192,41312,1,0,0:0:0:0:
384,192,41400,1,0,0:0:0:0:
128,192,41487,1,0,0:0:0:0:
469,192,41487,1,0,0:0:0:0:
213,192,41574,1,0,0:0:0:0:
42,192,41661,1,0,0:0:0:0:
128,192,41749,1,0,0:0:0:0:
298,192,41836,1,0,0:0:0:0:
469,192,41836,1,0,0:0:0:0:
384,192,41836,1,0,0:0:0:0:
213,192,42010,1,0,0:0:0:0:
42,192,42010,1,0,0:0:0:0:
469,192,42010,1,0,0:0:0:0:
128,192,42185,1,0,0:0:0:0:
298,192,42185,1,0,0:0:0:0:
384,192,42185,1,0,0:0:0:0:
213,192,42359,1,0,0:0:0:0:
42,192,42359,1,0,0:0:0:0:
298,192,42359,1,0,0:0:0:0:
469,192,42359,1,0,0:0:0:0:
128,192,42533,1,0,0:0:0:0:
384,192,42533,1,0,0:0:0:0:
213,192,42621,1,0,0:0:0:0:
128,192,42708,1,0,0:0:0:0:
42,192,42708,1,0,0:0:0:0:
298,192,42708,1,0,0:0:0:0:
384,192,42795,1,0,0:0:0:0:
469,192,42882,1,0,0:0:0:0:
213,192,42882,1,0,0:0:0:0:
128,192,42969,1,0,0:0:0:0:
298,192,43057,1,0,0:0:0:0:
384,192,43057,1,0,0:0:0:0:
42,192,43057,1,0,0:0:0:0:
213,192,43144,1,0,0:0:0:0:
469,192,43231,1,0,0:0:0:0:
128,192,43231,1,0,0:0:0:0:
298,192,43318,1,0,0:0:0:0:
384,192,43405,1,0,0:0:0:0:
469,192,43405,1,0,0:0:0:0:
42,192,43405,1,0,0:0:0:0:
128,192,43580,1,0,0:0:0:0:
213,192,43580,1,0,0:0:0:0:
384,192,43580,1,0,0:0:0:0:
298,192,43667,1,0,0:0:0:0:
42,192,43754,1,0,0:0:0:0:
469,192,43754,1,0,0:0:0:0:
128,192,43842,1,0,0:0:0:0:
213,192,43929,1,0,0:0:0:0:
384,192,43929,1,0,0:0:0:0:
298,192,43929,1,0,0:0:0:0:
128,192,44103,1,0,0:0:0:0:
42,192,44103,1,0,0:0:0:0:
469,192,44103,1,0,0:0:0:0:
213,192,44190,1,0,0:0:0:0:
384,192,44278,1,0,0:0:0:0:
469,192,44278,1,0,0:0:0:0:
298,192,44365,1,0,0:0:0:0:
213,192,44452,1,0,0:0:0:0:
42,192,44452,1,0,0:0:0:0:
384,192,44452,1,0,0:0:0:0:
128,192,44539,1,0,0:0:0:0:
298,192,44626,1,0,0:0:0:0:
469,192,44626,1,0,0:0:0:0:
298,192,44801,1,0,0:0:0:0:
469,192,44801,1,0,0:0:0:0:
42,192,44801,1,0,0:0:0:0:
128,192,44888,1,0,0:0:0:0:
213,192,44975,1,0,0:0:0:0:
298,192,45062,1,0,0:0:0:0:
128,192,45150,1,0,0:0:0:0:
42,192,45150,1,0,0:0:0:0:
384,192,45150,1,0,0:0:0:0:
469,192,45150,1,0,0:0:0:0:
298,192,45237,1,0,0:0:0:0:
213,192,45237,1,0,0:0:0:0:
128,192,45411,1,0,0:0:0:0:
213,192,45411,1,0,0:0:0:0:
298,192,45411,1,0,0:0:0:0:
384,192,45411,1,0,0:0:0:0:
42,192,45673,1,0,0:0:0:0:
469,192,45673,1,0,0:0:0:0:
384,192,45847,1,0,0:0:0:0:
469,192,45847,1,0,0:0:0:0:
128,192,45847,1,0,0:0:0:0:
42,192,45847,1,0,0:0:0:0:
298,192,45935,1,0,0:0:0:0:
213,192,45935,1,0,0:0:0:0:
213,192,46109,1,0,0:0:0:0:
298,192,46109,1,0,0:0:0:0:
384,192,46109,1,0,0:0:0:0:
128,192,46109,1,0,0:0:0:0:
42,192,46371,1,0,0:0:0:0:
469,192,46371,1,0,0:0:0:0:
42,192,46545,1,0,0:0:0:0:
213,192,46545,1,0,0:0:0:0:
298,192,46545,1,0,0:0:0:0:
469,192,46545,1,0,0:0:0:0:
128,192,46719,1,0,0:0:0:0:
384,192,46719,1,0,0:0:0:0:
298,192,46894,1,0,0:0:0:0:
213,192,46894,1,0,0:0:0:0:
42,192,46894,128,0,47243:0:0:0:0:
469,192,46894,128,0,47243:0:0:0:0:
128,192,47243,1,0,0:0:0:0:
213,192,47243,1,0,0:0:0:0:
384,192,47243,1,0,0:0:0:0:
298,192,47243,1,0,0:0:0:0:
42,192,47417,1,0,0:0:0:0:
469,192,47417,1,0,0:0:0:0:
128,192,47504,1,0,0:0:0:0:
384,192,47504,1,0,0:0:0:0:
298,192,47592,1,0,0:0:0:0:
213,192,47592,1,0,0:0:0:0:
384,192,47679,1,0,0:0:0:0:
128,192,47679,1,0,0:0:0:0:
469,192,47766,1,0,0:0:0:0:
42,192,47766,1,0,0:0:0:0:
213,192,47853,1,0,0:0:0:0:
298,192,47853,1,0,0:0:0:0:
128,192,47940,1,0,0:0:0:0:
42,192,47940,1,0,0:0:0:0:
384,192,47940,1,0,0:0:0:0:
469,192,47940,1,0,0:0:0:0:
298,192,48115,1,0,0:0:0:0:
213,192,48115,1,0,0:0:0:0:
128,192,48202,1,0,0:0:0:0:
469,192,48289,1,0,0:0:0:0:
384,192,48289,1,0,0:0:0:0:
42,192,48289,1,0,0:0:0:0:
213,192,48376,1,0,0:0:0:0:
128,192,48464,1,0,0:0:0:0:
298,192,48464,1,0,0:0:0:0:
469,192,48551,1,0,0:0:0:0:
42,192,48551,1,0,0:0:0:0:
384,192,48551,1,0,0:0:0:0:
213,192,48638,1,0,0:0:0:0:
298,192,48725,1,0,0:0:0:0:
384,192,48812,1,0,0:0:0:0:
128,192,48812,1,0,0:0:0:0:
213,192,48900,1,0,0:0:0:0:
42,192,48987,1,0,0:0:0:0:
469,192,48987,1,0,0:0:0:0:
298,192,49074,1,0,0:0:0:0:
384,192,49161,1,0,0:0:0:0:
213,192,49161,1,0,0:0:0:0:
128,192,49161,1,0,0:0:0:0:
42,192,49249,1,0,0:0:0:0:
298,192,49249,1,0,0:0:0:0:
213,192,49336,1,0,0:0:0:0:
469,192,49336,1,0,0:0:0:0:
384,192,49510,1,0,0:0:0:0:
128,192,49510,1,0,0:0:0:0:
42,192,49510,1,0,0:0:0:0:
128,192,49685,1,0,0:0:0:0:
298,192,49685,1,0,0:0:0:0:
469,192,49685,1,0,0:0:0:0:
384,192,49859,1,0,0:0:0:0:
213,192,49859,1,0,0:0:0:0:
42,192,49859,1,0,0:0:0:0:
384,192,50033,1,0,0:0:0:0:
469,192,50033,1,0,0:0:0:0:
128,192,50033,1,0,0:0:0:0:
213,192,50121,1,0,0:0:0:0:
298,192,50208,1,0,0:0:0:0:
42,192,50208,1,0,0:0:0:0:
384,192,50295,1,0,0:0:0:0:
469,192,50382,1,0,0:0:0:0:
213,192,50382,1,0,0:0:0:0:
384,192,50469,1,0,0:0:0:0:
128,192,50469,1,0,0:0:0:0:
298,192,50557,1,0,0:0:0:0:
42,192,50557,1,0,0:0:0:0:
213,192,50644,1,0,0:0:0:0:
384,192,50731,1,0,0:0:0:0:
469,192,50731,1,0,0:0:0:0:
128,192,50731,1,0,0:0:0:0:
42,192,50731,1,0,0:0:0:0:
128,192,50993,1,0,0:0:0:0:
213,192,50993,1,0,0:0:0:0:
298,192,50993,1,0,0:0:0:0:
384,192,50993,1,0,0:0:0:0:
469,192,51254,1,0,0:0:0:0:
42,192,51254,1,0,0:0:0:0:
128,192,51254,1,0,0:0:0:0:
384,192,51254,1,0,0:0:0:0:
298,192,51429,1,0,0:0:0:0:
469,192,51429,1,0,0:0:0:0:
42,192,51429,1,0,0:0:0:0:
213,192,51429,1,0,0:0:0:0:
384,192,51690,1,0,0:0:0:0:
128,192,51690,1,0,0:0:0:0:
42,192,51952,1,0,0:0:0:0:
469,192,51952,1,0,0:0:0:0:
128,192,52126,1,0,0:0:0:0:
384,192,52126,1,0,0:0:0:0:
213,192,52126,128,0,52475:0:0:0:0:
298,192,52126,128,0,52475:0:0:0:0:
384,192,52475,128,0,52824:0:0:0:0:
469,192,52475,128,0,52824:0:0:0:0:
42,192,52475,1,0,0:0:0:0:
298,192,52824,1,0,0:0:0:0:
213,192,52824,1,0,0:0:0:0:
42,192,52824,1,0,0:0:0:0:
128,192,52824,1,0,0:0:0:0:
384,192,52911,1,0,0:0:0:0:
469,192,52911,1,0,0:0:0:0:
42,192,52999,1,0,0:0:0:0:
128,192,52999,1,0,0:0:0:0:
213,192,53086,1,0,0:0:0:0:
298,192,53086,1,0,0:0:0:0:
384,192,53173,1,0,0:0:0:0:
469,192,53173,1,0,0:0:0:0:
42,192,53173,1,0,0:0:0:0:
213,192,53260,1,0,0:0:0:0:
128,192,53260,1,0,0:0:0:0:
298,192,53347,1,0,0:0:0:0:
384,192,53347,1,0,0:0:0:0:
42,192,53435,1,0,0:0:0:0:
469,192,53435,1,0,0:0:0:0:
128,192,53522,1,0,0:0:0:0:
298,192,53522,1,0,0:0:0:0:
384,192,53522,1,0,0:0:0:0:
213,192,53522,1,0,0:0:0:0:
42,192,53696,1,0,0:0:0:0:
469,192,53696,1,0,0:0:0:0:
384,192,53783,1,0,0:0:0:0:
298,192,53871,1,0,0:0:0:0:
128,192,53871,1,0,0:0:0:0:
213,192,53958,1,0,0:0:0:0:
469,192,54045,1,0,0:0:0:0:
42,192,54045,1,0,0:0:0:0:
384,192,54132,1,0,0:0:0:0:
298,192,54219,1,0,0:0:0:0:
128,192,54219,1,0,0:0:0:0:
213,192,54307,1,0,0:0:0:0:
42,192,54394,1,0,0:0:0:0:
384,192,54394,1,0,0:0:0:0:
469,192,54394,1,0,0:0:0:0:
469,192,54568,1,0,0:0:0:0:
213,192,54568,1,0,0:0:0:0:
42,192,54568,1,0,0:0:0:0:
128,192,54743,1,0,0:0:0:0:
298,192,54743,1,0,0:0:0:0:
384,192,54743,1,0,0:0:0:0:
128,192,54917,1,0,0:0:0:0:
384,192,54917,1,0,0:0:0:0:
213,192,54917,1,0,0:0:0:0:
42,192,55092,1,0,0:0:0:0:
469,192,55092,1,0,0:0:0:0:
128,192,55179,1,0,0:0:0:0:
213,192,55266,1,0,0:0:0:0:
384,192,55266,1,0,0:0:0:0:
469,192,55266,1,0,0:0:0:0:
298,192,55353,1,0,0:0:0:0:
42,192,55440,1,0,0:0:0:0:
128,192,55440,1,0,0:0:0:0:
469,192,55528,1,0,0:0:0:0:
384,192,55615,1,0,0:0:0:0:
213,192,55615,1,0,0:0:0:0:
42,192,55615,1,0,0:0:0:0:
128,192,55789,1,0,0:0:0:0:
298,192,55789,1,0,0:0:0:0:
384,192,55876,1,0,0:0:0:0:
469,192,55964,1,0,0:0:0:0:
213,192,55964,1,0,0:0:0:0:
42,192,55964,1,0,0:0:0:0:
298,192,56051,1,0,0:0:0:0:
384,192,56138,1,0,0:0:0:0:
128,192,56225,1,0,0:0:0:0:
213,192,56312,1,0,0:0:0:0:
298,192,56312,1,0,0:0:0:0:
469,192,56312,1,0,0:0:0:0:
42,192,56312,1,0,0:0:0:0:
128,192,56487,1,0,0:0:0:0:
384,192,56487,1,0,0:0:0:0:
298,192,56574,1,0,0:0:0:0:
469,192,56574,1,0,0:0:0:0:
42,192,56574,1,0,0:0:0:0:
213,192,56661,1,0,0:0:0:0:
128,192,56749,1,0,0:0:0:0:
42,192,56836,1,0,0:0:0:0:
384,192,56836,1,0,0:0:0:0:
298,192,56923,1,0,0:0:0:0:
213,192,57010,1,0,0:0:0:0:
469,192,57010,1,0,0:0:0:0:
128,192,57097,1,0,0:0:0:0:
42,192,57185,1,0,0:0:0:0:
384,192,57185,1,0,0:0:0:0:
213,192,57272,1,0,0:0:0:0:
298,192,57359,1,0,0:0:0:0:
469,192,57359,1,0,0:0:0:0:
42,192,57446,1,0,0:0:0:0:
128,192,57533,1,0,0:0:0:0:
384,192,57533,1,0,0:0:0:0:
213,192,57621,1,0,0:0:0:0:
298,192,57708,1,0,0:0:0:0:
469,192,57708,1,0,0:0:0:0:
213,192,57795,1,0,0:0:0:0:
42,192,57795,1,0,0:0:0:0:
298,192,57882,1,0,0:0:0:0:
469,192,57882,1,0,0:0:0:0:
213,192,57969,1,0,0:0:0:0:
42,192,57969,1,0,0:0:0:0:
469,192,58057,1,0,0:0:0:0:
384,192,58057,1,0,0:0:0:0:
128,192,58144,1,0,0:0:0:0:
42,192,58144,1,0,0:0:0:0:
213,192,58231,1,0,0:0:0:0:
298,192,58231,1,0,0:0:0:0:
384,192,58318,1,0,0:0:0:0:
469,192,58318,1,0,0:0:0:0:
213,192,58405,1,0,0:0:0:0:
128,192,58405,1,0,0:0:0:0:
42,192,58405,1,0,0:0:0:0:
298,192,58493,1,0,0:0:0:0:
469,192,58493,1,0,0:0:0:0:
42,192,58580,1,0,0:0:0:0:
128,192,58580,1,0,0:0:0:0:
298,192,58667,1,0,0:0:0:0:
469,192,58667,1,0,0:0:0:0:
213,192,58754,1,0,0:0:0:0:
128,192,58754,1,0,0:0:0:0:
42,192,58754,1,0,0:0:0:0:
298,192,58842,1,0,0:0:0:0:
384,192,58842,1,0,0:0:0:0:
469,192,58842,1,0,0:0:0:0:
213,192,58929,1,0,0:0:0:0:
128,192,58929,1,0,0:0:0:0:
213,192,59103,1,0,0:0:0:0:
469,192,59103,1,0,0:0:0:0:
298,192,59103,1,0,0:0:0:0:
42,192,59103,128,0,59452:0:0:0:0:
384,192,59278,1,0,0:0:0:0:
128,192,59278,1,0,0:0:0:0:
213,192,59452,1,0,0:0:0:0:
469,192,59452,1,0,0:0:0:0:
298,192,59452,1,0,0:0:0:0:
384,192,59626,1,0,0:0:0:0:
128,192,59626,128,0,59975:0:0:0:0:
384,192,59801,1,0,0:0:0:0:
42,192,59801,1,0,0:0:0:0:
213,192,59975,1,0,0:0:0:0:
469,192,59975,1,0,0:0:0:0:
298,192,60150,1,0,0:0:0:0:
384,192,60150,1,0,0:0:0:0:
42,192,60150,1,0,0:0:0:0:
213,192,60324,128,0,60673:0:0:0:0:
128,192,60324,1,0,0:0:0:0:
298,192,60499,1,0,0:0:0:0:
469,192,60499,1,0,0:0:0:0:
128,192,60673,1,0,0:0:0:0:
42,192,60673,1,0,0:0:0:0:
298,192,60847,1,0,0:0:0:0:
384,192,60847,1,0,0:0:0:0:
469,192,60847,1,0,0:0:0:0:
42,192,61022,128,0,61371:0:0:0:0:
213,192,61022,1,0,0:0:0:0:
128,192,61196,1,0,0:0:0:0:
384,192,61196,1,0,0:0:0:0:
469,192,61371,1,0,0:0:0:0:
213,192,61371,128,0,61458:0:0:0:0:
298,192,61545,128,0,61632:0:0:0:0:
42,192,61545,1,0,0:0:0:0:
469,192,61545,1,0,0:0:0:0:
384,192,61719,128,0,61807:0:0:0:0:
128,192,61719,1,0,0:0:0:0:
213,192,61894,1,0,0:0:0:0:
469,192,61894,128,0,62243:0:0:0:0:
42,192,61894,1,0,0:0:0:0:
298,192,61894,128,0,62068:0:0:0:0:
384,192,62068,1,0,0:0:0:0:
128,192,62068,128,0,62243:0:0:0:0:
298,192,62243,1,0,0:0:0:0:
42,192,62243,1,0,0:0:0:0:
213,192,62243,128,0,62417:0:0:0:0:
384,192,62417,128,0,62766:0:0:0:0:
469,192,62417,1,0,0:0:0:0:
128,192,62592,1,0,0:0:0:0:
42,192,62592,1,0,0:0:0:0:
213,192,62766,1,0,0:0:0:0:
298,192,62766,1,0,0:0:0:0:
128,192,62940,1,0,0:0:0:0:
42,192,62940,1,0,0:0:0:0:
469,192,62940,128,0,63115:0:0:0:0:
298,192,63115,128,0,63464:0:0:0:0:
384,192,63115,128,0,63289:0:0:0:0:
213,192,63115,1,0,0:0:0:0:
128,192,63289,1,0,0:0:0:0:
42,192,63289,1,0,0:0:0:0:
469,192,63464,1,0,0:0:0:0:
213,192,63464,128,0,63638:0:0:0:0:
298,192,63638,1,0,0:0:0:0:
42,192,63638,1,0,0:0:0:0:
384,192,63638,128,0,63812:0:0:0:0:
128,192,63812,1,0,0:0:0:0:
469,192,63812,128,0,64161:0:0:0:0:
42,192,63812,1,0,0:0:0:0:
298,192,63987,128,0,64336:0:0:0:0:
128,192,63987,1,0,0:0:0:0:
42,192,64161,128,0,64510:0:0:0:0:
213,192,64161,1,0,0:0:0:0:
128,192,64336,128,0,64685:0:0:0:0:
384,192,64336,1,0,0:0:0:0:
469,192,64336,1,0,0:0:0:0:
213,192,64510,128,0,64685:0:0:0:0:
298,192,64510,1,0,0:0:0:0:
298,192,64685,1,0,0:0:0:0:
384,192,64685,1,0,0:0:0:0:
469,192,64685,1,0,0:0:0:0:
42,192,64685,1,0,0:0:0:0:
128,192,64859,1,0,0:0:0:0:
384,192,64859,1,0,0:0:0:0:
213,192,65033,1,0,0:0:0:0:
298,192,65033,1,0,0:0:0:0:
469,192,65033,1,0,0:0:0:0:
42,192,65208,128,0,65557:0:0:0:0:
128,192,65208,1,0,0:0:0:0:
469,192,65382,1,0,0:0:0:0:
384,192,65382,1,0,0:0:0:0:
128,192,65557,1,0,0:0:0:0:
298,192,65557,1,0,0:0:0:0:
213,192,65731,1,0,0:0:0:0:
384,192,65731,1,0,0:0:0:0:
42,192,65731,1,0,0:0:0:0:
298,192,65905,1,0,0:0:0:0:
469,192,65905,128,0,66254:0:0:0:0:
213,192,66080,1,0,0:0:0:0:
42,192,66080,1,0,0:0:0:0:
128,192,66254,1,0,0:0:0:0:
384,192,66254,1,0,0:0:0:0:
298,192,66429,1,0,0:0:0:0:
42,192,66429,1,0,0:0:0:0:
213,192,66429,1,0,0:0:0:0:
128,192,66603,1,0,0:0:0:0:
469,192,66603,128,0,66952:0:0:0:0:
384,192,66778,1,0,0:0:0:0:
213,192,66778,1,0,0:0:0:0:
298,192,66952,1,0,0:0:0:0:
42,192,66952,1,0,0:0:0:0:
128,192,67126,1,0,0:0:0:0:
213,192,67126,1,0,0:0:0:0:
384,192,67126,1,0,0:0:0:0:
298,192,67301,1,0,0:0:0:0:
469,192,67301,1,0,0:0:0:0:
213,192,67388,1,0,0:0:0:0:
384,192,67475,1,0,0:0:0:0:
128,192,67475,1,0,0:0:0:0:
42,192,67475,1,0,0:0:0:0:
469,192,67475,1,0,0:0:0:0:
42,192,67650,1,0,0:0:0:0:
384,192,67650,1,0,0:0:0:0:
42,192,67824,1,0,0:0:0:0:
384,192,67824,1,0,0:0:0:0:
213,192,67824,1,0,0:0:0:0:
128,192,67999,1,0,0:0:0:0:
469,192,67999,1,0,0:0:0:0:
384,192,68173,1,0,0:0:0:0:
298,192,68173,1,0,0:0:0:0:
213,192,68347,1,0,0:0:0:0:
42,192,68347,1,0,0:0:0:0:
128,192,68522,1,0,0:0:0:0:
298,192,68522,1,0,0:0:0:0:
469,192,68522,1,0,0:0:0:0:
213,192,68696,128,0,69045:0:0:0:0:
384,192,68696,1,0,0:0:0:0:
42,192,68696,1,0,0:0:0:0:
128,192,69045,1,0,0:0:0:0:
469,192,69045,128,0,69132:0:0:0:0:
42,192,69219,1,0,0:0:0:0:
298,192,69219,128,0,69307:0:0:0:0:
213,192,69219,1,0,0:0:0:0:
384,192,69394,1,0,0:0:0:0:
128,192,69394,128,0,69655:0:0:0:0:
298,192,69655,1,0,0:0:0:0:
42,192,69655,1,0,0:0:0:0:
384,192,69743,1,0,0:0:0:0:
128,192,69743,1,0,0:0:0:0:
469,192,69830,1,0,0:0:0:0:
213,192,69830,1,0,0:0:0:0:
384,192,69917,1,0,0:0:0:0:
42,192,69917,1,0,0:0:0:0:
128,192,69917,1,0,0:0:0:0:
213,192,70004,1,0,0:0:0:0:
469,192,70004,1,0,0:0:0:0:
298,192,70092,1,0,0:0:0:0:
42,192,70092,1,0,0:0:0:0:
128,192,70179,1,0,0:0:0:0:
384,192,70179,1,0,0:0:0:0:
213,192,70266,128,0,70615:0:0:0:0:
469,192,70266,128,0,70615:0:0:0:0:
128,192,70615,1,0,0:0:0:0:
42,192,70615,1,0,0:0:0:0:
384,192,70615,1,0,0:0:0:0:
384,192,70964,1,0,0:0:0:0:
213,192,70964,1,0,0:0:0:0:
42,192,70964,1,0,0:0:0:0:
298,192,71225,1,0,0:0:0:0:
469,192,71225,1,0,0:0:0:0:
298,192,71312,1,0,0:0:0:0:
469,192,71312,1,0,0:0:0:0:
213,192,71487,1,0,0:0:0:0:
42,192,71487,1,0,0:0:0:0:
298,192,71487,1,0,0:0:0:0:
384,192,71487,1,0,0:0:0:0:
128,192,71749,1,0,0:0:0:0:
469,192,71749,1,0,0:0:0:0:
384,192,71836,1,0,0:0:0:0:
42,192,71836,1,0,0:0:0:0:
213,192,71836,1,0,0:0:0:0:
298,192,71923,1,0,0:0:0:0:
128,192,71923,1,0,0:0:0:0:
213,192,72010,1,0,0:0:0:0:
384,192,72010,1,0,0:0:0:0:
469,192,72010,1,0,0:0:0:0:
298,192,72097,1,0,0:0:0:0:
42,192,72097,1,0,0:0:0:0:
128,192,72185,1,0,0:0:0:0:
384,192,72185,1,0,0:0:0:0:
213,192,72185,1,0,0:0:0:0:
469,192,72185,1,0,0:0:0:0:
298,192,72272,1,0,0:0:0:0:
42,192,72272,1,0,0:0:0:0:
213,192,72359,1,0,0:0:0:0:
469,192,72359,1,0,0:0:0:0:
384,192,72446,1,0,0:0:0:0:
128,192,72446,1,0,0:0:0:0:
298,192,72533,1,0,0:0:0:0:
42,192,72533,1,0,0:0:0:0:
213,192,72621,1,0,0:0:0:0:
469,192,72621,1,0,0:0:0:0:
384,192,72708,1,0,0:0:0:0:
128,192,72708,1,0,0:0:0:0:
298,192,72708,1,0,0:0:0:0:
213,192,72795,1,0,0:0:0:0:
42,192,72795,1,0,0:0:0:0:
469,192,72882,1,0,0:0:0:0:
128,192,72882,1,0,0:0:0:0:
384,192,72969,1,0,0:0:0:0:
213,192,72969,1,0,0:0:0:0:
128,192,73057,1,0,0:0:0:0:
298,192,73057,1,0,0:0:0:0:
42,192,73057,1,0,0:0:0:0:
469,192,73057,1,0,0:0:0:0:
213,192,73144,1,0,0:0:0:0:
384,192,73144,1,0,0:0:0:0:
128,192,73231,1,0,0:0:0:0:
469,192,73231,1,0,0:0:0:0:
42,192,73318,1,0,0:0:0:0:
298,192,73318,1,0,0:0:0:0:
384,192,73405,1,0,0:0:0:0:
213,192,73405,1,0,0:0:0:0:
128,192,73405,1,0,0:0:0:0:
469,192,73493,1,0,0:0:0:0:
42,192,73493,1,0,0:0:0:0:
298,192,73580,1,0,0:0:0:0:
128,192,73580,1,0,0:0:0:0:
213,192,73580,1,0,0:0:0:0:
384,192,73580,1,0,0:0:0:0:
42,192,73667,1,0,0:0:0:0:
469,192,73667,1,0,0:0:0:0:
128,192,73754,1,0,0:0:0:0:
298,192,73754,1,0,0:0:0:0:
213,192,73842,1,0,0:0:0:0:
384,192,73842,1,0,0:0:0:0:
469,192,73929,1,0,0:0:0:0:
128,192,73929,1,0,0:0:0:0:
42,192,74016,1,0,0:0:0:0:
298,192,74016,1,0,0:0:0:0:
384,192,74103,1,0,0:0:0:0:
213,192,74103,1,0,0:0:0:0:
128,192,74103,1,0,0:0:0:0:
298,192,74278,1,0,0:0:0:0:
213,192,74278,1,0,0:0:0:0:
42,192,74278,128,0,74626:0:0:0:0:
469,192,74278,128,0,74626:0:0:0:0:
213,192,74626,1,0,0:0:0:0:
298,192,74626,1,0,0:0:0:0:
42,192,74801,1,0,0:0:0:0:
469,192,74801,1,0,0:0:0:0:
384,192,74801,1,0,0:0:0:0:
128,192,74801,1,0,0:0:0:0:
384,192,74975,1,0,0:0:0:0:
128,192,74975,1,0,0:0:0:0:
298,192,74975,128,0,75237:0:0:0:0:
213,192,74975,128,0,75237:0:0:0:0:
42,192,75237,1,0,0:0:0:0:
384,192,75237,1,0,0:0:0:0:
128,192,75324,1,0,0:0:0:0:
469,192,75324,1,0,0:0:0:0:
213,192,75411,1,0,0:0:0:0:
384,192,75411,1,0,0:0:0:0:
298,192,75499,1,0,0:0:0:0:
42,192,75499,1,0,0:0:0:0:
128,192,75586,1,0,0:0:0:0:
384,192,75586,1,0,0:0:0:0:
213,192,75673,1,0,0:0:0:0:
469,192,75673,1,0,0:0:0:0:
42,192,75760,1,0,0:0:0:0:
298,192,75760,1,0,0:0:0:0:
128,192,75847,1,0,0:0:0:0:
213,192,75847,1,0,0:0:0:0:
384,192,75847,1,0,0:0:0:0:
469,192,75847,1,0,0:0:0:0:
469,192,76022,1,0,0:0:0:0:
42,192,76022,1,0,0:0:0:0:
213,192,76109,1,0,0:0:0:0:
298,192,76109,1,0,0:0:0:0:
128,192,76196,1,0,0:0:0:0:
384,192,76196,1,0,0:0:0:0:
42,192,76196,1,0,0:0:0:0:
213,192,76283,1,0,0:0:0:0:
469,192,76283,1,0,0:0:0:0:
298,192,76371,1,0,0:0:0:0:
42,192,76371,1,0,0:0:0:0:
128,192,76371,1,0,0:0:0:0:
384,192,76371,1,0,0:0:0:0:
213,192,76545,1,0,0:0:0:0:
469,192,76545,1,0,0:0:0:0:
384,192,76632,1,0,0:0:0:0:
128,192,76632,1,0,0:0:0:0:
213,192,76719,1,0,0:0:0:0:
298,192,76807,1,0,0:0:0:0:
42,192,76807,1,0,0:0:0:0:
128,192,76894,1,0,0:0:0:0:
384,192,76894,1,0,0:0:0:0:
213,192,76894,1,0,0:0:0:0:
298,192,77068,1,0,0:0:0:0:
384,192,77068,1,0,0:0:0:0:
128,192,77068,1,0,0:0:0:0:
42,192,77068,1,0,0:0:0:0:
213,192,77155,1,0,0:0:0:0:
469,192,77155,1,0,0:0:0:0:
128,192,77330,1,0,0:0:0:0:
384,192,77330,1,0,0:0:0:0:
298,192,77417,1,0,0:0:0:0:
42,192,77417,1,0,0:0:0:0:
213,192,77504,1,0,0:0:0:0:
469,192,77504,1,0,0:0:0:0:
384,192,77592,1,0,0:0:0:0:
128,192,77592,1,0,0:0:0:0:
298,192,77592,1,0,0:0:0:0:
42,192,77679,1,0,0:0:0:0:
469,192,77679,1,0,0:0:0:0:
128,192,77766,1,0,0:0:0:0:
213,192,77766,1,0,0:0:0:0:
298,192,77766,1,0,0:0:0:0:
384,192,77766,1,0,0:0:0:0:
42,192,77853,1,0,0:0:0:0:
469,192,77853,1,0,0:0:0:0:
128,192,77940,1,0,0:0:0:0:
384,192,77940,1,0,0:0:0:0:
213,192,78028,1,0,0:0:0:0:
298,192,78028,1,0,0:0:0:0:
128,192,78115,1,0,0:0:0:0:
469,192,78115,1,0,0:0:0:0:
384,192,78202,1,0,0:0:0:0:
42,192,78202,1,0,0:0:0:0:
213,192,78289,1,0,0:0:0:0:
469,192,78289,1,0,0:0:0:0:
42,192,78376,1,0,0:0:0:0:
298,192,78376,1,0,0:0:0:0:
128,192,78464,1,0,0:0:0:0:
384,192,78464,1,0,0:0:0:0:
213,192,78551,1,0,0:0:0:0:
469,192,78551,1,0,0:0:0:0:
42,192,78638,1,0,0:0:0:0:
298,192,78638,1,0,0:0:0:0:
384,192,78638,1,0,0:0:0:0:
128,192,78812,1,0,0:0:0:0:
213,192,78812,1,0,0:0:0:0:
298,192,78900,1,0,0:0:0:0:
384,192,78900,1,0,0:0:0:0:
213,192,78987,1,0,0:0:0:0:
128,192,78987,1,0,0:0:0:0:
298,192,79074,1,0,0:0:0:0:
384,192,79074,1,0,0:0:0:0:
213,192,79161,1,0,0:0:0:0:
128,192,79161,1,0,0:0:0:0:
298,192,79249,1,0,0:0:0:0:
384,192,79249,1,0,0:0:0:0:
128,192,79336,1,0,0:0:0:0:
42,192,79336,1,0,0:0:0:0:
384,192,79423,1,0,0:0:0:0:
469,192,79423,1,0,0:0:0:0:
128,192,79510,1,0,0:0:0:0:
42,192,79510,1,0,0:0:0:0:
384,192,79597,1,0,0:0:0:0:
469,192,79597,1,0,0:0:0:0:
213,192,79685,1,0,0:0:0:0:
42,192,79685,1,0,0:0:0:0:
298,192,79772,1,0,0:0:0:0:
469,192,79772,1,0,0:0:0:0:
213,192,79859,1,0,0:0:0:0:
42,192,79859,1,0,0:0:0:0:
128,192,79859,128,0,80121:0:0:0:0:
384,192,79859,128,0,80121:0:0:0:0:
298,192,80208,128,0,80469:0:0:0:0:
469,192,80208,128,0,80469:0:0:0:0:
213,192,80557,128,0,80818:0:0:0:0:
42,192,80557,128,0,80818:0:0:0:0:
384,192,80905,128,0,81167:0:0:0:0:
128,192,80905,128,0,81167:0:0:0:0:
469,192,81254,1,0,0:0:0:0:
298,192,81342,1,0,0:0:0:0:
213,192,81429,5,0,0:0:0:0:
128,192,81429,1,0,0:0:0:0:
42,192,81429,1,0,0:0:0:0:
298,192,81545,1,0,0:0:0:0:
384,192,81545,1,0,0:0:0:0:
469,192,81545,1,0,0:0:0:0:
298,192,81661,1,0,0:0:0:0:
384,192,81661,1,0,0:0:0:0:
469,192,81661,1,0,0:0:0:0:
42,192,81778,1,0,0:0:0:0:
128,192,81778,1,0,0:0:0:0:
213,192,81778,1,0,0:0:0:0:
42,192,81894,1,0,0:0:0:0:
128,192,81894,1,0,0:0:0:0:
213,192,81894,1,0,0:0:0:0:
298,192,82010,1,0,0:0:0:0:
384,192,82010,1,0,0:0:0:0:
469,192,82010,1,0,0:0:0:0:
298,192,82126,1,0,0:0:0:0:
384,192,82126,1,0,0:0:0:0:
469,192,82126,1,0,0:0:0:0:
42,192,82243,1,0,0:0:0:0:
128,192,82243,1,0,0:0:0:0:
213,192,82243,1,0,0:0:0:0:
42,192,82359,1,0,0:0:0:0:
128,192,82359,1,0,0:0:0:0:
213,192,82359,1,0,0:0:0:0:
298,192,82475,1,0,0:0:0:0:
384,192,82475,1,0,0:0:0:0:
469,192,82475,1,0,0:0:0:0:
298,192,82592,1,0,0:0:0:0:
469,192,82592,1,0,0:0:0:0:
384,192,82592,1,0,0:0:0:0:
42,192,82708,1,0,0:0:0:0:
128,192,82708,1,0,0:0:0:0:
213,192,82708,1,0,0:0:0:0:
42,192,82824,1,0,0:0:0:0:
128,192,82824,1,0,0:0:0:0:
213,192,82824,1,0,0:0:0:0:
298,192,82824,1,0,0:0:0:0:
384,192,82824,1,0,0:0:0:0:
469,192,82824,1,0,0:0:0:0:
128,192,82999,1,0,0:0:0:0:
384,192,82999,1,0,0:0:0:0:
213,192,83086,1,0,0:0:0:0:
298,192,83173,1,0,0:0:0:0:
469,192,83173,128,0,83347:0:0:0:0:
213,192,83347,1,0,0:0:0:0:
42,192,83347,128,0,83522:0:0:0:0:
298,192,83522,128,0,83696:0:0:0:0:
469,192,83522,1,0,0:0:0:0:
128,192,83696,1,0,0:0:0:0:
384,192,83696,1,0,0:0:0:0:
42,192,83696,1,0,0:0:0:0:
213,192,83783,1,0,0:0:0:0:
298,192,83871,1,0,0:0:0:0:
469,192,83871,1,0,0:0:0:0:
128,192,83958,1,0,0:0:0:0:
42,192,83958,1,0,0:0:0:0:
213,192,84045,1,0,0:0:0:0:
298,192,84045,1,0,0:0:0:0:
384,192,84132,1,0,0:0:0:0:
469,192,84132,1,0,0:0:0:0:
213,192,84219,1,0,0:0:0:0:
298,192,84219,1,0,0:0:0:0:
128,192,84219,1,0,0:0:0:0:
42,192,84219,128,0,85440:0:0:0:0:
384,192,84394,1,0,0:0:0:0:
298,192,84481,1,0,0:0:0:0:
213,192,84568,1,0,0:0:0:0:
469,192,84568,1,0,0:0:0:0:
128,192,84568,1,0,0:0:0:0:
298,192,84743,1,0,0:0:0:0:
384,192,84830,1,0,0:0:0:0:
213,192,84917,1,0,0:0:0:0:
128,192,84917,1,0,0:0:0:0:
298,192,85092,1,0,0:0:0:0:
384,192,85179,1,0,0:0:0:0:
469,192,85266,1,0,0:0:0:0:
213,192,85266,1,0,0:0:0:0:
128,192,85266,1,0,0:0:0:0:
469,192,85440,1,0,0:0:0:0:
298,192,85440,1,0,0:0:0:0:
384,192,85528,1,0,0:0:0:0:
213,192,85528,1,0,0:0:0:0:
298,192,85615,1,0,0:0:0:0:
128,192,85615,128,0,87010:0:0:0:0:
469,192,85789,1,0,0:0:0:0:
384,192,85876,1,0,0:0:0:0:
298,192,85964,1,0,0:0:0:0:
213,192,85964,1,0,0:0:0:0:
42,192,85964,1,0,0:0:0:0:
384,192,86138,1,0,0:0:0:0:
469,192,86225,1,0,0:0:0:0:
298,192,86312,1,0,0:0:0:0:
213,192,86312,1,0,0:0:0:0:
42,192,86400,1,0,0:0:0:0:
469,192,86487,1,0,0:0:0:0:
384,192,86574,1,0,0:0:0:0:
298,192,86661,1,0,0:0:0:0:
213,192,86661,1,0,0:0:0:0:
42,192,86661,1,0,0:0:0:0:
469,192,86749,1,0,0:0:0:0:
384,192,86836,1,0,0:0:0:0:
469,192,86923,1,0,0:0:0:0:
213,192,87010,1,0,0:0:0:0:
42,192,87010,1,0,0:0:0:0:
384,192,87097,1,0,0:0:0:0:
298,192,87185,1,0,0:0:0:0:
213,192,87272,1,0,0:0:0:0:
384,192,87359,1,0,0:0:0:0:
469,192,87359,1,0,0:0:0:0:
128,192,87359,1,0,0:0:0:0:
298,192,87446,1,0,0:0:0:0:
213,192,87533,1,0,0:0:0:0:
128,192,87621,1,0,0:0:0:0:
384,192,87708,1,0,0:0:0:0:
42,192,87708,1,0,0:0:0:0:
298,192,87795,1,0,0:0:0:0:
128,192,87882,1,0,0:0:0:0:
213,192,87969,1,0,0:0:0:0:
298,192,88057,1,0,0:0:0:0:
469,192,88057,1,0,0:0:0:0:
42,192,88057,1,0,0:0:0:0:
384,192,88144,1,0,0:0:0:0:
213,192,88231,1,0,0:0:0:0:
128,192,88318,1,0,0:0:0:0:
469,192,88405,1,0,0:0:0:0:
42,192,88405,1,0,0:0:0:0:
298,192,88493,1,0,0:0:0:0:
213,192,88580,1,0,0:0:0:0:
128,192,88667,1,0,0:0:0:0:
42,192,88754,1,0,0:0:0:0:
469,192,88754,1,0,0:0:0:0:
298,192,88754,1,0,0:0:0:0:
384,192,88842,1,0,0:0:0:0:
298,192,88929,1,0,0:0:0:0:
213,192,89016,1,0,0:0:0:0:
128,192,89103,1,0,0:0:0:0:
42,192,89103,1,0,0:0:0:0:
298,192,89278,1,0,0:0:0:0:
384,192,89365,1,0,0:0:0:0:
469,192,89452,1,0,0:0:0:0:
42,192,89452,1,0,0:0:0:0:
128,192,89452,1,0,0:0:0:0:
213,192,89539,1,0,0:0:0:0:
298,192,89626,1,0,0:0:0:0:
384,192,89714,1,0,0:0:0:0:
128,192,89801,1,0,0:0:0:0:
42,192,89801,1,0,0:0:0:0:
213,192,89801,1,0,0:0:0:0:
298,192,89888,1,0,0:0:0:0:
469,192,89975,1,0,0:0:0:0:
128,192,89975,1,0,0:0:0:0:
384,192,90062,1,0,0:0:0:0:
213,192,90150,1,0,0:0:0:0:
42,192,90150,1,0,0:0:0:0:
298,192,90150,1,0,0:0:0:0:
384,192,90237,1,0,0:0:0:0:
298,192,90324,1,0,0:0:0:0:
213,192,90411,1,0,0:0:0:0:
128,192,90499,1,0,0:0:0:0:
42,192,90499,1,0,0:0:0:0:
213,192,90673,1,0,0:0:0:0:
298,192,90760,1,0,0:0:0:0:
42,192,90847,1,0,0:0:0:0:
384,192,90847,1,0,0:0:0:0:
469,192,90847,1,0,0:0:0:0:
213,192,90935,1,0,0:0:0:0:
128,192,91022,1,0,0:0:0:0:
42,192,91109,1,0,0:0:0:0:
298,192,91196,1,0,0:0:0:0:
469,192,91196,1,0,0:0:0:0:
128,192,91196,1,0,0:0:0:0:
213,192,91371,1,0,0:0:0:0:
384,192,91371,1,0,0:0:0:0:
128,192,91458,1,0,0:0:0:0:
42,192,91545,1,0,0:0:0:0:
298,192,91545,1,0,0:0:0:0:
469,192,91545,1,0,0:0:0:0:
128,192,91719,1,0,0:0:0:0:
384,192,91719,1,0,0:0:0:0:
213,192,91807,1,0,0:0:0:0:
298,192,91894,1,0,0:0:0:0:
469,192,91894,1,0,0:0:0:0:
42,192,92068,1,0,0:0:0:0:
128,192,92155,1,0,0:0:0:0:
384,192,92155,1,0,0:0:0:0:
213,192,92243,1,0,0:0:0:0:
298,192,92243,1,0,0:0:0:0:
469,192,92243,1,0,0:0:0:0:
42,192,92417,1,0,0:0:0:0:
128,192,92417,1,0,0:0:0:0:
384,192,92417,1,0,0:0:0:0:
469,192,92417,1,0,0:0:0:0:
42,192,92592,1,0,0:0:0:0:
298,192,92592,1,0,0:0:0:0:
128,192,92766,1,0,0:0:0:0:
384,192,92766,1,0,0:0:0:0:
213,192,92940,1,0,0:0:0:0:
298,192,92940,1,0,0:0:0:0:
469,192,92940,1,0,0:0:0:0:
42,192,92940,1,0,0:0:0:0:
128,192,93115,128,0,93464:0:0:0:0:
213,192,93115,128,0,93464:0:0:0:0:
384,192,93115,128,0,93464:0:0:0:0:
469,192,93115,128,0,93464:0:0:0:0:
298,192,93464,1,0,0:0:0:0:
42,192,93464,1,0,0:0:0:0:
128,192,93638,1,0,0:0:0:0:
42,192,93638,1,0,0:0:0:0:
298,192,93638,1,0,0:0:0:0:
384,192,93638,1,0,0:0:0:0:
128,192,93812,1,0,0:0:0:0:
384,192,93812,128,0,94161:0:0:0:0:
469,192,93812,1,0,0:0:0:0:
213,192,93812,128,0,94161:0:0:0:0:
42,192,94074,1,0,0:0:0:0:
128,192,94161,1,0,0:0:0:0:
213,192,94249,1,0,0:0:0:0:
298,192,94336,1,0,0:0:0:0:
42,192,94336,1,0,0:0:0:0:
128,192,94336,1,0,0:0:0:0:
384,192,94423,1,0,0:0:0:0:
469,192,94510,1,0,0:0:0:0:
128,192,94510,1,0,0:0:0:0:
213,192,94597,1,0,0:0:0:0:
298,192,94685,1,0,0:0:0:0:
384,192,94685,1,0,0:0:0:0:
42,192,94772,1,0,0:0:0:0:
298,192,94859,1,0,0:0:0:0:
213,192,94946,1,0,0:0:0:0:
128,192,94946,1,0,0:0:0:0:
384,192,95033,1,0,0:0:0:0:
469,192,95033,1,0,0:0:0:0:
42,192,95033,1,0,0:0:0:0:
298,192,95121,1,0,0:0:0:0:
213,192,95121,1,0,0:0:0:0:
128,192,95208,1,0,0:0:0:0:
42,192,95208,1,0,0:0:0:0:
384,192,95295,1,0,0:0:0:0:
469,192,95382,1,0,0:0:0:0:
213,192,95382,1,0,0:0:0:0:
128,192,95382,1,0,0:0:0:0:
42,192,95382,1,0,0:0:0:0:
384,192,95469,1,0,0:0:0:0:
298,192,95557,1,0,0:0:0:0:
384,192,95644,1,0,0:0:0:0:
469,192,95731,1,0,0:0:0:0:
213,192,95731,1,0,0:0:0:0:
42,192,95731,128,0,96080:0:0:0:0:
384,192,95818,1,0,0:0:0:0:
298,192,95905,1,0,0:0:0:0:
384,192,95993,1,0,0:0:0:0:
469,192,96080,1,0,0:0:0:0:
128,192,96080,1,0,0:0:0:0:
384,192,96167,1,0,0:0:0:0:
298,192,96254,1,0,0:0:0:0:
384,192,96342,1,0,0:0:0:0:
128,192,96342,1,0,0:0:0:0:
469,192,96429,1,0,0:0:0:0:
42,192,96429,1,0,0:0:0:0:
213,192,96429,1,0,0:0:0:0:
384,192,96516,1,0,0:0:0:0:
298,192,96603,1,0,0:0:0:0:
384,192,96690,1,0,0:0:0:0:
42,192,96778,1,0,0:0:0:0:
469,192,96778,128,0,97475:0:0:0:0:
128,192,96865,1,0,0:0:0:0:
213,192,96952,1,0,0:0:0:0:
128,192,97039,1,0,0:0:0:0:
42,192,97126,1,0,0:0:0:0:
298,192,97126,1,0,0:0:0:0:
384,192,97126,1,0,0:0:0:0:
128,192,97214,1,0,0:0:0:0:
213,192,97301,1,0,0:0:0:0:
128,192,97388,1,0,0:0:0:0:
42,192,97475,1,0,0:0:0:0:
384,192,97475,1,0,0:0:0:0:
128,192,97562,1,0,0:0:0:0:
213,192,97650,1,0,0:0:0:0:
128,192,97737,1,0,0:0:0:0:
384,192,97737,1,0,0:0:0:0:
42,192,97824,1,0,0:0:0:0:
298,192,97824,1,0,0:0:0:0:
469,192,97824,1,0,0:0:0:0:
128,192,97911,1,0,0:0:0:0:
213,192,97999,1,0,0:0:0:0:
469,192,97999,128,0,98173:0:0:0:0:
298,192,98086,1,0,0:0:0:0:
384,192,98173,1,0,0:0:0:0:
128,192,98173,1,0,0:0:0:0:
298,192,98260,1,0,0:0:0:0:
213,192,98347,1,0,0:0:0:0:
128,192,98435,1,0,0:0:0:0:
42,192,98435,1,0,0:0:0:0:
298,192,98522,1,0,0:0:0:0:
469,192,98522,1,0,0:0:0:0:
384,192,98522,1,0,0:0:0:0:
213,192,98609,1,0,0:0:0:0:
128,192,98696,1,0,0:0:0:0:
42,192,98783,1,0,0:0:0:0:
469,192,98871,1,0,0:0:0:0:
213,192,98871,1,0,0:0:0:0:
384,192,98958,1,0,0:0:0:0:
298,192,99045,1,0,0:0:0:0:
213,192,99132,1,0,0:0:0:0:
42,192,99132,1,0,0:0:0:0:
469,192,99219,1,0,0:0:0:0:
128,192,99219,1,0,0:0:0:0:
384,192,99219,1,0,0:0:0:0:
298,192,99307,1,0,0:0:0:0:
213,192,99394,1,0,0:0:0:0:
128,192,99481,1,0,0:0:0:0:
42,192,99568,1,0,0:0:0:0:
469,192,99568,1,0,0:0:0:0:
384,192,99655,1,0,0:0:0:0:
298,192,99743,1,0,0:0:0:0:
128,192,99743,1,0,0:0:0:0:
213,192,99830,1,0,0:0:0:0:
384,192,99830,1,0,0:0:0:0:
469,192,99917,1,0,0:0:0:0:
42,192,99917,1,0,0:0:0:0:
128,192,99917,1,0,0:0:0:0:
384,192,100004,1,0,0:0:0:0:
42,192,100092,1,0,0:0:0:0:
298,192,100092,1,0,0:0:0:0:
128,192,100179,1,0,0:0:0:0:
213,192,100266,1,0,0:0:0:0:
469,192,100266,1,0,0:0:0:0:
384,192,100266,1,0,0:0:0:0:
298,192,100440,1,0,0:0:0:0:
128,192,100440,1,0,0:0:0:0:
384,192,100528,1,0,0:0:0:0:
469,192,100528,1,0,0:0:0:0:
213,192,100615,1,0,0:0:0:0:
42,192,100615,1,0,0:0:0:0:
298,192,100615,1,0,0:0:0:0:
128,192,100789,1,0,0:0:0:0:
384,192,100789,1,0,0:0:0:0:
298,192,100964,1,0,0:0:0:0:
469,192,100964,1,0,0:0:0:0:
213,192,100964,128,0,101138:0:0:0:0:
128,192,101138,1,0,0:0:0:0:
42,192,101138,1,0,0:0:0:0:
469,192,101225,1,0,0:0:0:0:
384,192,101225,1,0,0:0:0:0:
213,192,101312,1,0,0:0:0:0:
128,192,101312,1,0,0:0:0:0:
298,192,101312,1,0,0:0:0:0:
42,192,101487,1,0,0:0:0:0:
298,192,101487,1,0,0:0:0:0:
213,192,101661,1,0,0:0:0:0:
469,192,101661,1,0,0:0:0:0:
42,192,101661,1,0,0:0:0:0:
128,192,101836,1,0,0:0:0:0:
384,192,101836,1,0,0:0:0:0:
213,192,101923,1,0,0:0:0:0:
469,192,101923,1,0,0:0:0:0:
128,192,102010,1,0,0:0:0:0:
42,192,102010,1,0,0:0:0:0:
298,192,102010,1,0,0:0:0:0:
384,192,102185,1,0,0:0:0:0:
469,192,102185,1,0,0:0:0:0:
213,192,102359,1,0,0:0:0:0:
469,192,102359,1,0,0:0:0:0:
298,192,102359,1,0,0:0:0:0:
42,192,102359,1,0,0:0:0:0:
128,192,102533,1,0,0:0:0:0:
384,192,102533,1,0,0:0:0:0:
42,192,102621,1,0,0:0:0:0:
298,192,102621,1,0,0:0:0:0:
384,192,102708,1,0,0:0:0:0:
469,192,102708,1,0,0:0:0:0:
213,192,102708,1,0,0:0:0:0:
128,192,102882,1,0,0:0:0:0:
42,192,102882,1,0,0:0:0:0:
384,192,103057,1,0,0:0:0:0:
469,192,103057,1,0,0:0:0:0:
42,192,103057,1,0,0:0:0:0:
128,192,103144,1,0,0:0:0:0:
213,192,103144,1,0,0:0:0:0:
298,192,103231,1,0,0:0:0:0:
384,192,103231,1,0,0:0:0:0:
128,192,103318,1,0,0:0:0:0:
213,192,103318,1,0,0:0:0:0:
42,192,103405,1,0,0:0:0:0:
469,192,103405,1,0,0:0:0:0:
128,192,103580,1,0,0:0:0:0:
42,192,103580,1,0,0:0:0:0:
384,192,103580,1,0,0:0:0:0:
469,192,103580,1,0,0:0:0:0:
298,192,103754,1,0,0:0:0:0:
128,192,103754,1,0,0:0:0:0:
213,192,103929,1,0,0:0:0:0:
384,192,103929,1,0,0:0:0:0:
469,192,103929,1,0,0:0:0:0:
298,192,104103,1,0,0:0:0:0:
384,192,104103,1,0,0:0:0:0:
128,192,104103,1,0,0:0:0:0:
42,192,104278,1,0,0:0:0:0:
213,192,104278,1,0,0:0:0:0:
298,192,104278,1,0,0:0:0:0:
213,192,104452,1,0,0:0:0:0:
128,192,104452,1,0,0:0:0:0:
469,192,104452,1,0,0:0:0:0:
42,192,104626,1,0,0:0:0:0:
128,192,104626,1,0,0:0:0:0:
384,192,104626,1,0,0:0:0:0:
298,192,104801,1,0,0:0:0:0:
42,192,104801,1,0,0:0:0:0:
469,192,104801,1,0,0:0:0:0:
128,192,104888,1,0,0:0:0:0:
213,192,104975,1,0,0:0:0:0:
469,192,104975,1,0,0:0:0:0:
384,192,104975,1,0,0:0:0:0:
42,192,105062,1,0,0:0:0:0:
128,192,105150,1,0,0:0:0:0:
213,192,105150,1,0,0:0:0:0:
469,192,105237,1,0,0:0:0:0:
298,192,105237,1,0,0:0:0:0:
42,192,105237,1,0,0:0:0:0:
213,192,105324,1,0,0:0:0:0:
384,192,105324,1,0,0:0:0:0:
128,192,105411,1,0,0:0:0:0:
298,192,105411,1,0,0:0:0:0:
213,192,105499,1,0,0:0:0:0:
42,192,105499,1,0,0:0:0:0:
469,192,105499,1,0,0:0:0:0:
384,192,105586,1,0,0:0:0:0:
128,192,105586,1,0,0:0:0:0:
298,192,105673,1,0,0:0:0:0:
42,192,105673,1,0,0:0:0:0:
213,192,105760,1,0,0:0:0:0:
469,192,105760,1,0,0:0:0:0:
128,192,105760,1,0,0:0:0:0:
384,192,105847,1,0,0:0:0:0:
42,192,105847,1,0,0:0:0:0:
469,192,105935,1,0,0:0:0:0:
213,192,105935,1,0,0:0:0:0:
384,192,106022,1,0,0:0:0:0:
128,192,106022,1,0,0:0:0:0:
42,192,106022,1,0,0:0:0:0:
469,192,106109,1,0,0:0:0:0:
213,192,106109,1,0,0:0:0:0:
298,192,106196,1,0,0:0:0:0:
384,192,106196,1,0,0:0:0:0:
42,192,106283,1,0,0:0:0:0:
469,192,106283,1,0,0:0:0:0:
213,192,106283,1,0,0:0:0:0:
128,192,106371,1,0,0:0:0:0:
384,192,106371,1,0,0:0:0:0:
213,192,106458,1,0,0:0:0:0:
298,192,106458,1,0,0:0:0:0:
42,192,106545,128,0,106719:0:0:0:0:
128,192,106545,128,0,106719:0:0:0:0:
384,192,106545,128,0,106719:0:0:0:0:
469,192,106545,128,0,106719:0:0:0:0:
42,192,106807,1,0,0:0:0:0:
128,192,106807,1,0,0:0:0:0:
469,192,106807,1,0,0:0:0:0:
384,192,106807,1,0,0:0:0:0:
213,192,106981,1,0,0:0:0:0:
128,192,106981,1,0,0:0:0:0:
298,192,107068,1,0,0:0:0:0:
469,192,107068,1,0,0:0:0:0:
213,192,107155,1,0,0:0:0:0:
128,192,107155,1,0,0:0:0:0:
298,192,107243,128,0,107417:0:0:0:0:
384,192,107243,128,0,107417:0:0:0:0:
469,192,107243,128,0,107417:0:0:0:0:
42,192,107243,128,0,107417:0:0:0:0:
42,192,107504,1,0,0:0:0:0:
298,192,107504,1,0,0:0:0:0:
384,192,107504,1,0,0:0:0:0:
469,192,107504,1,0,0:0:0:0:
128,192,107679,1,0,0:0:0:0:
213,192,107679,1,0,0:0:0:0:
469,192,107766,1,0,0:0:0:0:
384,192,107766,1,0,0:0:0:0:
213,192,107853,1,0,0:0:0:0:
128,192,107853,1,0,0:0:0:0:
298,192,107940,1,0,0:0:0:0:
384,192,107940,1,0,0:0:0:0:
469,192,107940,1,0,0:0:0:0:
128,192,108028,1,0,0:0:0:0:
42,192,108028,1,0,0:0:0:0:
213,192,108115,1,0,0:0:0:0:
298,192,108115,1,0,0:0:0:0:
384,192,108115,1,0,0:0:0:0:
469,192,108115,1,0,0:0:0:0:
42,192,108289,1,0,0:0:0:0:
469,192,108289,1,0,0:0:0:0:
128,192,108376,128,0,108551:0:0:0:0:
213,192,108376,128,0,108551:0:0:0:0:
298,192,108376,128,0,108551:0:0:0:0:
384,192,108376,128,0,108551:0:0:0:0:
128,192,108638,128,0,109249:0:0:0:0:
213,192,108638,128,0,109249:0:0:0:0:
298,192,108638,128,0,109249:0:0:0:0:
384,192,108638,128,0,109249:0:0:0:0:
384,192,109336,1,0,0:0:0:0:
128,192,109336,1,0,0:0:0:0:
298,192,109423,1,0,0:0:0:0:
213,192,109510,1,0,0:0:0:0:
