osu file format v14

[General]
AudioFilename: audio.mp3
AudioLeadIn: 0
PreviewTime: 56738
Countdown: 0
SampleSet: Soft
StackLeniency: 0.4
Mode: 0
LetterboxInBreaks: 0
WidescreenStoryboard: 0

[Editor]
Bookmarks: 11161,21711,34898,45447,57315,67865,78414,88964,113359,137095
DistanceSpacing: 0.2
BeatDivisor: 4
GridSize: 32
TimelineZoom: 1.9

[Metadata]
Title:Sulfur
TitleUnicode:Sulfur
Artist:penoreri
ArtistUnicode:ぺのれり
Creator:Realazy
Version:H2SO4
Source:Arcaea
Tags:corsace gs fm3 luminous sky deviouspanda deca impurepug nao tomori naotoshi electronic video game instrumental
BeatmapID:2603745
BeatmapSetID:1252844

[Difficulty]
HPDrainRate:5
CircleSize:3.5
OverallDifficulty:9
ApproachRate:9.4
SliderMultiplier:1.92
SliderTickRate:1

[Events]
//Background and Video events
0,0,"sulfur.jpg",0,0
//Break Periods
//Storyboard Layer 0 (Background)
//Storyboard Layer 1 (Fail)
//Storyboard Layer 2 (Pass)
//Storyboard Layer 3 (Foreground)
//Storyboard Layer 4 (Overlay)
//Storyboard Sound Samples

[TimingPoints]
11162,329.67032967033,4,2,2,70,1,0
21711,-83.3333333333333,4,2,2,80,0,0
30118,-90.9090909090909,4,2,2,80,0,0
30612,-100,4,2,2,80,0,0
31107,-111.111111111111,4,2,2,80,0,0
32260,-83.3333333333333,4,2,2,80,0,0
34815,-83.3333333333333,4,2,2,5,0,0
34898,-83.3333333333333,4,2,1,90,0,0
38194,-71.4285714285714,4,2,1,90,0,0
39678,-83.3333333333333,4,2,1,90,0,0
43799,-71.4285714285714,4,2,1,90,0,0
45777,-71.4285714285714,4,2,1,90,0,0
57315,-83.3333333333333,4,2,1,100,0,1
58799,-125,4,2,1,100,0,1
59293,-83.3333333333333,4,2,1,100,0,1
61436,-125,4,2,1,100,0,1
61931,-83.3333333333333,4,2,1,100,0,1
64074,-125,4,2,1,100,0,1
64568,-83.3333333333333,4,2,1,100,0,1
67865,-76.9230769230769,4,2,1,100,0,0
68194,-76.9230769230769,4,2,1,100,0,1
78414,-100,4,2,1,70,0,0
84019,-66.6666666666667,4,2,1,70,0,0
84513,-100,4,2,1,70,0,0
87480,-83.3333333333333,4,2,1,70,0,0
91601,-166.666666666667,4,2,1,50,0,0
94238,-125,4,2,1,50,0,0
99513,-100,4,2,1,60,0,0
104129,-83.3333333333333,4,2,1,60,0,0
105118,-83.3333333333333,4,2,1,70,0,0
111052,-76.9230769230769,4,2,1,70,0,0
111381,-71.4285714285714,4,2,1,70,0,0
112865,-200,4,2,2,70,0,0
113359,329.67032967033,4,2,2,40,1,0
113359,-166.666666666667,4,2,2,40,0,0
118633,-142.857142857143,4,2,2,50,0,0
121271,-117.647058823529,4,2,2,60,0,0
123908,-100,4,2,1,70,0,0
129183,-133.333333333333,4,2,1,60,0,0
129677,-133.333333333333,4,2,2,60,0,0
135776,-133.333333333333,4,2,1,70,0,0

[Colours]
Combo1 : 247,108,26
Combo2 : 255,217,66

[HitObjects]
24,288,11161,6,0,P|76:241|147:240,1,144,6|0,1:2|0:0,0:0:0:0:
158,252,11491,1,10,0:0:0:0:
14,303,11656,2,0,P|11:255|30:212,1,96,2|0,1:2|0:0,0:0:0:0:
99,137,11903,1,0,1:0:0:0:
99,137,11986,2,0,P|54:154|23:190,1,96,2|8,1:2|0:0,0:0:0:0:
75,41,12315,6,0,B|125:30|164:64|164:64|202:99|253:88,1,192,2|0,1:2|1:0,0:0:0:0:
470,51,12810,1,8,0:0:0:0:
344,0,12975,1,0,1:0:0:0:
512,193,13140,5,2,1:2:0:0:
484,169,13222,1,2,3:2:0:0:
454,151,13304,1,2,1:2:0:0:
423,139,13387,1,2,1:2:0:0:
384,131,13469,5,10,0:0:0:0:
389,161,13552,5,2,3:2:0:0:
369,185,13634,5,2,3:2:0:0:
370,213,13716,5,2,3:2:0:0:
346,232,13799,6,0,P|276:229|218:188,1,144,2|0,1:2|0:0,0:0:0:0:
208,175,14129,1,10,0:0:0:0:
89,327,14293,2,0,P|41:326|0:304,1,96,2|0,1:2|0:0,0:0:0:0:
24,202,14541,1,0,1:0:0:0:
24,202,14623,2,0,P|71:202|113:224,1,96,2|8,1:2|0:0,0:0:0:0:
152,42,14953,6,0,P|241:9|336:15,1,192,2|0,1:2|1:0,0:0:0:0:
508,163,15447,1,8,0:0:0:0:
351,33,15612,1,2,1:2:0:0:
384,325,15777,5,2,1:2:0:0:
405,296,15859,1,2,1:2:0:0:
433,277,15942,1,2,3:2:0:0:
466,268,16024,1,2,3:2:0:0:
500,271,16107,1,10,3:2:0:0:
462,245,16189,1,2,3:2:0:0:
418,231,16271,1,2,3:2:0:0:
372,227,16354,1,10,3:2:0:0:
327,237,16436,6,0,P|259:236|229:175,1,144,2|0,1:2|0:0,0:0:0:0:
233,158,16766,1,10,0:0:0:0:
55,262,16931,2,0,P|53:310|33:354,1,96,2|0,1:2|0:0,0:0:0:0:
122,378,17178,1,0,1:0:0:0:
122,378,17260,2,0,P|141:334|147:287,1,96,2|8,1:2|0:0,0:0:0:0:
295,384,17590,6,0,P|204:361|147:287,1,192,2|0,1:2|1:0,0:0:0:0:
28,89,18085,1,8,0:0:0:0:
36,226,18249,1,0,1:0:0:0:
155,10,18414,5,10,0:0:0:0:
197,0,18497,1,2,3:2:0:0:
238,8,18579,1,2,1:2:0:0:
273,32,18661,1,2,1:2:0:0:
303,74,18744,5,10,0:0:0:0:
335,83,18826,5,2,3:2:0:0:
355,61,18909,5,2,3:2:0:0:
386,71,18991,5,2,3:2:0:0:
406,46,19074,6,0,P|472:54|485:131,1,144,2|0,1:2|0:0,0:0:0:0:
486,139,19403,1,10,0:0:0:0:
329,289,19568,2,0,P|307:247|305:200,1,96,2|0,1:2|0:0,0:0:0:0:
399,173,19815,1,0,1:0:0:0:
399,173,19898,2,0,P|420:215|422:262,1,96,2|8,1:2|0:0,0:0:0:0:
209,356,20227,6,0,B|213:304|257:277|257:277|301:250|305:199,1,192,2|0,1:2|1:0,0:0:0:0:
270,126,20722,1,8,0:0:0:0:
292,363,20887,2,0,B|296:311|256:277|256:277|217:244|221:192,1,192,2|0,1:2|0:0,0:0:0:0:
0,317,21381,5,10,0:0:0:0:
19,274,21463,1,2,0:0:0:0:
58,247,21545,1,2,0:0:0:0:
105,244,21628,1,2,0:0:0:0:
147,267,21711,5,2,1:2:0:0:
75,384,21876,1,0,0:0:0:0:
56,166,22041,6,0,P|45:109|25:55,1,115.199996484375,10|0,1:0|0:0,0:0:0:0:
38,30,22288,1,2,3:2:0:0:
71,6,22370,1,0,1:0:0:0:
108,17,22453,1,0,3:0:0:0:
131,48,22535,1,2,1:2:0:0:
172,64,22618,1,0,1:0:0:0:
211,54,22700,1,10,0:0:0:0:
330,224,22865,6,0,P|291:151|184:162,1,172.799994726563,2|0,1:2|0:0,0:0:0:0:
199,161,23194,1,2,1:2:0:0:
323,68,23359,2,0,P|394:66|457:50,1,115.199996484375,8|0,0:0|1:0,0:0:0:0:
470,354,23689,5,2,3:2:0:0:
490,323,23771,1,2,0:0:0:0:
490,285,23854,1,2,1:2:0:0:
469,256,23936,1,2,1:2:0:0:
435,247,24019,5,10,0:0:0:0:
419,267,24101,5,2,3:2:0:0:
394,270,24183,5,2,3:2:0:0:
380,294,24266,5,2,3:2:0:0:
352,292,24348,6,0,P|267:276|189:277,1,115.199996484375,2|0,1:2|1:0,0:0:0:0:
48,188,24678,6,0,P|44:104|110:75,1,115.199996484375,10|0,0:0|1:0,0:0:0:0:
183,110,24925,1,2,1:2:0:0:
183,110,25008,2,0,P|186:193|120:222,1,115.199996484375,2|0,3:2|1:0,0:0:0:0:
132,35,25337,5,8,0:0:0:0:
209,0,25502,2,0,B|263:-6|296:40|294:67|291:82|302:137|381:135,1,230.39999296875,2|2,1:2|1:2,0:0:0:0:
401,124,25914,1,2,0:0:0:0:
438,128,25997,1,10,0:0:0:0:
457,159,26079,1,2,0:0:0:0:
454,192,26162,1,2,3:2:0:0:
431,212,26244,1,2,3:2:0:0:
397,215,26326,6,0,P|401:258|396:314,1,57.5999982421876,10|0,0:0|0:0,0:0:0:0:
434,350,26491,2,0,P|439:287|443:264,1,57.5999982421876,2|0,1:2|0:0,0:0:0:0:
316,239,26656,5,10,0:0:0:0:
284,216,26738,1,2,0:0:0:0:
245,202,26821,1,2,0:0:0:0:
205,195,26903,1,2,0:0:0:0:
163,193,26986,1,0,0:0:0:0:
166,197,27810,5,4,1:0:0:0:
60,343,28140,6,0,P|120:372|194:301,1,172.799994726563,6|0,1:2|0:0,0:0:0:0:
187,294,28469,1,2,1:2:0:0:
78,215,28634,2,0,P|64:133|44:57,1,115.199996484375,8|0,0:0|0:0,0:0:0:0:
184,7,28964,5,2,1:2:0:0:
223,2,29046,1,2,1:2:0:0:
258,11,29129,1,2,1:2:0:0:
287,34,29211,1,2,0:0:0:0:
304,65,29293,5,10,0:0:0:0:
329,51,29376,5,2,1:2:0:0:
362,61,29458,5,2,1:2:0:0:
387,44,29541,5,2,1:2:0:0:
417,48,29623,6,0,P|441:117|460:235,1,172.799994726563,2|0,1:2|0:0,0:0:0:0:
480,240,29953,1,10,0:0:0:0:
354,180,30118,6,0,P|351:265|337:366,1,158.400004833985,2|0,0:0|0:0,0:0:0:0:
351,360,30447,1,2,1:2:0:0:
256,239,30612,6,0,P|224:317|187:385,1,144,10|0,0:0|0:0,0:0:0:0:
196,384,30941,1,2,0:0:0:0:
142,258,31107,6,0,P|85:321|50:352,1,129.599996044922,2|0,1:2|0:0,0:0:0:0:
52,359,31436,1,2,0:0:0:0:
55,216,31601,5,2,1:2:0:0:
28,215,31683,1,2,1:2:0:0:
7,198,31766,1,2,3:2:0:0:
0,171,31848,1,2,3:2:0:0:
12,148,31931,2,0,P|57:136|117:108,1,86.3999973632813,2|0,1:2|0:0,0:0:0:0:
226,0,32260,6,0,L|205:145,1,115.199996484375,10|0,0:0|3:0,0:0:0:0:
294,185,32508,1,0,3:0:0:0:
294,185,32590,2,0,L|310:70,1,115.199996484375,10|0,0:0|3:0,0:0:0:0:
408,22,32837,1,0,3:0:0:0:
408,22,32920,2,0,L|391:136,1,115.199996484375,10|0,0:0|3:0,0:0:0:0:
456,207,33167,1,0,3:0:0:0:
456,207,33249,1,8,0:0:0:0:
365,298,33414,5,2,0:0:0:0:
365,298,33497,1,2,0:0:0:0:
365,298,33579,1,10,0:0:0:0:
323,319,33662,1,0,3:0:0:0:
279,312,33744,1,10,0:0:0:0:
245,285,33826,1,0,3:0:0:0:
223,251,33909,1,10,0:0:0:0:
184,236,33991,1,0,3:0:0:0:
143,239,34074,1,10,0:0:0:0:
114,267,34156,1,0,3:0:0:0:
110,305,34238,6,0,B|130:330|130:330|191:318,1,57.5999982421876,0|0,1:0|1:0,0:0:0:0:
204,142,34403,2,0,B|184:117|184:117|123:129,1,57.5999982421876,0|0,1:0|1:0,0:0:0:0:
68,229,34568,6,0,L|269:215,1,172.799994726563,2|0,1:3|0:0,1:0:0:0:
359,119,34898,5,0,1:0:0:0:
353,122,34980,1,0,1:0:0:0:
347,124,35063,2,0,B|305:84|305:84|328:30,1,115.199996484375,14|0,1:2|0:0,0:0:0:0:
480,255,35392,5,0,1:0:0:0:
486,258,35474,1,0,1:0:0:0:
492,260,35557,2,0,B|534:220|534:220|511:166,1,115.199996484375,14|0,1:2|0:0,0:0:0:0:
435,191,35887,1,0,1:0:0:0:
512,384,36052,6,0,B|476:348|476:348|354:356,1,172.799994726563,6|0,1:2|0:0,0:0:0:0:
345,368,36382,1,0,1:2:0:0:
79,247,36547,1,8,0:0:0:0:
216,372,36711,6,0,P|193:288|188:202,1,172.799994726563,2|0,1:2|0:0,0:0:0:0:
234,137,37042,2,0,B|263:126|263:126|244:146,1,57.5999982421876,10|0,0:0|0:0,0:0:0:0:
58,332,37206,5,2,1:2:0:0:
52,340,37289,1,2,1:2:0:0:
46,348,37370,2,0,P|132:350|215:371,1,172.799994726563,10|0,1:2|0:0,0:0:0:0:
373,346,37701,5,0,1:0:0:0:
366,337,37783,1,0,1:0:0:0:
360,329,37865,2,0,B|329:282|329:282|350:227,1,115.199996484375,10|0,1:2|1:0,0:0:0:0:
454,158,38113,1,0,1:0:0:0:
441,177,38195,2,0,L|241:202,1,201.599993847656,10|0,1:2|0:0,0:0:0:0:
228,191,38525,1,0,1:0:0:0:
48,383,38689,6,0,P|97:300|193:304,1,201.599993847656,6|0,1:2|0:0,0:0:0:0:
209,298,39020,1,2,1:2:0:0:
0,236,39183,1,10,1:2:0:0:
186,114,39348,2,0,P|252:109|304:149,1,134.399995898438,2|0,1:2|0:0,0:0:0:0:
13,0,39679,5,2,0:0:0:0:
31,8,39761,1,2,0:0:0:0:
49,16,39844,1,8,0:0:0:0:
58,63,39926,1,8,0:0:0:0:
68,110,40009,1,8,0:0:0:0:
77,157,40091,1,8,0:0:0:0:
86,204,40172,5,0,1:0:0:0:
101,211,40255,1,0,1:0:0:0:
116,218,40337,2,0,L|229:197,1,115.199996484375,14|0,1:2|0:0,0:0:0:0:
491,256,40667,5,0,1:0:0:0:
479,267,40749,1,0,1:0:0:0:
468,279,40832,2,0,B|354:300,1,115.199996484375,14|0,1:2|0:0,0:0:0:0:
309,365,41162,1,2,1:2:0:0:
289,116,41326,6,0,B|276:186|276:186|256:207|256:207|244:278,1,172.799994726563,6|0,1:2|0:0,0:0:0:0:
233,292,41656,1,0,1:0:0:0:
398,177,41821,1,10,1:2:0:0:
157,14,41986,6,0,B|99:21|99:21|113:134,1,172.799994726563,2|0,1:2|0:0,0:0:0:0:
169,191,42315,2,0,B|180:219|180:219|160:201,1,57.5999982421876,10|0,1:2|0:0,0:0:0:0:
15,188,42480,5,2,1:2:0:0:
7,171,42563,1,2,1:2:0:0:
0,156,42645,2,0,L|169:191,1,172.799994726563,10|0,1:2|0:0,0:0:0:0:
301,343,42975,5,0,1:0:0:0:
294,334,43057,1,0,1:0:0:0:
287,325,43140,2,0,P|268:270|278:214,1,115.199996484375,10|0,1:2|1:0,0:0:0:0:
132,296,43387,1,0,1:0:0:0:
149,302,43469,2,0,P|231:284|278:214,1,172.799994726563,10|0,1:2|0:0,0:0:0:0:
310,140,43799,6,0,P|339:156|356:184,1,67.1999979492188,2|0,1:2|0:0,0:0:0:0:
449,306,43964,2,0,P|407:215|417:116,1,201.599993847656,2|0,1:2|0:0,0:0:0:0:
427,100,44293,1,2,1:2:0:0:
278,214,44458,1,8,1:2:0:0:
86,93,44623,1,2,1:2:0:0:
319,3,44788,5,10,1:2:0:0:
299,29,44870,1,2,0:0:0:0:
270,46,44953,1,2,0:0:0:0:
237,52,45035,1,2,0:0:0:0:
204,45,45118,5,2,1:2:0:0:
175,97,45200,5,2,1:2:0:0:
155,154,45282,5,2,1:2:0:0:
145,214,45365,5,2,1:2:0:0:
144,274,45447,5,2,1:2:0:0:
269,384,45612,1,0,1:0:0:0:
444,211,45777,6,0,P|449:130|405:86,1,134.399995898438,10|0,1:2|0:0,0:0:0:0:
312,116,46024,1,2,0:0:0:0:
312,116,46107,2,0,P|306:196|350:240,1,134.399995898438,2|0,1:2|0:0,0:0:0:0:
421,318,46354,5,2,0:0:0:0:
421,318,46436,1,10,1:2:0:0:
458,314,46519,1,2,0:0:0:0:
492,332,46601,2,0,P|398:341|233:373,1,201.599993847656,2|0,1:2|0:0,0:0:0:0:
189,326,46931,5,0,1:0:0:0:
99,151,47096,1,8,1:2:0:0:
0,242,47260,5,2,1:2:0:0:
0,242,47343,1,2,0:0:0:0:
0,242,47425,2,0,P|47:250|91:266,1,67.1999979492188,2|0,0:0|0:0,0:0:0:0:
237,196,47590,5,2,1:2:0:0:
261,150,47672,1,2,0:0:0:0:
249,97,47755,1,10,1:2:0:0:
209,57,47837,1,2,0:0:0:0:
165,53,47920,1,2,1:2:0:0:
143,70,48002,1,2,1:2:0:0:
136,85,48085,6,0,P|150:172|146:238,1,134.399995898438,2|0,0:0|1:0,0:0:0:0:
231,336,48332,1,0,1:0:0:0:
231,336,48414,2,0,P|232:247|247:183,1,134.399995898438,10|0,1:2|0:0,0:0:0:0:
310,132,48662,5,2,0:0:0:0:
310,132,48744,2,0,P|377:153|382:202,1,67.1999979492188,2|0,1:2|0:0,0:0:0:0:
440,189,48909,1,2,0:0:0:0:
445,246,48991,1,2,0:0:0:0:
412,284,49074,1,10,1:2:0:0:
218,98,49238,6,0,P|316:95|386:26,1,201.599993847656,6|0,1:2|0:0,0:0:0:0:
464,0,49568,1,2,1:2:0:0:
499,31,49651,1,2,0:0:0:0:
493,80,49733,1,10,1:2:0:0:
446,109,49815,1,2,0:0:0:0:
398,136,49898,1,2,1:2:0:0:
388,188,49980,1,2,0:0:0:0:
412,227,50063,5,2,0:0:0:0:
412,183,50145,1,2,0:0:0:0:
386,147,50227,1,2,1:2:0:0:
337,137,50310,1,2,0:0:0:0:
290,153,50392,5,10,1:2:0:0:
265,199,50475,5,2,1:2:0:0:
279,251,50557,5,2,1:2:0:0:
256,299,50640,5,2,1:2:0:0:
278,349,50722,5,2,1:2:0:0:
353,299,50887,1,2,1:2:0:0:
183,231,51052,1,10,1:2:0:0:
372,384,51216,6,0,P|385:295|426:162,1,201.599993847656,6|0,1:2|0:0,0:0:0:0:
409,111,51546,1,8,1:2:0:0:
409,111,51629,1,8,1:2:0:0:
409,111,51711,5,10,1:2:0:0:
318,62,51876,1,2,1:2:0:0:
262,143,52041,1,10,1:2:0:0:
494,308,52205,6,0,P|397:279|297:264,1,201.599993847656,6|0,1:2|0:0,0:0:0:0:
250,327,52535,1,8,1:2:0:0:
250,327,52618,1,8,1:2:0:0:
250,327,52700,5,2,1:2:0:0:
134,384,52865,1,2,0:0:0:0:
101,379,52947,1,2,0:0:0:0:
72,349,53030,1,10,1:2:0:0:
67,317,53112,1,2,0:0:0:0:
76,282,53194,6,0,P|70:178|58:97,1,134.399995898438,6|0,1:2|0:0,0:0:0:0:
97,74,53442,1,2,0:0:0:0:
109,48,53524,1,2,1:2:0:0:
141,35,53607,1,2,0:0:0:0:
178,43,53689,1,10,1:2:0:0:
200,74,53771,1,2,0:0:0:0:
234,92,53854,1,2,1:2:0:0:
278,90,53936,1,2,0:0:0:0:
304,57,54019,5,10,1:2:0:0:
347,24,54101,1,2,0:0:0:0:
407,34,54183,1,2,1:2:0:0:
438,83,54266,1,2,0:0:0:0:
428,141,54348,1,10,1:2:0:0:
394,181,54431,1,2,0:0:0:0:
359,225,54513,1,2,1:2:0:0:
356,281,54596,1,2,1:2:0:0:
388,330,54678,5,14,1:2:0:0:
512,244,54843,1,2,1:2:0:0:
365,99,55008,1,2,1:2:0:0:
464,0,55172,6,0,P|451:121|444:263,1,201.599993847656,14|0,1:2|0:0,0:0:0:0:
393,265,55502,1,2,1:2:0:0:
349,294,55585,1,2,0:0:0:0:
294,289,55667,1,10,1:2:0:0:
262,245,55749,1,2,0:0:0:0:
268,189,55832,1,2,1:2:0:0:
310,151,55914,1,2,1:2:0:0:
364,154,55997,6,0,P|359:214|362:256,1,67.1999979492188,10|0,1:2|0:0,0:0:0:0:
247,24,56162,2,0,P|250:57|252:90,1,67.1999979492188,10|0,1:2|0:0,0:0:0:0:
412,85,56326,6,0,B|446:76|446:76|466:29,1,67.1999979492188,10|0,1:2|0:0,0:0:0:0:
219,165,56491,2,0,B|185:174|185:174|165:221,1,67.1999979492188,10|0,1:2|0:0,0:0:0:0:
33,220,56821,5,2,0:0:0:0:
46,210,56903,1,2,0:0:0:0:
65,209,56986,1,2,0:0:0:0:
81,216,57068,1,2,0:0:0:0:
91,229,57151,1,2,0:0:0:0:
94,243,57233,1,2,0:0:0:0:
93,259,57315,6,0,P|64:178|86:96,1,172.799994726563,6|0,1:2|0:0,0:0:0:0:
121,25,57645,2,0,P|162:64|165:120,1,115.199996484375,10|0,1:2|0:0,0:0:0:0:
3,12,57975,1,0,1:0:0:0:
188,209,58140,6,0,P|241:189|299:186,1,115.199996484375,2|8,0:0|1:2,0:0:0:0:
463,85,58469,2,0,P|405:82|351:62,1,115.199996484375,2|0,0:0|1:0,0:0:0:0:
444,284,58799,5,2,0:0:0:0:
444,284,58881,1,2,0:0:0:0:
444,284,58964,2,0,B|466:252|466:252|454:217,1,76.8,10|0,1:2|0:0,0:0:0:0:
302,357,59293,5,2,1:2:0:0:
247,372,59376,1,2,0:0:0:0:
193,357,59458,1,2,0:0:0:0:
156,313,59540,1,2,0:0:0:0:
129,264,59623,1,10,1:2:0:0:
74,254,59705,1,2,0:0:0:0:
30,287,59788,1,2,0:0:0:0:
25,342,59870,1,2,0:0:0:0:
64,383,59953,6,0,P|94:303|91:218,1,172.799994726563,2|0,1:2|0:0,0:0:0:0:
89,138,60282,2,0,P|35:157|10:208,1,115.199996484375,10|0,1:2|0:0,0:0:0:0:
187,314,60612,1,0,1:0:0:0:
153,36,60777,6,0,P|95:33|41:18,1,115.199996484375,2|8,0:0|1:2,0:0:0:0:
252,187,61107,2,0,P|307:171|364:169,1,115.199996484375,2|0,0:0|1:0,0:0:0:0:
0,283,61436,5,2,0:0:0:0:
0,283,61519,1,2,0:0:0:0:
0,282,61601,2,0,P|8:244|10:206,1,76.8,10|0,1:2|0:0,0:0:0:0:
169,359,61931,5,2,1:2:0:0:
178,304,62013,1,2,0:0:0:0:
216,267,62095,1,2,0:0:0:0:
269,259,62178,1,2,0:0:0:0:
316,285,62260,1,10,1:2:0:0:
334,336,62342,1,2,0:0:0:0:
378,366,62424,1,2,0:0:0:0:
433,361,62507,1,2,0:0:0:0:
473,324,62590,6,0,P|476:238|496:154,1,172.799994726563,2|0,1:2|0:0,0:0:0:0:
508,76,62920,2,0,B|474:72|450:64|450:64|442:92|425:115,1,115.199996484375,10|0,1:2|0:0,0:0:0:0:
316,285,63249,1,0,1:0:0:0:
187,38,63414,6,0,P|243:37|289:70,1,115.199996484375,2|8,0:0|1:2,0:0:0:0:
28,77,63744,2,0,P|55:27|107:4,1,115.199996484375,2|0,0:0|1:0,0:0:0:0:
222,200,64074,5,2,0:0:0:0:
222,200,64156,1,2,0:0:0:0:
222,200,64238,2,0,P|224:161|215:124,1,76.8,10|0,1:2|0:0,0:0:0:0:
5,295,64568,5,2,1:2:0:0:
48,309,64650,1,2,0:0:0:0:
91,286,64732,1,2,0:0:0:0:
102,238,64815,1,2,0:0:0:0:
73,196,64898,1,10,1:2:0:0:
50,260,64980,1,2,0:0:0:0:
75,323,65062,1,2,0:0:0:0:
135,356,65145,1,2,0:0:0:0:
200,341,65227,6,0,B|245:331|280:362|280:362|315:393|361:384,1,172.799994726563,2|0,1:2|0:0,0:0:0:0:
414,310,65557,2,0,B|441:325|439:361|439:361|432:336|406:319,1,115.199996484375,10|0,1:2|0:0,0:0:0:0:
323,219,65887,1,0,1:0:0:0:
115,334,66052,6,0,B|82:287|82:287|97:231,1,115.199996484375,2|8,0:0|1:2,0:0:0:0:
193,384,66381,2,0,L|22:358,1,172.799994726563,2|0,0:0|0:0,0:0:0:0:
11,371,66711,1,2,0:0:0:0:
182,211,66876,1,10,1:2:0:0:
71,0,67041,2,0,P|35:44|27:100,1,115.199996484375,2|0,0:0|1:0,0:0:0:0:
96,141,67288,1,2,0:0:0:0:
115,118,67370,1,2,0:0:0:0:
139,104,67452,1,2,0:0:0:0:
166,97,67535,5,10,1:2:0:0:
179,154,67617,5,10,1:2:0:0:
182,211,67699,5,10,1:2:0:0:
174,268,67782,5,10,1:2:0:0:
157,323,67864,5,2,0:0:0:0:
62,285,68030,1,2,0:0:0:0:
315,214,68194,6,0,P|378:229|382:312,1,124.79999428711,10|0,1:2|0:0,0:0:0:0:
319,341,68442,1,2,0:0:0:0:
319,341,68524,2,0,P|277:320|274:271,1,62.3999971435548,2|0,1:2|0:0,0:0:0:0:
279,136,68689,5,2,0:0:0:0:
279,136,68771,1,2,0:0:0:0:
279,136,68854,2,0,L|375:127,1,62.3999971435548,10|0,1:2|0:0,0:0:0:0:
427,122,69019,1,2,0:0:0:0:
219,212,69183,6,0,B|154:210|154:210|110:132,1,124.79999428711,0|0,1:0|0:0,0:0:0:0:
230,0,69513,2,0,B|295:2|295:2|339:80,1,124.79999428711,10|0,1:2|0:0,0:0:0:0:
500,214,69843,5,2,1:2:0:0:
496,262,69925,1,2,0:0:0:0:
458,291,70008,1,2,0:0:0:0:
408,293,70090,1,2,0:0:0:0:
365,266,70172,1,10,1:2:0:0:
317,264,70255,1,2,0:0:0:0:
275,292,70337,1,2,0:0:0:0:
259,340,70420,1,2,0:0:0:0:
269,383,70502,6,0,P|267:286|256:162,1,187.199991430664,2|0,1:2|0:0,0:0:0:0:
334,118,70832,2,0,P|340:66|356:21,1,62.3999971435548,10|0,1:2|0:0,0:0:0:0:
292,0,70997,1,0,0:0:0:0:
203,129,71162,5,0,1:0:0:0:
87,108,71326,1,2,0:0:0:0:
209,137,71491,1,8,1:2:0:0:
0,127,71656,6,0,B|44:132|77:94|74:78|68:56|98:21|150:22,1,187.199991430664,2|0,0:0|0:0,0:0:0:0:
165,40,71986,1,2,0:0:0:0:
41,212,72151,6,0,P|128:227|156:320,1,187.199991430664,10|0,1:2|0:0,0:0:0:0:
225,355,72480,1,2,1:2:0:0:
262,346,72563,1,2,0:0:0:0:
298,328,72645,1,2,0:0:0:0:
324,298,72727,1,2,0:0:0:0:
330,263,72810,5,10,1:2:0:0:
279,261,72892,1,10,1:2:0:0:
232,243,72975,1,10,1:2:0:0:
195,209,73057,1,2,1:2:0:0:
171,156,73140,1,2,1:2:0:0:
270,22,73304,5,2,1:2:0:0:
314,4,73387,1,2,0:0:0:0:
357,27,73469,1,10,1:2:0:0:
362,76,73552,1,2,0:0:0:0:
337,114,73634,1,2,1:2:0:0:
224,176,73799,5,2,0:0:0:0:
171,156,73882,1,2,0:0:0:0:
123,180,73964,1,10,1:2:0:0:
116,236,74047,1,2,0:0:0:0:
150,272,74129,6,0,P|207:264|255:259,1,62.3999971435548,2|0,1:2|0:0,0:0:0:0:
385,366,74293,5,2,1:2:0:0:
390,308,74376,1,2,0:0:0:0:
398,251,74458,1,10,1:2:0:0:
407,194,74541,1,2,0:0:0:0:
419,134,74623,1,2,1:2:0:0:
101,132,74788,5,2,0:0:0:0:
141,138,74870,1,2,0:0:0:0:
173,114,74953,1,10,1:2:0:0:
184,71,75035,1,2,0:0:0:0:
161,32,75118,5,2,1:2:0:0:
137,86,75200,1,2,0:0:0:0:
164,130,75282,1,2,0:0:0:0:
215,137,75365,1,2,1:2:0:0:
270,112,75447,1,10,1:2:0:0:
329,127,75530,1,10,1:2:0:0:
359,171,75612,1,2,1:2:0:0:
353,231,75694,1,2,0:0:0:0:
301,257,75777,5,2,1:2:0:0:
177,220,75942,1,0,1:0:0:0:
141,343,76107,1,10,1:2:0:0:
462,325,76271,6,0,P|369:336|276:351,1,187.199991430664,6|0,1:2|0:0,0:0:0:0:
241,333,76601,1,2,1:2:0:0:
51,177,76766,5,8,1:2:0:0:
51,177,76931,2,0,P|138:187|272:213,1,187.199991430664,6|0,1:2|0:0,0:0:0:0:
350,135,77260,5,2,1:2:0:0:
346,102,77343,1,2,0:0:0:0:
341,72,77425,1,10,1:2:0:0:
290,79,77508,1,2,0:0:0:0:
239,85,77590,1,2,1:2:0:0:
189,92,77673,1,2,0:0:0:0:
139,97,77755,1,10,1:2:0:0:
144,148,77837,1,2,0:0:0:0:
150,199,77919,1,2,1:2:0:0:
158,249,78002,1,2,0:0:0:0:
164,299,78084,1,10,1:2:0:0:
218,296,78167,1,10,1:2:0:0:
274,289,78249,1,10,1:2:0:0:
331,281,78332,1,2,1:2:0:0:
388,274,78414,5,2,1:2:0:0:
478,184,78579,1,0,1:0:0:0:
492,334,78744,6,0,B|479:356|479:356|482:334,1,48,10|0,1:2|0:0,0:0:0:0:
453,52,78909,5,0,1:0:0:0:
453,52,79238,1,2,1:2:0:0:
379,268,79403,6,0,B|378:293|378:293|370:273,1,48,8|0,1:2|0:0,0:0:0:0:
336,0,79568,5,2,1:2:0:0:
336,0,79898,1,2,1:2:0:0:
248,267,80063,6,0,B|260:289|260:289|243:275,1,48,8|0,1:2|0:0,0:0:0:0:
90,104,80227,6,0,B|121:121|131:159|131:159|156:128|195:128,1,144,2|0,1:2|0:0,0:0:0:0:
157,46,80557,1,2,1:2:0:0:
40,181,80722,5,10,1:2:0:0:
45,216,80804,1,2,0:0:0:0:
44,252,80886,1,2,0:0:0:0:
38,288,80969,1,2,0:0:0:0:
26,322,81051,5,2,1:2:0:0:
143,381,81216,1,2,1:2:0:0:
208,134,81381,6,0,B|191:109|191:109|193:127,1,48,8|0,1:2|0:0,0:0:0:0:
284,377,81546,5,2,1:2:0:0:
284,377,81876,1,2,1:2:0:0:
193,127,82041,6,0,B|165:113|165:113|176:128,1,48,8|0,1:2|0:0,0:0:0:0:
407,312,82205,5,2,1:2:0:0:
407,312,82535,1,2,1:2:0:0:
174,126,82700,6,0,B|143:128|143:128|160:135,1,48,8|0,1:2|0:0,0:0:0:0:
455,116,82865,6,0,P|392:129|404:195,1,144,2|0,1:2|0:0,0:0:0:0:
464,246,83194,2,0,P|477:226|482:203,1,48,2|0,1:2|0:0,0:0:0:0:
290,29,83359,5,10,1:2:0:0:
258,0,83441,1,2,0:0:0:0:
223,16,83524,1,2,0:0:0:0:
228,55,83606,1,2,0:0:0:0:
267,63,83689,1,2,0:0:0:0:
455,116,83854,1,0,0:0:0:0:
275,232,84019,6,0,B|249:259|262:298|262:298|296:275|294:238,1,144.000005493164,10|2,1:0|1:2,0:0:0:0:
294,238,84513,5,2,1:2:0:0:
127,95,84678,2,0,P|120:71|111:49,1,48,8|0,1:2|0:0,0:0:0:0:
280,9,84843,2,0,P|247:73|231:143,1,144,2|0,1:2|0:0,0:0:0:0:
232,165,85172,1,2,1:2:0:0:
112,90,85337,6,0,P|103:67|93:45,1,48,8|0,1:2|0:0,0:0:0:0:
110,319,85502,1,2,1:2:0:0:
5,282,85667,5,2,0:0:0:0:
171,226,85832,1,2,1:2:0:0:
304,333,85997,2,0,P|302:366|294:390,1,48,10|0,1:2|0:0,0:0:0:0:
159,218,86162,6,0,P|141:174|139:127,1,96,2|2,0:0|1:2,0:0:0:0:
264,0,86491,1,2,1:2:0:0:
360,241,86656,6,0,P|363:264|376:284,1,48,8|0,1:2|0:0,0:0:0:0:
481,7,86821,5,2,1:2:0:0:
481,7,87151,1,2,1:2:0:0:
460,44,87233,1,2,0:0:0:0:
425,67,87315,1,10,1:2:0:0:
382,70,87398,1,2,0:0:0:0:
344,52,87480,2,0,P|261:48|219:119,1,172.799994726563,2|0,1:2|0:0,0:0:0:0:
221,141,87810,1,2,1:2:0:0:
43,64,87975,6,0,P|64:107|65:128,1,57.5999982421876,8|0,1:2|0:0,0:0:0:0:
114,295,88140,1,2,1:2:0:0:
88,326,88222,1,2,0:0:0:0:
48,334,88304,1,2,0:0:0:0:
12,312,88387,1,2,0:0:0:0:
0,274,88469,1,2,1:2:0:0:
17,236,88552,1,2,0:0:0:0:
53,220,88634,5,10,0:0:0:0:
117,226,88716,5,10,0:0:0:0:
180,235,88798,5,10,0:0:0:0:
242,245,88881,5,10,0:0:0:0:
304,257,88963,5,10,0:0:0:0:
256,192,89046,12,2,90942,0:0:0:0:
184,72,91601,6,0,P|124:148|341:82,1,691.199978906251,2|2,0:0|0:0,0:0:0:0:
347,87,93909,1,2,0:0:0:0:
394,22,94238,6,0,P|460:19|468:138,1,192,2|0,0:0|0:0,0:0:0:0:
483,123,94733,1,2,0:0:0:0:
490,131,94815,1,2,0:0:0:0:
493,135,94898,2,0,P|442:134|326:146,1,153.6,2|0,0:0|0:0,0:0:0:0:
329,243,95392,5,2,0:0:0:0:
329,243,95475,1,2,0:0:0:0:
329,243,95557,2,0,P|272:200|160:206,1,153.6,2|0,0:0|0:0,0:0:0:0:
99,251,96052,5,2,0:0:0:0:
99,251,96134,1,2,0:0:0:0:
99,251,96216,2,0,P|98:179|4:154,1,153.6,2|2,0:0|0:0,0:0:0:0:
256,192,96876,5,2,0:0:0:0:
256,192,96958,12,2,98194,0:0:0:0:
44,122,98359,5,0,1:0:0:0:
46,112,98442,1,0,1:0:0:0:
47,103,98524,1,8,1:2:0:0:
122,12,98689,5,0,1:0:0:0:
123,25,98771,1,0,1:0:0:0:
125,40,98854,1,8,1:2:0:0:
196,172,99019,5,0,1:0:0:0:
199,151,99101,1,0,1:0:0:0:
202,134,99183,1,10,1:2:0:0:
219,98,99266,1,10,1:2:0:0:
263,80,99348,1,2,0:0:0:0:
310,89,99431,1,2,0:0:0:0:
343,127,99513,1,2,0:0:0:0:
482,19,99678,5,2,0:0:0:0:
482,19,99760,1,2,0:0:0:0:
482,19,99843,1,2,0:0:0:0:
448,24,99925,1,2,0:0:0:0:
427,47,100008,1,2,1:2:0:0:
418,81,100090,1,2,0:0:0:0:
428,112,100172,1,10,1:2:0:0:
453,135,100255,1,2,0:0:0:0:
471,162,100337,1,2,0:0:0:0:
477,193,100420,1,2,0:0:0:0:
465,226,100502,2,0,P|421:220|387:221,1,48
255,295,100667,6,0,L|387:287,1,96,2|0,1:2|0:0,0:0:0:0:
440,309,100914,1,0,3:0:0:0:
440,309,100997,2,0,L|307:317,1,96,2|0,1:2|0:0,0:0:0:0:
283,379,101244,1,0,1:0:0:0:
283,379,101326,1,0,1:0:0:0:
197,196,101491,5,10,1:2:0:0:
110,287,101656,1,2,0:0:0:0:
81,277,101738,1,10,1:2:0:0:
64,251,101821,1,2,0:0:0:0:
58,215,101903,1,2,0:0:0:0:
67,181,101986,1,2,1:2:0:0:
93,156,102068,1,2,1:2:0:0:
128,148,102151,6,0,P|200:156|351:188,1,192,2|0,1:2|0:0,0:0:0:0:
188,57,102645,6,0,P|205:52|223:45,3,32,2|2|2|10,1:2|0:0|0:0|1:2,0:0:0:0:
98,8,102975,1,2,0:0:0:0:
317,28,103140,5,2,0:0:0:0:
349,13,103222,1,2,0:0:0:0:
388,21,103304,1,2,1:2:0:0:
408,57,103387,1,2,0:0:0:0:
404,91,103469,2,0,P|386:143|385:166,1,48,2|0,0:0|0:0,0:0:0:0:
411,355,103634,5,2,1:2:0:0:
454,369,103716,1,2,0:0:0:0:
494,345,103799,1,2,0:0:0:0:
501,292,103881,2,0,P|486:256|438:217,1,96,2|0,1:2|0:0,0:0:0:0:
268,233,104129,6,0,B|214:239|214:239|210:249|210:249|137:257,1,115.199996484375,8|0,1:2|0:0,0:0:0:0:
165,262,104376,2,0,B|214:256|214:256|218:246|218:246|272:240,1,115.199996484375,8|0,1:2|0:0,0:0:0:0:
363,230,104623,5,8,1:2:0:0:
363,230,104705,1,8,1:2:0:0:
363,230,104787,1,8,1:2:0:0:
188,0,105118,6,0,P|95:28|87:98,1,172.799994726563,10|0,1:2|0:0,0:0:0:0:
146,150,105447,1,0,1:0:0:0:
35,204,105612,1,2,1:2:0:0:
166,288,105777,1,2,0:0:0:0:
12,384,105942,6,0,P|8:286|-5:160,1,172.799994726563,14|0,1:2|0:0,0:0:0:0:
162,282,106271,2,0,P|171:235|183:203,1,57.5999982421876,2|0,1:2|0:0,0:0:0:0:
234,177,106436,1,8,1:2:0:0:
47,16,106601,5,2,0:0:0:0:
58,14,106683,1,2,1:2:0:0:
68,12,106766,1,10,1:2:0:0:
159,60,106931,5,10,1:2:0:0:
174,62,107013,1,10,1:2:0:0:
188,65,107096,1,10,1:2:0:0:
294,0,107260,5,6,1:2:0:0:
276,191,107590,5,10,1:2:0:0:
276,191,107672,1,2,1:2:0:0:
276,191,107755,1,2,1:2:0:0:
204,224,107920,1,2,1:2:0:0:
272,268,108085,1,10,1:2:0:0:
123,332,108249,6,0,P|57:323|-18:322,2,115.199996484375,2|2|8,1:2|0:0|1:2,0:0:0:0:
272,384,108744,5,2,1:2:0:0:
365,338,108909,1,2,1:2:0:0:
276,281,109074,1,10,1:2:0:0:
397,175,109238,6,0,P|463:184|538:185,2,115.199996484375,2|2|10,1:2|0:0|1:2,0:0:0:0:
371,135,109651,1,2,1:2:0:0:
327,122,109733,1,2,1:2:0:0:
279,144,109815,1,2,1:2:0:0:
269,195,109898,5,2,1:2:0:0:
162,234,110063,1,0,1:0:0:0:
215,7,110227,5,2,1:2:0:0:
191,3,110310,1,2,1:2:0:0:
168,0,110392,2,0,P|119:32|105:88,1,115.199996484375,10|0,1:2|1:0,0:0:0:0:
22,98,110640,1,2,1:2:0:0:
22,98,110722,2,0,P|97:148|122:208,1,115.199996484375,2|2,1:2|1:2,0:0:0:0:
53,295,110969,5,2,1:2:0:0:
53,295,111052,2,0,P|125:275|220:264,1,124.79999428711,10|0,1:2|1:0,0:0:0:0:
302,260,111299,1,2,1:2:0:0:
302,260,111381,2,0,P|215:251|128:231,1,134.399995898438,2|0,1:2|0:0,0:0:0:0:
88,165,111629,5,2,1:2:0:0:
88,165,111711,1,10,1:2:0:0:
155,20,111876,5,2,1:2:0:0:
206,0,111958,1,2,0:0:0:0:
258,15,112041,1,2,1:2:0:0:
283,68,112123,1,2,0:0:0:0:
279,120,112205,1,2,1:2:0:0:
245,171,112288,1,2,0:0:0:0:
242,229,112370,1,10,1:2:0:0:
269,283,112453,1,10,1:2:0:0:
329,296,112535,1,10,1:2:0:0:
381,261,112618,1,10,1:2:0:0:
478,292,112865,5,0,1:0:0:0:
491,290,112947,1,0,1:0:0:0:
504,288,113030,2,0,P|503:333|512:386,1,96,2|0,1:3|1:0,0:0:0:0:
511,383,113523,1,0,1:0:0:0:
325,364,113688,5,8,0:0:0:0:
246,308,113853,1,0,3:0:0:0:
249,297,113935,1,0,3:0:0:0:
157,365,114100,1,0,3:0:0:0:
148,363,114183,1,0,3:0:0:0:
139,361,114265,1,0,3:0:0:0:
130,359,114348,1,8,3:2:0:0:
9,367,114512,6,0,P|26:313|26:255,1,115.199996484375,2|0,3:2|3:0,0:0:0:0:
137,185,115007,1,8,0:0:0:0:
67,124,115172,1,0,3:0:0:0:
67,124,115254,2,0,P|57:86|62:33,1,86.3999973632813,0|0,3:0|0:0,0:0:0:0:
157,1,115666,5,8,3:2:0:0:
181,16,115748,1,0,3:0:0:0:
206,23,115830,1,0,3:0:0:0:
236,30,115913,1,0,3:0:0:0:
262,32,115995,1,0,3:0:0:0:
326,80,116161,1,0,3:0:0:0:
435,15,116326,5,8,3:2:0:0:
500,80,116490,1,0,3:0:0:0:
512,75,116573,1,0,3:0:0:0:
444,149,116738,1,0,3:0:0:0:
446,157,116820,1,0,3:0:0:0:
449,165,116902,1,0,3:0:0:0:
452,173,116985,1,8,3:2:0:0:
511,302,117150,6,0,P|456:287|399:281,1,115.199996484375,0|0,3:0|3:0,0:0:0:0:
285,210,117644,1,8,3:2:0:0:
384,269,117809,2,0,P|328:282|275:306,1,115.199996484375,0|0,3:0|0:0,0:0:0:0:
189,384,118304,5,0,3:0:0:0:
162,372,118386,1,0,3:0:0:0:
143,351,118468,1,0,3:0:0:0:
135,324,118551,1,0,3:0:0:0:
139,295,118633,6,0,P|150:245|147:195,1,100.799996923828,2|0,0:0|0:0,0:0:0:0:
139,177,118963,1,8,3:2:0:0:
59,72,119128,2,0,P|48:104|31:133,1,67.1999979492188,2|0,0:0|3:0,0:0:0:0:
0,209,119375,1,0,3:0:0:0:
0,209,119457,2,0,P|25:230|46:256,1,67.1999979492188,10|0,3:2|0:0,0:0:0:0:
189,62,119787,6,0,P|235:108|301:113,1,134.399995898438,2|0,3:2|0:0,0:0:0:0:
477,29,120282,1,8,3:2:0:0:
369,10,120446,1,0,3:0:0:0:
365,26,120529,1,0,3:0:0:0:
412,113,120694,1,0,3:0:0:0:
423,124,120777,1,0,3:0:0:0:
364,207,120941,5,0,3:0:0:0:
379,236,121023,1,0,3:0:0:0:
387,269,121105,1,0,3:0:0:0:
387,302,121188,1,0,3:0:0:0:
377,335,121271,6,0,P|317:342|260:321,1,122.400002334595,2|0,1:2|0:0,0:0:0:0:
241,338,121600,1,10,3:2:0:0:
160,201,121765,2,0,P|125:221|86:230,1,81.6000015563965,2|0,3:2|3:0,0:0:0:0:
6,311,122012,1,0,3:0:0:0:
6,311,122095,2,0,P|45:320|80:340,1,81.6000015563965,10|0,3:2|0:0,0:0:0:0:
257,190,122424,1,2,3:2:0:0:
70,67,122589,6,0,P|68:87|70:107,1,40.8000007781983,2|0,3:2|0:0,0:0:0:0:
66,144,122754,2,0,P|79:159|95:172,1,40.8000007781983,2|0,3:0|0:0,0:0:0:0:
120,201,122919,2,0,P|140:202|160:200,1,40.8000007781983,2|0,3:0|0:0,0:0:0:0:
349,152,123084,6,0,P|350:172|348:192,1,40.8000007781983,2|0,3:2|0:0,0:0:0:0:
353,229,123249,2,0,P|339:244|323:257,1,40.8000007781983,2|0,3:0|0:0,0:0:0:0:
299,286,123414,2,0,P|278:287|258:285,1,40.8000007781983,2|0,3:0|0:0,0:0:0:0:
202,368,123578,5,2,0:0:0:0:
161,334,123660,5,2,0:0:0:0:
113,312,123742,5,2,0:0:0:0:
61,303,123825,5,2,0:0:0:0:
8,306,123908,6,0,P|56:328|111:333,1,96,2|0,1:2|0:0,0:0:0:0:
285,181,124238,1,10,1:0:0:0:
115,40,124402,1,0,1:0:0:0:
106,50,124485,1,0,1:0:0:0:
97,60,124567,2,0,P|98:83|102:107,1,48,0|0,1:0|0:0,0:0:0:0:
174,187,124732,6,0,P|187:141|193:93,1,96,2|8,0:0|1:2,0:0:0:0:
79,239,125062,2,0,P|92:285|99:333,1,96,2|0,0:0|1:0,0:0:0:0:
285,181,125391,1,2,0:0:0:0:
297,173,125474,1,2,0:0:0:0:
309,165,125556,2,0,P|355:153|403:154,1,96,10|0,1:2|0:0,0:0:0:0:
61,5,125886,5,2,1:2:0:0:
31,41,125968,1,2,0:0:0:0:
30,87,126050,1,2,0:0:0:0:
57,124,126133,1,2,0:0:0:0:
102,137,126216,1,10,1:2:0:0:
146,150,126298,1,2,0:0:0:0:
174,187,126381,1,2,0:0:0:0:
173,233,126463,1,2,0:0:0:0:
144,270,126545,5,2,1:2:0:0:
54,309,126710,1,0,0:0:0:0:
230,384,126875,1,10,1:0:0:0:
385,281,127040,1,0,1:0:0:0:
394,291,127123,1,0,1:0:0:0:
403,301,127205,2,0,P|401:324|397:348,1,48,0|0,1:0|0:0,0:0:0:0:
296,220,127369,2,0,P|288:172|287:124,1,96,2|10,0:0|1:2,0:0:0:0:
506,11,127699,6,0,P|438:19|431:89,1,144,2|0,0:0|0:0,0:0:0:0:
485,143,128029,5,2,0:0:0:0:
510,185,128111,1,2,0:0:0:0:
489,232,128194,1,10,1:2:0:0:
439,240,128276,1,2,0:0:0:0:
402,204,128359,1,2,0:0:0:0:
366,168,128441,1,2,0:0:0:0:
314,177,128523,6,0,P|300:199|296:225,1,48,2|0,1:2|0:0,0:0:0:0:
375,363,128688,2,0,P|387:342|391:318,1,48,2|0,0:0|0:0,0:0:0:0:
240,113,128853,5,10,1:2:0:0:
221,166,128935,5,10,1:2:0:0:
175,200,129017,5,10,1:2:0:0:
119,202,129100,5,10,1:2:0:0:
70,170,129183,6,0,P|66:135|72:99,1,72.0000027465821,2|0,1:2|0:0,0:0:0:0:
106,326,129512,1,10,1:0:0:0:
34,289,129677,2,0,P|16:295|-1:297,2,36.0000013732911,0|0|0,3:0|3:0|3:0,0:0:0:0:
188,375,130007,1,2,3:2:0:0:
188,375,130089,1,2,3:2:0:0:
188,375,130172,1,10,3:2:0:0:
313,275,130337,6,0,P|364:292|417:297,1,108.000004119873,2|0,3:2|0:0,0:0:0:0:
433,314,130666,1,2,3:2:0:0:
499,193,130831,1,8,0:0:0:0:
446,330,130996,1,0,3:0:0:0:
396,136,131161,5,2,3:2:0:0:
391,109,131243,1,2,3:2:0:0:
391,82,131325,1,2,3:2:0:0:
394,55,131408,1,2,0:0:0:0:
401,29,131490,2,0,P|418:24|436:20,1,36.0000013732911,10|0,0:0|0:0,0:0:0:0:
309,64,131655,2,0,P|291:60|273:55,1,36.0000013732911,2|0,0:0|0:0,0:0:0:0:
164,1,131820,6,0,P|184:50|193:104,1,108.000004119873,2|0,1:2|0:0,0:0:0:0:
194,120,132150,1,10,3:2:0:0:
309,64,132315,6,0,P|301:117|282:167,1,108.000004119873,2|0,0:2|0:0,0:0:0:0:
275,182,132644,1,2,3:2:0:0:
402,191,132809,6,0,P|368:233|327:267,1,108.000004119873,10|0,0:2|0:0,0:0:0:0:
314,276,133139,1,2,0:0:0:0:
419,347,133304,6,0,P|369:367|315:376,1,108.000004119873,2|0,3:2|0:0,0:0:0:0:
300,377,133634,1,2,0:0:0:0:
206,242,133798,5,2,3:2:0:0:
215,257,133880,1,2,3:2:0:0:
221,273,133962,1,2,3:2:0:0:
226,290,134045,1,2,3:2:0:0:
228,308,134128,1,10,3:2:0:0:
177,372,134293,2,0,P|118:361|124:285,1,144.000005493164,2|0,0:0|0:0,0:0:0:0:
0,199,134787,6,0,P|35:204|69:215,1,72.0000027465821,10|0,0:0|3:0,0:0:0:0:
67,124,135034,1,0,3:0:0:0:
67,124,135117,2,0,P|102:133|135:147,1,72.0000027465821,10|0,0:0|3:0,0:0:0:0:
41,28,135363,1,0,3:0:0:0:
41,28,135446,2,0,P|76:33|110:44,1,72.0000027465821,10|2,0:0|3:2,0:0:0:0:
187,0,135694,1,2,3:2:0:0:
199,15,135776,6,0,L|194:50,1,36.0000013732911,2|0,1:2|0:0,0:0:0:0:
287,195,135941,1,2,1:2:0:0:
299,180,136024,1,2,1:2:0:0:
311,165,136106,2,0,L|306:130,1,36.0000013732911,10|0,0:2|0:0,0:0:0:0:
383,17,136271,5,2,1:2:0:0:
413,0,136353,1,2,1:2:0:0:
449,0,136435,1,10,1:2:0:0:
479,19,136518,1,2,1:2:0:0:
495,51,136600,1,2,1:2:0:0:
493,86,136683,1,2,1:2:0:0:
472,116,136765,5,10,1:2:0:0:
441,168,136847,5,10,1:2:0:0:
429,228,136929,5,10,1:2:0:0:
436,291,137012,5,10,1:2:0:0:
