osu file format v14

[General]
AudioFilename: audio.mp3
AudioLeadIn: 0
PreviewTime: 92493
Countdown: 1
SampleSet: Soft
StackLeniency: 0.2
Mode: 0
LetterboxInBreaks: 0
WidescreenStoryboard: 1

[Editor]
DistanceSpacing: 1.2
BeatDivisor: 8
GridSize: 32
TimelineZoom: 4.399998

[Metadata]
Title:Seiren ~Hisou no Tategoto~
TitleUnicode:セイレーン ~悲壮の竪琴~
Artist:penoreri
ArtistUnicode:ぺのれり
Creator:JinRong
Version:HEAVENLY
Source:SOUND VOLTEX IV HEAVENLY HAVEN
Tags:KONAMI BEMANI Ω Dimension
BeatmapID:1397648
BeatmapSetID:660008

[Difficulty]
HPDrainRate:5
CircleSize:4
OverallDifficulty:8
ApproachRate:9.7
SliderMultiplier:2
SliderTickRate:1

[Events]
//Background and Video events
0,0,"bg.jpg",0,0
//Break Periods
//Storyboard Layer 0 (Background)
//Storyboard Layer 1 (Fail)
//Storyboard Layer 2 (Pass)
//Storyboard Layer 3 (Foreground)
//Storyboard Layer 4 (Overlay)
//Storyboard Sound Samples

[TimingPoints]
40,280.373831775701,4,2,1,45,1,0
1161,-125,4,2,1,50,0,0
10133,-111.111111111111,4,2,1,50,0,0
16301,-99.9999999999999,4,2,1,50,0,0
17142,-125,4,2,1,50,0,0
17423,-100,4,2,1,50,0,0
17703,-125,4,2,1,50,0,0
17983,-100,4,2,1,50,0,0
19105,-166.666666666667,4,2,1,50,0,0
19525,-125,4,2,1,50,0,0
19946,-100,4,2,1,50,0,0
21348,-142.857142857143,4,2,1,50,0,0
21768,-111.111111111111,4,2,1,50,0,0
22189,-90.9090909090909,4,2,1,50,0,0
23591,-111.111111111111,4,2,1,50,0,0
24011,-100,4,2,1,50,0,0
24432,-90.9090909090909,4,2,1,50,0,0
24853,-83.3333333333333,4,2,1,50,0,0
26535,-125,4,2,1,50,0,0
30740,-111.111111111111,4,2,1,50,0,0
31161,-100,4,2,1,50,0,0
31582,-125,4,2,1,50,0,0
32563,-100,4,2,1,50,0,0
34806,-111.111111111111,4,2,1,50,0,0
36068,-125,4,2,1,50,0,0
37049,-100,4,2,1,50,0,0
39292,-125,4,2,1,50,0,0
41254,-100,4,2,1,50,0,0
42797,-125,4,2,1,50,0,0
43497,-100,4,2,1,50,0,0
43778,-100,4,2,1,50,0,1
69993,-100,4,2,1,50,0,0
70226,-125,4,2,1,50,0,0
78544,-111.111111111111,4,2,1,50,0,0
83591,-99.9999999999999,4,2,1,50,0,0
84572,-90.9090909090909,4,2,1,50,0,0
84993,-83.3333333333333,4,2,1,50,0,0
85554,-100,4,2,1,50,0,0
88077,-125,4,2,1,50,0,0
91301,-100,4,2,1,50,0,0
100960,645.161290322581,4,2,1,45,1,0
102895,-100,4,2,1,45,0,1
120960,-66.6666666666667,4,2,1,50,0,1
122250,-50,4,2,1,50,0,1
122734,-100,4,2,1,50,0,1
123540,-100,4,2,1,50,0,0
131282,-66.6666666666667,4,2,1,50,0,0

[HitObjects]
382,270,1161,5,0,0:0:0:0:
251,293,1301,1,0,0:0:0:0:
340,207,1441,1,0,0:0:0:0:
317,327,1582,1,0,0:0:0:0:
237,214,1722,2,0,P|295:212|342:219,1,80
192,298,2002,2,0,P|148:299|89:290,1,80
43,157,2282,5,0,0:0:0:0:
141,215,2423,1,0,0:0:0:0:
126,127,2563,1,0,0:0:0:0:
64,227,2703,1,0,0:0:0:0:
200,260,2843,2,0,L|212:181,1,80
323,59,3124,2,0,L|338:159,1,80
435,265,3404,5,0,0:0:0:0:
280,221,3544,1,0,0:0:0:0:
421,170,3684,1,0,0:0:0:0:
343,295,3825,1,0,0:0:0:0:
334,138,3965,2,0,B|297:132|297:132|237:138,1,80
115,244,4245,2,0,B|166:249|166:249|210:239,1,80
117,87,4525,5,0,0:0:0:0:
236,152,4666,1,0,0:0:0:0:
68,173,4806,1,0,0:0:0:0:
195,73,4946,1,0,0:0:0:0:
156,224,5086,5,0,0:0:0:0:
177,240,5180,1,0,0:0:0:0:
202,248,5273,1,0,0:0:0:0:
228,251,5367,1,0,0:0:0:0:
254,246,5460,1,0,0:0:0:0:
278,235,5554,1,0,0:0:0:0:
300,220,5647,2,0,P|307:170|301:127,1,80,4|0,0:0|0:0,0:0:0:0:
199,162,5927,5,0,0:0:0:0:
378,205,6068,1,0,0:0:0:0:
230,304,6208,2,0,L|319:292,1,80
471,223,6488,5,0,0:0:0:0:
380,348,6628,1,0,0:0:0:0:
343,199,6768,1,0,0:0:0:0:
467,311,6909,1,0,0:0:0:0:
301,282,7049,1,0,0:0:0:0:
423,155,7189,1,0,0:0:0:0:
242,209,7329,6,0,B|228:172|228:172|242:113,1,80
380,228,7610,2,0,B|389:264|389:264|378:323,1,80
203,344,7890,5,0,0:0:0:0:
214,327,7960,1,0,0:0:0:0:
228,313,8030,1,0,0:0:0:0:
244,302,8100,1,0,0:0:0:0:
263,296,8170,1,0,0:0:0:0:
282,294,8240,1,0,0:0:0:0:
302,296,8311,1,0,0:0:0:0:
321,301,8381,1,0,0:0:0:0:
339,309,8451,1,0,0:0:0:0:
236,189,8591,5,0,0:0:0:0:
414,112,8731,5,0,0:0:0:0:
414,139,8801,1,0,0:0:0:0:
404,165,8871,1,0,0:0:0:0:
384,185,8941,1,0,0:0:0:0:
358,197,9011,1,8,0:0:0:0:
329,199,9082,1,8,0:0:0:0:
301,193,9152,2,0,L|309:102,1,80,8|0,0:0|0:0,0:0:0:0:
127,44,9432,1,8,0:0:0:0:
131,71,9502,1,8,0:0:0:0:
135,98,9572,2,0,L|148:194,1,80,8|0,0:0|0:0,0:0:0:0:
103,346,9853,5,0,0:0:0:0:
128,335,9923,1,0,0:0:0:0:
154,325,9993,1,0,0:0:0:0:
179,314,10063,1,0,0:0:0:0:
208,304,10133,1,4,0:0:0:0:
77,185,10273,5,0,0:0:0:0:
249,218,10413,1,8,0:0:0:0:
171,69,10553,1,0,0:0:0:0:
128,243,10693,1,0,0:0:0:0:
288,127,10833,1,0,0:0:0:0:
299,305,10974,1,8,0:0:0:0:
174,179,11114,5,0,0:0:0:0:
154,346,11254,1,0,0:0:0:0:
294,203,11394,1,0,0:0:0:0:
94,180,11534,1,8,0:0:0:0:
223,308,11675,1,0,0:0:0:0:
239,114,11815,2,0,L|135:98,1,89.9999972534181
231,273,12096,2,0,L|330:263,1,89.9999972534181,8|0,0:0|0:0,0:0:0:0:
417,99,12375,5,0,0:0:0:0:
446,282,12516,1,0,0:0:0:0:
287,151,12656,1,8,0:0:0:0:
473,163,12797,1,0,0:0:0:0:
331,307,12937,6,0,B|342:269|342:269|329:211,1,89.9999972534181
211,53,13217,2,0,B|197:92|197:92|211:152,1,89.9999972534181,8|0,0:0|0:0,0:0:0:0:
255,323,13497,2,0,P|212:311|161:280,1,89.9999972534181
291,138,13778,2,0,P|345:118|398:115,1,89.9999972534181,8|0,0:0|0:0,0:0:0:0:
245,241,14058,5,0,0:0:0:0:
215,230,14128,1,0,0:0:0:0:
186,217,14198,1,0,0:0:0:0:
161,197,14268,1,0,0:0:0:0:
136,176,14339,1,8,0:0:0:0:
114,152,14409,1,0,0:0:0:0:
94,126,14479,1,0,0:0:0:0:
77,99,14549,1,0,0:0:0:0:
57,74,14619,2,0,B|43:131|43:131|69:269,1,179.999994506836,4|8,0:0|0:0,0:0:0:0:
274,252,15040,2,0,B|280:217|280:217|268:159,1,89.9999972534181
174,193,15320,5,0,0:0:0:0:
360,126,15460,1,8,0:0:0:0:
323,320,15600,2,0,B|272:329|272:329|146:300,1,179.999994506836
42,109,16021,1,8,0:0:0:0:
248,167,16161,5,8,0:0:0:0:
232,182,16231,1,8,0:0:0:0:
211,195,16301,2,0,P|141:168|135:77,1,150,8|0,0:0|0:0,0:0:0:0:
196,52,16582,2,0,P|261:56|281:153,1,150
305,219,16862,2,0,L|188:196,1,100,4|0,0:0|0:0,0:0:0:0:
54,328,17142,2,0,B|94:312|94:312|188:322,1,120,8|0,0:0|0:0,0:0:0:0:
256,346,17423,2,0,L|272:248,1,100,4|0,0:0|0:0,0:0:0:0:
67,123,17703,2,0,B|53:163|53:163|80:249,1,120,8|0,0:0|0:0,0:0:0:0:
310,188,17983,5,4,0:0:0:0:
288,174,18054,1,0,0:0:0:0:
263,168,18124,1,0,0:0:0:0:
238,168,18194,1,0,0:0:0:0:
215,178,18264,2,0,L|189:39,1,133.333333333333,8|8,0:0|0:0,0:0:0:0:
190,46,18497,1,8,0:0:0:0:
190,46,18544,2,0,P|231:47|266:61,1,66.6666666666667,12|8,0:0|0:0,0:0:0:0:
334,164,18731,2,0,P|322:202|293:225,1,66.6666666666667
184,283,18918,2,0,P|150:274|108:242,1,66.6666666666667
47,145,19105,6,0,L|180:127,1,119.999996337891,4|0,0:0|0:0,0:0:0:0:
389,145,19525,2,0,P|357:78|268:93,1,160,4|0,0:0|0:0,0:0:0:0:
140,253,19946,2,0,B|117:102|117:102|176:135,1,200,4|0,0:0|0:0,0:0:0:0:
317,266,20367,5,0,0:0:0:0:
338,278,20437,1,0,0:0:0:0:
362,280,20507,1,8,0:0:0:0:
386,275,20577,1,0,0:0:0:0:
408,264,20647,1,0,0:0:0:0:
426,246,20717,1,0,0:0:0:0:
434,222,20787,1,0,0:0:0:0:
435,197,20857,1,0,0:0:0:0:
428,173,20927,1,0,0:0:0:0:
412,153,20997,1,0,0:0:0:0:
388,143,21068,1,8,0:0:0:0:
363,141,21138,1,0,0:0:0:0:
338,143,21208,1,0,0:0:0:0:
314,150,21278,1,0,0:0:0:0:
300,162,21348,6,0,P|256:173|161:128,1,139.999995727539,4|0,0:0|0:0,0:0:0:0:
371,47,21768,2,0,L|384:248,1,179.999994506836,4|0,0:0|0:0,0:0:0:0:
178,268,22189,2,0,B|249:247|249:247|398:310,1,220.000006713867,4|0,0:0|0:0,0:0:0:0:
157,345,22610,5,0,0:0:0:0:
129,340,22680,1,0,0:0:0:0:
104,327,22750,1,8,0:0:0:0:
82,309,22820,1,0,0:0:0:0:
67,285,22890,1,0,0:0:0:0:
56,259,22960,1,0,0:0:0:0:
56,231,23030,1,0,0:0:0:0:
62,204,23100,1,0,0:0:0:0:
75,180,23170,1,0,0:0:0:0:
99,150,23240,1,0,0:0:0:0:
139,130,23311,1,8,0:0:0:0:
188,126,23381,1,0,0:0:0:0:
240,141,23451,1,0,0:0:0:0:
286,179,23521,1,0,0:0:0:0:
319,221,23591,6,0,B|347:176|347:176|318:37,1,179.999994506836,4|8,0:0|0:0,0:0:0:0:
220,267,24011,2,0,L|433:257,1,200,4|8,0:0|0:0,0:0:0:0:
158,182,24432,2,0,B|124:339|124:339|61:278,1,220.000006713867,4|8,0:0|0:0,0:0:0:0:
54,86,24853,2,0,P|185:53|256:141,1,239.999992675781,4|8,0:0|0:0,0:0:0:0:
310,332,25273,5,4,0:0:0:0:
252,349,25343,1,0,0:0:0:0:
198,340,25413,1,0,0:0:0:0:
157,314,25483,1,0,0:0:0:0:
134,277,25554,1,8,0:0:0:0:
134,241,25624,1,0,0:0:0:0:
147,214,25694,1,0,0:0:0:0:
169,194,25764,1,0,0:0:0:0:
196,182,25834,1,0,0:0:0:0:
401,240,25974,5,0,0:0:0:0:
385,214,26044,1,0,0:0:0:0:
360,196,26114,1,8,0:0:0:0:
332,183,26184,1,0,0:0:0:0:
302,177,26254,1,0,0:0:0:0:
271,180,26325,1,0,0:0:0:0:
242,189,26395,1,0,0:0:0:0:
214,201,26465,1,0,0:0:0:0:
190,216,26535,6,0,L|173:127,1,80,0|8,0:0|0:0,0:0:0:0:
243,70,26745,2,0,L|252:115,1,40
402,314,26955,6,0,L|336:336,1,53.3333333333333,0|8,0:0|0:0,0:0:0:0:
271,216,27142,2,0,L|190:216,1,53.3333333333333,8|8,0:0|0:0,0:0:0:0:
148,334,27329,2,0,L|78:305,1,53.3333333333333,8|8,0:0|0:0,0:0:0:0:
42,164,27516,2,0,L|47:233,1,53.3333333333333,8|0,0:0|0:0,0:0:0:0:
200,268,27703,2,0,L|209:199,1,53.3333333333333
222,140,27867,5,0,0:0:0:0:
222,140,27937,1,0,0:0:0:0:
222,140,28007,1,0,0:0:0:0:
222,140,28077,1,4,0:0:0:0:
304,218,28217,1,0,0:0:0:0:
318,113,28357,1,8,0:0:0:0:
222,223,28497,5,4,0:0:0:0:
376,179,28638,1,0,0:0:0:0:
254,69,28778,1,8,0:0:0:0:
284,278,28918,5,4,0:0:0:0:
393,100,29058,1,0,0:0:0:0:
172,122,29198,1,0,0:0:0:0:
365,306,29339,5,4,0:0:0:0:
337,50,29479,1,8,0:0:0:0:
169,231,29619,1,0,0:0:0:0:
440,250,29759,1,4,0:0:0:0:
202,43,29899,5,0,0:0:0:0:
178,57,29969,1,0,0:0:0:0:
160,79,30040,1,8,0:0:0:0:
154,106,30110,1,0,0:0:0:0:
161,132,30180,1,0,0:0:0:0:
178,153,30250,1,0,0:0:0:0:
201,167,30320,6,0,B|329:140|329:140|292:111,1,160,4|8,0:0|0:0,0:0:0:0:
262,334,30740,2,0,P|189:327|175:218,1,179.999994506836,4|8,0:0|0:0,0:0:0:0:
384,181,31161,2,0,P|407:115|280:61,1,200,4|0,0:0|0:0,0:0:0:0:
126,121,31582,2,0,L|188:129,1,40
154,162,31722,2,0,L|189:166,1,26.6666666666667,8|0,0:0|0:0,0:0:0:0:
178,203,31815,2,0,L|204:206,1,26.6666666666667
40,101,32002,5,0,0:0:0:0:
239,64,32142,1,0,0:0:0:0:
147,250,32282,1,8,0:0:0:0:
108,66,32423,2,0,L|101:16,2,26.6666666666667
86,149,32563,6,0,L|211:163,1,100,4|0,0:0|0:0,0:0:0:0:
400,180,32843,1,8,0:0:0:0:
239,57,32983,1,4,0:0:0:0:
213,243,33124,1,0,0:0:0:0:
373,108,33264,1,8,0:0:0:0:
391,318,33404,2,0,L|258:292,1,100,4|0,0:0|0:0,0:0:0:0:
88,253,33684,1,8,0:0:0:0:
205,58,33825,5,4,0:0:0:0:
204,87,33895,1,0,0:0:0:0:
213,115,33965,1,0,0:0:0:0:
232,137,34035,1,0,0:0:0:0:
255,155,34105,1,8,0:0:0:0:
283,164,34175,1,0,0:0:0:0:
312,163,34245,5,0,0:0:0:0:
330,154,34315,1,0,0:0:0:0:
347,143,34385,1,0,0:0:0:0:
365,135,34455,1,0,0:0:0:0:
383,127,34525,1,8,0:0:0:0:
401,117,34596,1,0,0:0:0:0:
418,108,34666,1,0,0:0:0:0:
435,98,34736,1,0,0:0:0:0:
449,88,34806,6,0,B|469:130|469:130|454:249,1,134.999995880127
443,292,35086,2,0,P|383:281|333:256,1,89.9999972534181,2|0,0:0|0:0,0:0:0:0:
196,347,35367,2,0,P|160:306|160:240,1,89.9999972534181,2|0,0:0|0:0,0:0:0:0:
41,147,35647,2,0,P|54:101|81:66,1,89.9999972534181,2|0,0:0|0:0,0:0:0:0:
223,39,35927,1,4,0:0:0:0:
96,196,36068,6,0,L|157:185,1,40
263,106,36208,2,0,L|211:116,1,40
138,260,36348,2,0,L|192:247,1,40
308,171,36488,2,0,L|256:181,1,40
193,320,36628,2,4,L|259:307,1,40,0|0,0:0|0:0,0:0:0:0:
351,234,36768,2,0,L|299:242,1,40
301,346,36909,2,0,L|365:333,1,40
427,261,37049,6,0,B|456:103|456:103|388:127,1,200,4|8,0:0|0:0,0:0:0:0:
236,209,37469,1,0,0:0:0:0:
305,45,37610,6,0,B|269:37|269:37|200:44,1,100,4|8,0:0|0:0,0:0:0:0:
38,161,37890,1,0,0:0:0:0:
244,134,38030,1,0,0:0:0:0:
125,289,38170,6,0,B|161:297|161:297|252:285,1,100,12|0,0:0|0:0,0:0:0:0:
437,235,38451,1,0,0:0:0:0:
221,208,38591,1,8,0:0:0:0:
363,351,38731,6,0,L|369:236,1,100,4|0,0:0|0:0,0:0:0:0:
268,87,39011,1,8,0:0:0:0:
301,74,39082,1,8,0:0:0:0:
334,64,39152,1,8,0:0:0:0:
367,55,39222,1,8,0:0:0:0:
394,49,39292,2,0,P|383:102|352:152,1,80
266,231,39572,5,0,0:0:0:0:
160,112,39712,2,0,L|127:25,3,80
41,151,40273,1,0,0:0:0:0:
183,204,40413,1,0,0:0:0:0:
60,269,40554,2,0,L|37:367,3,80
193,295,41114,5,0,0:0:0:0:
193,295,41184,1,0,0:0:0:0:
193,295,41254,2,0,P|268:253|250:165,1,150,8|0,0:0|0:0,0:0:0:0:
245,123,41535,5,8,0:0:0:0:
337,349,41675,1,8,0:0:0:0:
122,222,41815,1,8,0:0:0:0:
365,180,41955,1,8,0:0:0:0:
365,180,42236,5,8,0:0:0:0:
154,40,42376,1,8,0:0:0:0:
126,293,42516,1,8,0:0:0:0:
130,269,42797,5,8,0:0:0:0:
149,255,42867,1,8,0:0:0:0:
172,250,42937,1,0,0:0:0:0:
195,250,43007,1,0,0:0:0:0:
218,256,43077,1,0,0:0:0:0:
237,270,43147,1,0,0:0:0:0:
250,290,43217,1,2,0:0:0:0:
258,312,43287,2,0,L|359:330,1,80
367,329,43497,5,0,0:0:0:0:
401,319,43568,1,0,0:0:0:0:
437,292,43638,1,0,0:0:0:0:
461,242,43708,1,0,0:0:0:0:
473,178,43778,2,0,B|438:144|438:144|282:165,1,200,4|8,0:0|0:0,0:0:0:0:
41,126,44198,2,0,B|74:141|74:141|173:120,1,100,4|0,0:0|0:0,0:0:0:0:
351,81,44479,1,0,0:0:0:0:
279,331,44619,6,0,P|190:296|174:199,1,200,12|0,0:0|0:0,0:0:0:0:
186,169,44969,1,0,0:0:0:0:
211,144,45040,1,0,0:0:0:0:
243,130,45110,1,0,0:0:0:0:
277,126,45180,2,0,L|284:199,1,50,10|0,0:0|0:0,0:0:0:0:
88,293,45320,5,0,0:0:0:0:
59,264,45390,1,0,0:0:0:0:
44,226,45460,2,0,L|104:217,1,50,2|0,0:0|0:0,0:0:0:0:
295,312,45600,5,0,0:0:0:0:
258,338,45670,1,0,0:0:0:0:
214,348,45740,2,0,L|205:289,1,50,10|0,0:0|0:0,0:0:0:0:
322,126,45881,5,0,0:0:0:0:
366,148,45951,1,0,0:0:0:0:
398,185,46021,2,0,L|185:205,1,200,2|8,0:0|0:0,0:0:0:0:
49,292,46441,6,0,P|91:335|148:328,1,100
239,107,46722,2,0,P|191:68|141:62,1,100,0|8,0:0|0:0,0:0:0:0:
359,215,47002,2,0,L|480:187,1,100
287,332,47282,5,0,0:0:0:0:
253,343,47353,1,0,0:0:0:0:
218,339,47423,1,8,0:0:0:0:
187,322,47493,1,0,0:0:0:0:
167,293,47563,1,0,0:0:0:0:
157,259,47633,1,0,0:0:0:0:
151,224,47703,2,0,L|145:164,1,50
336,75,47843,1,0,0:0:0:0:
339,109,47913,1,0,0:0:0:0:
344,143,47983,2,0,L|358:262,1,100,8|0,0:0|0:0,0:0:0:0:
123,200,48264,2,0,B|277:182|277:182|224:150,1,200,0|8,0:0|0:0,0:0:0:0:
49,62,48684,5,4,0:0:0:0:
116,290,48825,1,0,0:0:0:0:
278,109,48965,1,0,0:0:0:0:
40,137,49105,1,8,0:0:0:0:
274,284,49245,1,0,0:0:0:0:
41,244,49385,6,0,P|88:235|163:191,1,100
353,141,49666,2,0,P|302:165|253:216,1,100,8|0,0:0|0:0,0:0:0:0:
130,341,49946,2,0,P|168:296|186:244,1,100
252,42,50226,2,0,P|224:98|212:154,1,100,8|0,0:0|0:0,0:0:0:0:
286,343,50507,2,0,P|360:310|333:206,1,200,0|8,0:0|0:0,0:0:0:0:
76,179,50927,1,0,0:0:0:0:
270,39,51068,2,0,B|287:94|287:94|241:244,1,200,0|8,0:0|0:0,0:0:0:0:
454,337,51488,5,8,0:0:0:0:
440,299,51558,1,8,0:0:0:0:
429,260,51628,2,0,B|398:114|398:114|474:147,1,200,0|8,0:0|0:0,0:0:0:0:
294,338,52049,2,0,B|201:377|197:243|84:292,1,200
155,48,52469,5,8,0:0:0:0:
110,57,52540,1,8,0:0:0:0:
67,83,52610,1,8,0:0:0:0:
47,134,52680,1,8,0:0:0:0:
47,193,52750,2,0,P|169:169|272:134,1,200,4|8,0:0|0:0,0:0:0:0:
467,182,53170,2,0,B|308:219|308:219|321:162,1,200,4|0,0:0|0:0,0:0:0:0:
99,56,53591,6,0,L|130:277,1,200,12|0,0:0|0:0,0:0:0:0:
142,285,53941,1,0,0:0:0:0:
169,306,54011,1,0,0:0:0:0:
203,312,54082,1,0,0:0:0:0:
236,302,54152,2,0,L|245:246,1,50,10|0,0:0|0:0,0:0:0:0:
135,83,54292,5,0,0:0:0:0:
101,105,54362,1,0,0:0:0:0:
78,138,54432,2,0,L|156:156,1,50,2|0,0:0|0:0,0:0:0:0:
358,72,54572,5,0,0:0:0:0:
320,46,54642,1,0,0:0:0:0:
275,44,54712,2,0,L|260:109,1,50,10|0,0:0|0:0,0:0:0:0:
345,285,54853,5,0,0:0:0:0:
385,256,54923,1,0,0:0:0:0:
411,213,54993,2,0,L|201:180,1,200,2|8,0:0|0:0,0:0:0:0:
392,39,55413,2,0,B|409:78|409:78|392:158,1,100
192,349,55694,2,0,B|178:314|178:314|194:232,1,100,0|8,0:0|0:0,0:0:0:0:
459,302,55974,2,0,P|328:327|287:262,1,225
145,68,56395,2,0,P|119:56|44:58,1,100,8|0,0:0|0:0,0:0:0:0:
276,204,56675,5,0,0:0:0:0:
41,252,56815,1,0,0:0:0:0:
221,46,56955,1,8,0:0:0:0:
215,294,57096,1,0,0:0:0:0:
39,119,57236,2,0,B|128:67|129:189|255:114,1,200,4|8,0:0|0:0,0:0:0:0:
459,227,57656,5,0,0:0:0:0:
459,227,57726,1,0,0:0:0:0:
464,230,57797,1,0,0:0:0:0:
286,43,57937,1,0,0:0:0:0:
248,272,58077,1,8,0:0:0:0:
439,90,58217,1,0,0:0:0:0:
177,59,58357,2,0,L|197:175,1,100
296,346,58638,5,8,0:0:0:0:
73,272,58778,2,0,P|128:243|203:249,1,100
367,152,59058,2,0,P|319:140|248:151,1,100,0|8,0:0|0:0,0:0:0:0:
68,72,59339,1,0,0:0:0:0:
166,262,59479,6,0,P|123:200|208:123,1,200,4|8,0:0|0:0,0:0:0:0:
456,158,59899,2,0,B|470:197|470:197|449:262,1,100
260,88,60180,2,0,B|284:58|284:58|349:44,1,100,0|8,0:0|0:0,0:0:0:0:
313,304,60460,2,0,B|276:290|276:290|236:222,1,100
457,82,60740,5,8,0:0:0:0:
441,140,60811,1,8,0:0:0:0:
402,179,60881,1,0,0:0:0:0:
353,191,60951,1,0,0:0:0:0:
309,181,61021,1,0,0:0:0:0:
275,159,61091,1,0,0:0:0:0:
255,129,61161,1,0,0:0:0:0:
242,101,61231,1,0,0:0:0:0:
222,86,61301,1,0,0:0:0:0:
197,79,61371,1,0,0:0:0:0:
172,83,61441,1,0,0:0:0:0:
148,92,61511,1,0,0:0:0:0:
130,110,61582,1,0,0:0:0:0:
124,134,61652,1,0,0:0:0:0:
129,158,61722,2,0,B|197:168|197:168|365:126,1,200,4|8,0:0|0:0,0:0:0:0:
68,42,62142,5,0,0:0:0:0:
71,76,62212,1,0,0:0:0:0:
75,110,62282,1,0,0:0:0:0:
297,65,62423,1,0,0:0:0:0:
202,271,62563,1,8,0:0:0:0:
424,287,62703,2,0,P|405:220|277:217,1,200
121,340,63124,6,0,P|123:277|146:224,1,100,8|0,0:0|0:0,0:0:0:0:
295,38,63404,2,0,P|289:94|268:149,1,100
39,208,63684,2,0,P|86:180|143:168,1,100,8|0,0:0|0:0,0:0:0:0:
381,213,63965,2,0,P|287:250|218:174,1,200,0|8,0:0|0:0,0:0:0:0:
461,336,64525,6,0,B|473:303|473:303|458:221,1,100,2|0,0:0|0:0,0:0:0:0:
240,154,64806,2,0,B|226:191|226:191|246:262,1,100,10|0,0:0|0:0,0:0:0:0:
465,104,65086,2,0,P|412:96|362:102,1,100,2|0,0:0|0:0,0:0:0:0:
155,218,65367,1,10,0:0:0:0:
368,331,65507,2,0,B|382:173|382:173|437:215,1,200,4|0,0:0|0:0,0:0:0:0:
176,290,65927,5,8,0:0:0:0:
134,307,65997,1,8,0:0:0:0:
83,299,66068,1,8,0:0:0:0:
53,252,66138,1,8,0:0:0:0:
54,192,66208,2,0,L|281:165,1,200,4|8,0:0|0:0,0:0:0:0:
470,64,66628,2,0,P|399:42|323:139,1,200,4|0,0:0|0:0,0:0:0:0:
440,325,67049,2,0,B|469:277|469:277|424:116,1,200,12|0,0:0|0:0,0:0:0:0:
188,226,67469,5,0,0:0:0:0:
204,257,67540,1,0,0:0:0:0:
233,276,67610,1,8,0:0:0:0:
266,285,67680,1,0,0:0:0:0:
300,282,67750,1,0,0:0:0:0:
332,268,67820,1,0,0:0:0:0:
352,239,67890,2,0,L|374:135,1,100,2|0,0:0|0:0,0:0:0:0:
396,63,68100,2,0,L|343:58,1,50,0|8,0:0|0:0,0:0:0:0:
193,153,68240,2,0,L|269:145,1,50
423,252,68381,5,0,0:0:0:0:
423,252,68451,2,0,B|265:223|265:223|293:282,1,200,4|8,0:0|0:0,0:0:0:0:
471,76,68871,2,0,P|455:137|323:145,1,200,4|8,0:0|0:0,0:0:0:0:
114,75,69292,2,0,P|159:51|217:40,1,100,4|0,0:0|0:0,0:0:0:0:
174,282,69572,2,0,P|130:314|43:317,1,100,4|0,0:0|0:0,0:0:0:0:
262,108,69853,1,8,0:0:0:0:
37,61,69993,6,0,L|50:163,1,100,2|8,0:0|0:0,0:0:0:0:
83,305,70226,2,0,L|164:320,1,53.3333333333333
203,165,70413,2,0,L|136:155,1,53.3333333333333,2|0,0:0|0:0,0:0:0:0:
225,300,70600,2,0,L|307:314,1,53.3333333333333,0|2,0:0|0:0,0:0:0:0:
345,145,70787,5,0,0:0:0:0:
361,117,70881,1,0,0:0:0:0:
395,102,70974,1,0,0:0:0:0:
437,104,71068,1,0,0:0:0:0:
469,139,71161,1,0,0:0:0:0:
473,191,71254,1,8,0:0:0:0:
427,219,71348,5,0,0:0:0:0:
386,206,71441,1,0,0:0:0:0:
348,206,71535,1,0,0:0:0:0:
317,214,71628,1,0,0:0:0:0:
292,225,71722,1,0,0:0:0:0:
260,280,71815,5,0,0:0:0:0:
216,310,71909,1,0,0:0:0:0:
174,316,72002,1,0,0:0:0:0:
144,303,72096,1,0,0:0:0:0:
132,285,72189,1,0,0:0:0:0:
135,221,72282,5,0,0:0:0:0:
77,206,72376,1,8,0:0:0:0:
43,164,72469,1,0,0:0:0:0:
47,115,72563,1,0,0:0:0:0:
71,82,72656,1,0,0:0:0:0:
103,63,72750,1,0,0:0:0:0:
134,60,72843,1,0,0:0:0:0:
158,71,72937,1,0,0:0:0:0:
172,99,73030,5,0,0:0:0:0:
163,135,73124,1,0,0:0:0:0:
153,176,73217,1,0,0:0:0:0:
145,219,73311,1,0,0:0:0:0:
132,270,73404,1,0,0:0:0:0:
118,326,73497,2,0,L|182:317,1,53.3333333333333,8|0,0:0|0:0,0:0:0:0:
320,289,73684,5,0,0:0:0:0:
266,282,73778,1,0,0:0:0:0:
230,249,73871,1,0,0:0:0:0:
212,209,73965,1,0,0:0:0:0:
219,172,74058,1,0,0:0:0:0:
269,132,74152,5,0,0:0:0:0:
308,175,74245,1,0,0:0:0:0:
358,192,74339,1,0,0:0:0:0:
405,192,74432,1,0,0:0:0:0:
441,170,74525,1,0,0:0:0:0:
465,141,74619,1,8,0:0:0:0:
463,98,74712,1,0,0:0:0:0:
435,58,74806,1,0,0:0:0:0:
382,49,74899,1,0,0:0:0:0:
327,71,74993,1,0,0:0:0:0:
311,132,75086,1,0,0:0:0:0:
341,194,75180,5,0,0:0:0:0:
342,231,75273,1,0,0:0:0:0:
323,269,75367,1,0,0:0:0:0:
283,295,75460,1,0,0:0:0:0:
229,288,75554,1,0,0:0:0:0:
188,245,75647,1,0,0:0:0:0:
178,182,75740,1,8,0:0:0:0:
196,125,75834,1,0,0:0:0:0:
183,73,75927,1,0,0:0:0:0:
139,51,76021,1,0,0:0:0:0:
96,56,76114,1,0,0:0:0:0:
64,76,76208,1,0,0:0:0:0:
44,101,76301,2,0,L|54:161,2,40
230,245,76582,5,0,0:0:0:0:
192,282,76675,1,0,0:0:0:0:
144,288,76768,1,0,0:0:0:0:
105,268,76862,1,8,0:0:0:0:
86,235,76955,1,0,0:0:0:0:
84,202,77049,1,0,0:0:0:0:
89,175,77142,1,0,0:0:0:0:
106,135,77236,1,0,0:0:0:0:
143,96,77329,1,0,0:0:0:0:
203,73,77423,5,4,0:0:0:0:
192,135,77516,1,0,0:0:0:0:
237,168,77610,1,0,0:0:0:0:
284,171,77703,1,0,0:0:0:0:
339,138,77797,5,4,0:0:0:0:
346,195,77890,1,0,0:0:0:0:
311,235,77983,1,8,0:0:0:0:
263,243,78077,1,0,0:0:0:0:
205,214,78170,5,4,0:0:0:0:
203,272,78264,1,0,0:0:0:0:
237,312,78357,2,0,L|223:351,1,26.6666666666667,0|8,0:0|0:0,0:0:0:0:
285,314,78451,2,0,L|273:346,1,26.6666666666667,0|8,0:0|0:0,0:0:0:0:
325,301,78544,6,0,L|319:243,1,40
406,173,78684,2,0,L|402:229,1,40
440,295,78825,2,0,L|375:289,1,40,8|0,0:0|0:0,0:0:0:0:
284,192,78965,2,0,L|345:185,1,40
448,104,79105,2,0,L|337:92,1,89.9999972534181,0|8,0:0|0:0,0:0:0:0:
145,123,79385,5,8,0:0:0:0:
135,153,79455,1,8,0:0:0:0:
138,184,79525,1,8,0:0:0:0:
154,211,79596,1,8,0:0:0:0:
181,226,79666,2,0,L|297:213,1,89.9999972534181
448,347,79946,2,0,L|342:334,1,89.9999972534181,8|0,0:0|0:0,0:0:0:0:
165,308,80226,1,0,0:0:0:0:
343,169,80367,2,0,P|350:228|340:273,1,89.9999972534181,0|8,0:0|0:0,0:0:0:0:
141,199,80647,2,0,P|134:146|143:104,1,89.9999972534181
343,64,80927,6,0,L|339:28,1,22.4999993133545
377,67,80997,2,0,L|376:29,1,22.4999993133545
414,81,81068,1,8,0:0:0:0:
440,104,81138,1,0,0:0:0:0:
452,137,81208,1,0,0:0:0:0:
450,172,81278,1,0,0:0:0:0:
437,205,81348,1,0,0:0:0:0:
216,142,81488,5,0,0:0:0:0:
183,125,81558,1,0,0:0:0:0:
147,122,81628,1,8,0:0:0:0:
111,130,81698,1,0,0:0:0:0:
80,148,81768,1,0,0:0:0:0:
56,175,81839,1,0,0:0:0:0:
46,209,81909,1,0,0:0:0:0:
280,188,82049,5,0,0:0:0:0:
112,40,82189,1,8,0:0:0:0:
108,253,82329,2,0,B|146:259|146:259|210:249,1,89.9999972534181
372,120,82610,2,0,B|338:109|338:109|266:118,1,89.9999972534181,0|8,0:0|0:0,0:0:0:0:
386,319,82890,6,0,L|405:222,1,89.9999972534181
281,43,83170,1,0,0:0:0:0:
474,160,83311,1,8,0:0:0:0:
242,216,83451,1,0,0:0:0:0:
421,52,83591,1,0,0:0:0:0:
430,291,83731,5,0,0:0:0:0:
405,265,83801,1,0,0:0:0:0:
370,244,83871,1,8,0:0:0:0:
325,235,83941,1,0,0:0:0:0:
275,235,84011,1,8,0:0:0:0:
221,249,84082,1,8,0:0:0:0:
167,275,84152,6,0,B|145:225|145:225|165:80,1,200,12|8,0:0|0:0,0:0:0:0:
265,275,84572,6,0,P|186:349|87:314,1,220.000006713867,4|0,0:0|0:0,0:0:0:0:
48,86,84993,6,0,B|261:234|192:-12|405:123,1,359.999989013672,14|0,0:0|0:0,0:0:0:0:
242,338,85554,6,0,B|221:304|221:304|241:218,1,100,8|0,0:0|0:0,0:0:0:0:
451,146,85834,2,0,B|463:182|463:182|441:274,1,100,4|0,0:0|0:0,0:0:0:0:
219,166,86114,5,8,0:0:0:0:
216,141,86184,1,8,0:0:0:0:
212,116,86254,1,8,0:0:0:0:
209,90,86325,1,8,0:0:0:0:
205,65,86395,1,0,0:0:0:0:
149,43,86465,5,0,0:0:0:0:
94,51,86535,1,0,0:0:0:0:
54,80,86605,1,0,0:0:0:0:
39,122,86675,1,8,0:0:0:0:
46,161,86745,1,0,0:0:0:0:
65,189,86815,1,0,0:0:0:0:
88,207,86885,1,0,0:0:0:0:
111,216,86955,5,0,0:0:0:0:
132,204,87025,1,0,0:0:0:0:
156,195,87096,1,8,0:0:0:0:
180,193,87166,1,0,0:0:0:0:
204,195,87236,1,0,0:0:0:0:
225,206,87306,1,0,0:0:0:0:
241,224,87376,1,0,0:0:0:0:
251,246,87446,1,0,0:0:0:0:
251,280,87516,1,0,0:0:0:0:
236,311,87586,1,0,0:0:0:0:
206,329,87656,1,0,0:0:0:0:
171,336,87726,1,0,0:0:0:0:
136,329,87797,1,8,0:0:0:0:
105,311,87867,1,0,0:0:0:0:
77,281,87937,1,0,0:0:0:0:
62,238,88007,1,0,0:0:0:0:
53,188,88077,6,0,P|106:170|148:162,1,80,0|8,0:0|0:0,0:0:0:0:
160,140,88287,2,0,P|205:126|235:120,1,60
246,105,88451,1,0,0:0:0:0:
155,270,88638,5,0,0:0:0:0:
405,221,88778,1,0,0:0:0:0:
173,85,88918,5,0,0:0:0:0:
217,319,89058,1,0,0:0:0:0:
371,113,89198,5,0,0:0:0:0:
333,347,89339,1,8,0:0:0:0:
158,163,89479,5,0,0:0:0:0:
427,198,89619,1,0,0:0:0:0:
196,325,89759,5,8,0:0:0:0:
173,83,89899,1,0,0:0:0:0:
347,278,90040,5,0,0:0:0:0:
377,48,90180,1,8,0:0:0:0:
377,48,90250,1,0,0:0:0:0:
377,48,90320,1,0,0:0:0:0:
182,190,90460,1,0,0:0:0:0:
434,217,90600,6,0,L|362:210,1,53.3333333333333,8|0,0:0|0:0,0:0:0:0:
249,305,90775,2,0,L|312:297,1,60,0|8,0:0|0:0,0:0:0:0:
464,345,91021,1,0,0:0:0:0:
464,345,91068,2,0,L|476:291,1,53.3333333333333
433,95,91301,6,0,L|449:47,2,50,0|0|8,0:0|0:0|0:0,0:0:0:0:
418,139,91535,1,0,0:0:0:0:
389,175,91628,1,0,0:0:0:0:
346,194,91722,1,0,0:0:0:0:
293,183,91815,1,0,0:0:0:0:
253,137,91909,1,0,0:0:0:0:
200,96,92002,1,0,0:0:0:0:
128,78,92096,1,0,0:0:0:0:
54,109,92189,2,0,L|70:206,1,66.6666666666667
317,81,92493,6,0,L|375:71,1,50,0|12,0:0|0:0,0:0:0:0:
256,192,92633,12,0,97423,0:0:0:0:
256,192,100308,12,8,101443,0:0:0:0:
84,147,101524,6,0,L|98:183,1,25,8|8,0:0|0:0,0:0:0:0:
124,242,101766,1,8,0:0:0:0:
124,242,101927,1,8,0:0:0:0:
59,60,102089,5,8,0:0:0:0:
251,177,102250,1,8,0:0:0:0:
43,225,102411,1,8,0:0:0:0:
227,94,102572,1,0,0:0:0:0:
198,304,102734,6,0,L|239:287,1,25
372,243,102895,1,4,0:0:0:0:
239,198,103056,1,0,0:0:0:0:
288,339,103218,1,0,0:0:0:0:
357,163,103379,5,0,0:0:0:0:
160,221,103540,1,8,0:0:0:0:
366,324,103701,1,0,0:0:0:0:
294,83,103863,5,0,0:0:0:0:
126,304,104024,1,0,0:0:0:0:
435,260,104185,1,0,0:0:0:0:
208,45,104347,5,0,0:0:0:0:
209,342,104508,1,0,0:0:0:0:
462,165,104669,1,0,0:0:0:0:
131,146,104830,6,0,B|177:156|177:156|257:139,1,100,8|0,0:0|0:0,0:0:0:0:
344,117,105315,2,0,L|337:162,1,25,8|8,0:0|0:0,0:0:0:0:
328,218,105476,6,0,L|318:278,1,50,4|0,0:0|0:0,0:0:0:0:
127,345,105798,2,0,L|119:292,1,50
255,159,106121,2,0,L|191:155,1,50,8|8,0:0|0:0,0:0:0:0:
41,73,106443,2,0,L|107:63,1,50,4|0,0:0|0:0,0:0:0:0:
49,273,106766,5,0,0:0:0:0:
60,234,106873,1,0,0:0:0:0:
90,198,106981,1,0,0:0:0:0:
136,171,107089,1,0,0:0:0:0:
195,169,107196,1,0,0:0:0:0:
247,210,107304,1,0,0:0:0:0:
279,268,107411,1,8,0:0:0:0:
334,292,107519,1,0,0:0:0:0:
384,275,107626,1,0,0:0:0:0:
416,240,107734,1,0,0:0:0:0:
435,205,107841,1,0,0:0:0:0:
435,205,107895,2,0,L|441:168,1,33.3333333333333
466,101,108056,6,0,P|418:95|357:97,1,100,4|0,0:0|0:0,0:0:0:0:
148,214,108540,2,0,L|103:194,2,50,0|8|0,0:0|0:0|0:0,0:0:0:0:
148,214,108917,1,0,0:0:0:0:
245,262,109024,2,0,B|258:140|258:140|231:152,1,150,4|0,0:0|0:0,0:0:0:0:
405,144,109669,6,0,L|415:214,1,50
370,275,109992,1,8,0:0:0:0:
272,317,110315,1,0,0:0:0:0:
165,300,110637,2,0,L|183:245,2,50,4|8|8,0:0|0:0|0:0,0:0:0:0:
80,333,111121,6,0,B|90:300|90:300|74:219,1,100,4|8,0:0|0:0,0:0:0:0:
61,165,111524,1,8,0:0:0:0:
52,88,111605,2,0,L|171:104,1,100,4|0,0:0|0:0,0:0:0:0:
188,103,112035,5,0,0:0:0:0:
224,86,112142,1,0,0:0:0:0:
264,82,112250,1,0,0:0:0:0:
303,90,112358,2,0,L|295:115,1,16.6666666666667
168,250,112573,6,0,L|202:244,1,25,8|0,0:0|0:0,0:0:0:0:
380,217,112734,1,8,0:0:0:0:
188,116,112895,1,8,0:0:0:0:
256,313,113056,2,0,L|266:254,1,50,0|4,0:0|0:0,0:0:0:0:
280,172,113379,5,0,0:0:0:0:
420,347,113540,1,0,0:0:0:0:
170,320,113701,5,0,0:0:0:0:
379,161,113863,1,8,0:0:0:0:
129,175,114024,5,0,0:0:0:0:
289,347,114185,1,0,0:0:0:0:
273,116,114347,5,0,0:0:0:0:
80,282,114508,1,0,0:0:0:0:
118,41,114669,5,0,0:0:0:0:
311,216,114830,1,0,0:0:0:0:
60,190,114992,6,0,L|30:187,2,16.6666666666667
79,194,115153,2,0,P|126:200|179:195,1,100,10|0,0:0|0:0,0:0:0:0:
387,140,115637,2,0,L|382:175,1,25,8|8,0:0|0:0,0:0:0:0:
254,233,115798,6,0,L|246:129,1,100,2|8,0:0|0:0,0:0:0:0:
469,81,116282,6,0,L|456:187,1,100,2|8,0:0|0:0,0:0:0:0:
310,333,116766,6,0,B|273:324|273:324|192:333,1,100,2|0,0:0|0:0,0:0:0:0:
146,345,117196,5,0,0:0:0:0:
124,288,117304,1,0,0:0:0:0:
144,239,117411,1,0,0:0:0:0:
188,223,117519,1,0,0:0:0:0:
227,228,117626,1,0,0:0:0:0:
255,245,117734,2,0,P|289:212|290:157,1,100,12|0,0:0|0:0,0:0:0:0:
71,205,118218,6,0,L|65:171,1,25
202,77,118379,2,0,B|189:151|189:151|204:178,1,100,4|0,0:0|0:0,0:0:0:0:
400,237,118863,2,0,L|450:210,2,50,0|8|0,0:0|0:0|0:0,0:0:0:0:
212,341,119347,2,0,L|226:236,1,100,4|0,0:0|0:0,0:0:0:0:
232,204,119750,5,0,0:0:0:0:
233,166,119830,1,0,0:0:0:0:
223,129,119911,1,0,0:0:0:0:
198,100,119992,1,0,0:0:0:0:
162,88,120072,1,0,0:0:0:0:
124,88,120153,1,0,0:0:0:0:
88,100,120234,1,0,0:0:0:0:
61,126,120314,1,8,0:0:0:0:
49,161,120395,1,8,0:0:0:0:
53,198,120476,1,0,0:0:0:0:
68,231,120556,1,0,0:0:0:0:
92,259,120637,2,0,L|116:280,1,25
393,238,120960,6,0,P|343:297|253:276,1,150.000005722046,4|8,0:0|0:0,0:0:0:0:
156,69,121443,2,0,B|209:54|209:54|330:72,1,150.000005722046,4|8,0:0|0:0,0:0:0:0:
172,299,121927,2,0,L|125:314,2,50.0000019073487,4|0|0,0:0|0:0|0:0,0:0:0:0:
275,293,122250,6,0,B|290:139|290:139|243:166,1,200,14|0,0:0|0:0,0:0:0:0:
57,224,122734,6,0,L|36:191,2,25,8|8|8,0:0|0:0|0:0,0:0:0:0:
123,288,123056,1,8,0:0:0:0:
201,334,123218,1,0,0:0:0:0:
270,136,123540,5,0,0:0:0:0:
445,265,123701,1,0,0:0:0:0:
217,322,123863,5,0,0:0:0:0:
373,149,124024,1,0,0:0:0:0:
153,123,124185,5,8,0:0:0:0:
300,289,124347,1,0,0:0:0:0:
320,76,124508,5,0,0:0:0:0:
144,242,124669,1,0,0:0:0:0:
117,43,124830,5,0,0:0:0:0:
307,207,124992,1,0,0:0:0:0:
51,189,125153,5,0,0:0:0:0:
244,49,125314,1,0,0:0:0:0:
223,289,125476,6,0,L|287:278,1,50,8|0,0:0|0:0,0:0:0:0:
464,120,125798,2,0,L|391:115,1,50,0|8,0:0|0:0,0:0:0:0:
383,116,126040,2,0,L|388:163,1,25,8|0,0:0|0:0,0:0:0:0:
404,319,126282,5,0,0:0:0:0:
208,182,126443,1,0,0:0:0:0:
448,191,126605,1,0,0:0:0:0:
226,341,126766,6,0,L|229:286,1,50,8|0,0:0|0:0,0:0:0:0:
142,74,127089,2,0,L|150:142,1,50
377,186,127411,2,0,L|311:202,1,50
78,265,127734,2,0,L|134:279,1,50
348,323,128056,6,0,L|352:355,2,25,8|8|8,0:0|0:0|0:0,0:0:0:0:
345,93,128379,2,0,L|357:58,3,25,0|0|8|8,0:0|0:0|0:0|0:0,0:0:0:0:
345,93,128701,5,0,0:0:0:0:
199,306,128863,1,0,0:0:0:0:
174,82,129024,5,0,0:0:0:0:
375,252,129185,1,0,0:0:0:0:
413,43,129347,5,8,0:0:0:0:
195,191,129508,1,0,0:0:0:0:
456,201,129669,5,0,0:0:0:0:
270,51,129830,1,0,0:0:0:0:
284,283,129992,5,0,0:0:0:0:
115,119,130153,1,0,0:0:0:0:
361,95,130314,5,0,0:0:0:0:
184,296,130476,1,0,0:0:0:0:
175,45,130637,5,8,0:0:0:0:
207,50,130744,1,8,0:0:0:0:
241,70,130852,1,0,0:0:0:0:
265,110,130960,1,0,0:0:0:0:
257,162,131067,1,0,0:0:0:0:
210,200,131175,1,0,0:0:0:0:
141,213,131282,6,0,B|109:184|109:184|240:173,1,150.000005722046,4|8,0:0|0:0,0:0:0:0:
458,255,131766,2,0,P|421:190|340:205,1,150.000005722046,4|8,0:0|0:0,0:0:0:0:
316,220,132169,1,8,0:0:0:0:
298,179,132250,6,0,L|287:150,1,25.0000009536744,0|2,0:0|0:0,0:0:0:0:
