osu file format v14

[General]
AudioFilename: audio.mp3
AudioLeadIn: 0
PreviewTime: 43512
Countdown: 0
SampleSet: Soft
StackLeniency: 0.7
Mode: 0
LetterboxInBreaks: 0
WidescreenStoryboard: 0

[Editor]
Bookmarks: 70428,79680
DistanceSpacing: 2.3
BeatDivisor: 4
GridSize: 32
TimelineZoom: 2

[Metadata]
Title:Seiren ~Hisou no Tategoto~
TitleUnicode:セイレーン ~悲壮の竪琴~
Artist:penoreri
ArtistUnicode:ぺのれり
Creator:I am graduated
Version:HEAVENLY
Source:SOUND VOLTEX IV HEAVENLY HAVEN
Tags:
BeatmapID:1465194
BeatmapSetID:692452

[Difficulty]
HPDrainRate:5.5
CircleSize:4.1
OverallDifficulty:8.9
ApproachRate:9.6
SliderMultiplier:1.9
SliderTickRate:1

[Events]
//Background and Video events
0,0,"bggbg.jpg",0,0
//Break Periods
//Storyboard Layer 0 (Background)
//Storyboard Layer 1 (Fail)
//Storyboard Layer 2 (Pass)
//Storyboard Layer 3 (Foreground)
//Storyboard Sound Samples

[TimingPoints]
1176,280.373831775701,4,2,1,70,1,0
1176,-133.333333333333,4,2,1,70,0,0
7904,-100,4,2,1,70,0,0
9867,-200,4,2,1,70,0,0
10147,-100,4,2,1,70,0,0
39306,-200,4,2,1,30,0,0
41269,-100,4,2,1,70,0,0
43232,-200,4,2,1,70,0,0
43792,-100,4,2,1,70,0,1
70708,-100,4,2,1,70,0,0
92577,645.161290322581,4,2,1,70,1,0
101609,322.58064516129,4,2,1,70,1,0
102899,-133.333333333333,4,2,1,70,0,1
113221,-200,4,2,1,70,0,0
131286,-100,4,2,1,70,0,0
132334,-200,4,2,1,70,0,0

[Colours]
Combo1 : 255,83,255
Combo2 : 0,128,192
Combo3 : 136,196,255
Combo4 : 166,166,255
Combo5 : 128,128,192
Combo6 : 160,66,255

[HitObjects]
81,348,1176,5,0,0:0:0:0:
59,262,1316,1,0,0:0:0:0:
150,238,1456,1,2,0:0:0:0:
172,324,1596,1,0,0:0:0:0:
300,358,1736,6,0,L|310:278,1,71.2500027179719
229,132,2017,2,0,L|237:202,1,71.2500027179719,2|0,0:0|0:0,0:0:0:0:
394,293,2297,5,0,0:0:0:0:
477,268,2437,1,2,0:0:0:0:
399,166,2577,1,2,0:0:0:0:
319,194,2717,1,0,0:0:0:0:
443,271,2858,5,0,0:0:0:0:
480,128,2998,1,2,0:0:0:0:
343,158,3138,1,0,0:0:0:0:
443,271,3278,1,0,0:0:0:0:
324,353,3418,5,0,0:0:0:0:
230,344,3559,1,2,0:0:0:0:
139,332,3699,1,0,0:0:0:0:
45,323,3840,1,0,0:0:0:0:
88,132,3979,6,0,L|107:224,1,71.2500027179719,2|0,0:0|0:0,0:0:0:0:
207,251,4260,2,0,L|286:228,1,71.2500027179719,2|2,0:0|0:0,0:0:0:0:
431,56,4540,5,2,0:0:0:0:
338,36,4680,1,0,0:0:0:0:
322,139,4820,1,2,0:0:0:0:
415,159,4960,1,0,0:0:0:0:
458,336,5101,5,2,0:0:0:0:
436,323,5171,1,0,0:0:0:0:
412,317,5241,1,2,0:0:0:0:
387,318,5311,1,0,0:0:0:0:
364,327,5381,1,2,0:0:0:0:
341,335,5451,1,0,0:0:0:0:
316,336,5521,1,2,0:0:0:0:
291,330,5591,1,0,0:0:0:0:
270,317,5661,6,0,L|257:241,1,71.2500027179719,4|0,0:0|0:0,0:0:0:0:
152,237,5942,2,0,L|164:166,1,71.2500027179719
213,60,6222,1,0,0:0:0:0:
256,192,6362,12,0,7764,0:0:0:0:
68,98,7904,5,2,0:0:0:0:
101,65,7974,1,2,0:0:0:0:
148,62,8044,1,2,0:0:0:0:
186,88,8114,1,2,0:0:0:0:
200,132,8184,1,2,0:0:0:0:
183,175,8254,1,2,0:0:0:0:
143,199,8325,2,0,L|71:218,1,47.5
71,323,8465,5,2,0:0:0:0:
101,309,8535,1,2,0:0:0:0:
133,303,8605,1,2,0:0:0:0:
166,306,8675,1,2,0:0:0:0:
197,317,8746,2,0,L|208:271,1,47.5
272,210,8886,1,0,0:0:0:0:
451,276,9026,6,0,L|387:261,1,47.5,0|0,1:0|0:0,0:0:0:0:
318,309,9166,1,4,0:3:0:0:
308,311,9236,1,0,0:0:0:0:
299,313,9306,1,0,0:0:0:0:
186,181,9447,6,0,L|117:194,1,47.5,0|0,1:0|0:0,0:0:0:0:
47,229,9587,1,4,0:3:0:0:
38,228,9657,1,0,0:0:0:0:
29,226,9727,1,0,0:0:0:0:
33,89,9867,6,0,P|33:54|41:10,1,71.25,6|0,1:3|0:0,0:0:0:0:
118,67,10147,5,4,0:0:0:0:
263,200,10288,1,0,0:0:0:0:
78,256,10428,1,10,0:0:0:0:
222,117,10568,1,0,0:0:0:0:
336,257,10708,2,0,L|342:357,1,95,2|0,0:0|0:0,0:0:0:0:
178,232,10989,1,10,0:0:0:0:
328,120,11129,1,10,0:0:0:0:
433,270,11269,5,2,0:0:0:0:
263,200,11410,1,0,0:0:0:0:
206,350,11549,1,10,0:0:0:0:
336,257,11690,1,0,0:0:0:0:
147,150,11830,2,0,L|139:252,1,95,2|0,0:0|0:0,0:0:0:0:
77,332,12111,1,10,0:0:0:0:
15,190,12251,1,10,0:0:0:0:
244,133,12390,5,2,0:0:0:0:
139,244,12531,1,0,0:0:0:0:
81,44,12671,1,10,0:0:0:0:
147,150,12811,1,0,0:0:0:0:
347,169,12951,2,0,L|365:63,1,95,2|0,0:0|0:0,0:0:0:0:
263,220,13232,1,10,0:0:0:0:
387,324,13372,1,10,0:0:0:0:
486,145,13512,5,2,0:0:0:0:
347,169,13652,1,0,0:0:0:0:
232,42,13792,1,10,0:0:0:0:
486,145,13932,1,0,0:0:0:0:
442,285,14073,5,2,0:0:0:0:
414,290,14143,1,0,0:0:0:0:
386,296,14213,1,0,0:0:0:0:
358,302,14283,1,0,0:0:0:0:
330,308,14353,1,10,0:0:0:0:
302,314,14423,1,0,0:0:0:0:
276,321,14493,2,0,L|224:333,1,47.5
122,359,14633,6,0,B|86:321|86:321|123:287|130:239|130:239|111:200,1,190,4|8,0:0|0:2,0:0:0:0:
43,121,15054,2,0,P|92:51|203:86,1,190,2|0,0:0|0:0,0:0:0:0:
418,153,15475,2,0,P|473:157|515:129,1,95,10|0,0:0|0:0,0:0:0:0:
308,29,15755,6,0,L|293:221,1,190,2|8,0:0|0:0,0:0:0:0:
410,346,16176,1,8,0:0:0:0:
410,346,16246,1,0,0:0:0:0:
410,346,16316,2,0,P|427:302|416:256,1,95,2|0,0:0|0:0,0:0:0:0:
190,75,16596,2,0,L|179:189,1,95,8|0,0:0|0:0,0:0:0:0:
257,350,16876,5,4,0:0:0:0:
315,208,17017,2,0,L|244:223,1,47.5,2|0,0:0|0:0,0:0:0:0:
43,282,17157,2,0,L|161:309,1,95,8|0,0:0|0:0,0:0:0:0:
279,327,17437,5,4,0:0:0:0:
157,280,17577,2,0,L|95:266,1,47.5,2|0,0:0|0:0,0:0:0:0:
290,194,17718,2,0,L|388:175,1,95,8|0,0:0|0:0,0:0:0:0:
177,33,17998,5,2,0:0:0:0:
175,66,18068,1,2,0:0:0:0:
173,99,18138,1,2,0:0:0:0:
172,132,18208,1,2,0:0:0:0:
170,165,18278,1,8,0:0:0:0:
293,323,18418,5,2,0:0:0:0:
328,333,18488,1,2,0:0:0:0:
364,322,18559,2,0,P|385:311|402:294,1,47.5,8|0,0:0|0:0,0:0:0:0:
418,187,18699,5,0,3:0:0:0:
383,175,18769,1,0,3:0:0:0:
347,187,18840,2,0,P|323:197|308:213,1,47.5,8|0,0:3|0:0,0:0:0:0:
211,280,18979,5,0,0:0:0:0:
176,290,19049,1,0,0:0:0:0:
140,279,19119,2,0,B|117:273|63:286|63:286|26:254|15:178,1,190,4|0,0:0|0:0,0:0:0:0:
102,40,19540,2,0,B|125:46|179:33|179:33|216:65|227:141,1,190,8|0,0:0|0:0,0:0:0:0:
109,178,19961,2,0,B|194:226|211:144|302:193,1,190,2|0,0:0|0:0,0:0:0:0:
454,343,20381,5,2,0:0:0:0:
417,352,20451,1,2,0:0:0:0:
381,343,20521,1,2,0:0:0:0:
357,314,20591,1,2,0:0:0:0:
322,299,20661,1,2,0:0:0:0:
285,302,20731,1,2,0:0:0:0:
249,324,20802,2,0,P|230:343|199:359,1,47.5,8|0,0:0|0:0,0:0:0:0:
92,347,20942,6,0,L|85:284,1,47.5,8|0,0:3|0:0,0:0:0:0:
25,201,21082,1,0,0:3:0:0:
63,184,21152,1,0,0:0:0:0:
106,184,21222,1,0,0:0:0:0:
145,201,21292,1,0,0:0:0:0:
173,233,21362,6,0,B|219:214|234:175|234:175|279:210|347:209,1,190,4|0,0:0|0:0,0:0:0:0:
484,71,21783,2,0,B|438:90|423:129|423:129|378:94|310:95,1,190,8|0,0:0|0:0,0:0:0:0:
220,322,22204,2,0,P|314:296|398:354,1,190,2|0,0:0|0:0,0:0:0:0:
94,264,22624,5,2,0:0:0:0:
94,264,22694,1,2,0:0:0:0:
94,264,22764,2,0,L|101:207,1,47.5,8|0,0:0|0:0,0:0:0:0:
224,59,22904,1,2,0:0:0:0:
269,65,22974,1,2,0:0:0:0:
295,103,23044,1,2,0:0:0:0:
284,148,23114,1,2,0:0:0:0:
243,169,23185,2,0,L|180:180,1,47.5,8|0,0:0|0:0,0:0:0:0:
120,112,23325,6,0,L|75:105,5,31.6666666666667,2|2|2|2|2|2,0:0|0:0|0:0|0:0|0:0|0:0,0:0:0:0:
193,230,23605,1,4,0:0:0:0:
189,253,23675,1,2,0:0:0:0:
185,277,23745,1,2,0:0:0:0:
181,300,23815,1,2,0:0:0:0:
178,324,23885,1,8,0:0:0:0:
427,324,24026,6,0,L|381:309,1,47.5,2|2,0:0|0:0,0:0:0:0:
283,250,24166,2,0,L|323:225,1,47.5,2|2,0:0|0:0,0:0:0:0:
419,179,24306,1,8,0:0:0:0:
244,42,24447,5,4,0:0:0:0:
231,87,24517,1,2,0:0:0:0:
198,120,24587,1,2,0:0:0:0:
153,131,24657,1,0,0:0:0:0:
107,118,24727,1,8,0:0:0:0:
116,363,24867,5,2,0:0:0:0:
140,328,24937,1,2,0:0:0:0:
177,308,25007,1,2,0:0:0:0:
219,307,25077,1,2,0:0:0:0:
258,325,25147,1,8,0:0:0:0:
411,214,25288,5,2,0:0:0:0:
382,211,25358,1,2,0:0:0:0:
354,208,25428,1,2,0:0:0:0:
325,205,25498,1,2,0:0:0:0:
297,202,25568,1,8,0:0:0:0:
269,199,25638,1,0,3:0:0:0:
240,196,25708,1,0,3:0:0:0:
18,237,25848,5,8,0:0:0:0:
127,79,25989,1,0,3:0:0:0:
127,79,26059,1,0,3:0:0:0:
127,79,26129,2,0,L|123:133,1,47.5,8|0,0:0|0:0,0:0:0:0:
72,319,26269,1,2,0:0:0:0:
103,340,26339,1,2,0:0:0:0:
142,344,26409,1,2,0:0:0:0:
178,330,26479,1,2,0:0:0:0:
203,299,26549,1,2,0:0:0:0:
210,261,26619,1,2,0:0:0:0:
198,224,26690,2,0,P|155:208|94:220,1,95,8|0,0:0|0:0,0:0:0:0:
275,354,26970,5,0,3:0:0:0:
388,328,27110,1,0,3:0:0:0:
409,329,27180,1,0,3:0:0:0:
434,331,27250,2,0,L|450:268,1,47.5,8|0,0:0|0:0,0:0:0:0:
448,111,27390,1,2,0:0:0:0:
413,80,27460,1,2,0:0:0:0:
366,76,27530,1,2,0:0:0:0:
326,100,27600,1,2,0:0:0:0:
310,144,27670,1,2,0:0:0:0:
322,189,27740,1,2,0:0:0:0:
359,217,27811,2,0,P|403:218|446:195,2,63.3333333333333,8|0|0,3:2|3:3|3:3,0:0:0:0:
263,275,28091,5,4,0:0:0:0:
188,127,28232,1,0,0:0:0:0:
40,107,28372,1,0,0:0:0:0:
134,247,28512,5,4,0:0:0:0:
282,172,28653,1,0,0:0:0:0:
302,24,28793,1,0,0:0:0:0:
177,148,28933,5,4,0:0:0:0:
252,296,29074,1,0,0:0:0:0:
400,316,29214,1,0,0:0:0:0:
488,156,29353,5,4,0:0:0:0:
340,231,29494,1,0,0:0:0:0:
320,379,29634,1,0,0:0:0:0:
391,124,29774,5,4,0:0:0:0:
233,72,29915,1,0,0:0:0:0:
114,162,30055,1,2,0:0:0:0:
110,195,30124,1,2,0:0:0:0:
107,228,30194,1,2,0:0:0:0:
104,261,30264,1,2,0:0:0:0:
101,294,30334,6,0,B|198:278|198:278|254:298,1,142.5,4|0,0:0|0:0,0:0:0:0:
197,357,30615,2,0,L|126:368,1,47.5,8|0,0:0|0:0,0:0:0:0:
196,199,30755,2,0,L|348:176,1,142.5,4|0,0:0|0:0,0:0:0:0:
373,266,31035,2,0,L|302:277,1,47.5,8|0,0:0|0:0,0:0:0:0:
63,120,31176,2,0,L|282:88,1,190,4|0,0:0|0:0,0:0:0:0:
463,230,31596,5,2,0:0:0:0:
473,255,31666,1,2,0:0:0:0:
472,282,31736,2,0,P|463:308|453:326,1,47.5,8|0,0:0|0:0,0:0:0:0:
274,354,31876,1,0,3:0:0:0:
258,346,31947,1,0,3:0:0:0:
240,342,32017,2,0,P|170:325|98:324,1,142.5,2|0,0:0|0:0,0:0:0:0:
61,337,32297,2,0,L|45:217,1,95
203,24,32577,6,0,L|191:149,1,95,4|0,0:0|0:0,0:0:0:0:
130,176,32788,1,0,0:0:0:0:
104,161,32858,2,0,L|95:93,1,47.5,8|0,0:0|0:0,0:0:0:0:
317,118,32998,2,0,L|305:243,1,95,4|0,0:0|0:0,0:0:0:0:
244,270,33209,1,0,0:0:0:0:
218,255,33279,2,0,L|209:187,1,47.5,8|0,0:0|0:0,0:0:0:0:
425,67,33418,2,0,L|398:280,1,190,4|0,0:0|0:0,0:0:0:0:
230,369,33839,5,2,0:0:0:0:
208,344,33909,1,2,0:0:0:0:
179,328,33979,1,2,0:0:0:0:
146,323,34049,1,2,0:0:0:0:
113,329,34119,2,0,L|60:357,1,47.5,8|0,0:0|0:0,0:0:0:0:
52,222,34260,5,0,0:0:0:0:
84,227,34330,1,0,0:0:0:0:
116,218,34400,1,0,0:0:0:0:
140,196,34470,1,0,0:0:0:0:
152,166,34540,2,0,P|156:142|157:119,3,47.5
96,53,34820,5,4,0:0:0:0:
407,147,35101,1,8,0:0:0:0:
407,147,35241,1,0,3:0:0:0:
237,237,35381,1,0,3:0:0:0:
237,237,35521,1,0,3:0:0:0:
301,62,35661,2,0,L|307:163,1,95,8|0,0:0|3:0,0:0:0:0:
382,340,35942,5,4,0:0:0:0:
489,261,36082,1,2,0:0:0:0:
467,236,36152,1,2,0:0:0:0:
437,221,36222,1,2,0:0:0:0:
404,219,36292,1,2,0:0:0:0:
372,229,36363,1,2,0:0:0:0:
341,239,36433,1,2,0:0:0:0:
308,238,36503,2,0,P|283:230|255:226,1,47.5,2|0,0:0|0:0,0:0:0:0:
169,286,36643,2,0,P|143:289|119:285,1,47.5
70,172,36783,2,0,P|43:165|19:165,3,47.5,2|2|2|2,0:0|0:0|0:0|0:0,0:0:0:0:
170,188,37063,6,0,L|189:45,1,142.5,4|0,0:0|0:0,0:0:0:0:
212,31,37344,1,8,0:0:0:0:
266,132,37484,1,0,0:0:0:0:
82,261,37624,6,0,L|225:280,1,142.5,4|0,0:0|0:0,0:0:0:0:
239,303,37905,1,8,0:0:0:0:
138,357,38045,1,0,0:0:0:0:
367,156,38185,6,0,L|348:299,1,142.5,4|0,0:0|0:0,0:0:0:0:
325,313,38466,1,8,0:0:0:0:
271,212,38606,1,0,0:0:0:0:
446,129,38746,6,0,L|303:110,1,142.5,4|0,0:0|0:0,0:0:0:0:
289,87,39027,1,8,0:0:0:0:
390,33,39167,1,0,0:0:0:0:
71,162,39306,5,0,3:0:0:0:
71,162,39447,1,0,3:0:0:0:
71,162,39587,1,0,3:0:0:0:
113,254,39727,6,0,L|224:239,1,95
477,212,40147,5,0,3:0:0:0:
477,212,40288,1,0,3:0:0:0:
477,212,40428,1,0,3:0:0:0:
404,342,40568,6,0,L|387:249,1,95
301,31,40989,6,0,L|297:79,1,47.5,0|0,3:0|0:0,0:0:0:0:
366,127,41199,1,0,0:0:0:0:
366,127,41269,6,0,L|216:116,1,142.5,8|0,0:0|0:0,0:0:0:0:
103,103,41549,5,8,0:0:0:0:
167,345,41690,1,8,0:0:0:0:
409,281,41830,1,8,0:0:0:0:
345,39,41970,1,8,0:0:0:0:
78,286,42250,5,8,0:0:0:0:
323,337,42390,1,8,0:0:0:0:
243,89,42530,1,8,0:0:0:0:
256,256,42811,6,0,L|247:211,3,31.6666666666667
348,230,43021,1,0,0:0:0:0:
376,227,43091,1,0,0:0:0:0:
404,235,43161,1,0,0:0:0:0:
427,252,43232,6,0,P|441:277|472:294,1,47.5
63,343,43512,5,0,0:0:0:0:
76,323,43582,1,0,0:0:0:0:
82,300,43652,1,0,0:0:0:0:
80,277,43722,1,0,0:0:0:0:
71,256,43792,2,0,B|72:212|40:187|40:187|20:136|75:74,1,190,4|8,0:0|0:0,0:0:0:0:
339,261,44213,1,2,0:0:0:0:
339,261,44283,1,0,0:0:0:0:
339,261,44353,2,0,P|303:291|256:290,1,95
144,184,44633,1,8,0:0:0:0:
232,27,44774,6,0,B|261:75|227:135|227:135|229:181|271:209,1,190
261,201,45124,1,0,0:0:0:0:
261,201,45194,2,0,L|364:162,1,95,8|0,0:0|0:0,0:0:0:0:
456,41,45475,2,0,L|366:73,1,95,2|0,0:0|0:0,0:0:0:0:
243,310,45755,2,0,P|313:315|362:265,1,142.5,8|0,0:0|0:0,0:0:0:0:
440,238,46035,6,0,P|446:191|437:138,1,95,4|0,0:0|0:0,0:0:0:0:
220,28,46316,1,8,0:0:0:0:
112,208,46456,2,0,B|70:237|70:237|52:277,1,95,2|0,0:0|0:0,0:0:0:0:
193,166,46736,2,0,B|239:187|239:187|282:178,1,95,2|8,0:0|0:0,0:0:0:0:
111,117,47017,2,0,B|109:67|109:67|74:29,1,95,2|0,0:0|0:0,0:0:0:0:
246,326,47297,5,2,0:0:0:0:
277,315,47367,1,2,0:0:0:0:
310,311,47437,1,8,0:0:0:0:
343,316,47507,1,2,0:0:0:0:
374,328,47577,2,0,P|400:331|441:318,1,47.5
483,248,47718,2,0,P|439:228|374:255,1,95,2|0,0:0|0:0,0:0:0:0:
246,326,47998,2,0,P|200:335|157:315,1,95,8|0,0:0|0:0,0:0:0:0:
265,35,48278,6,0,L|286:237,1,190,4|8,0:0|0:0,0:0:0:0:
54,316,48699,2,0,P|80:237|190:233,1,190
386,313,49119,2,0,P|403:263|386:211,1,95,8|0,0:0|0:0,0:0:0:0:
163,101,49400,6,0,L|52:77,1,95,2|0,0:0|0:0,0:0:0:0:
354,131,49680,2,0,L|417:111,2,47.5,8|0|0,0:0|0:0|0:0,0:0:0:0:
230,254,49961,2,0,L|206:365,1,95,2|0,0:0|0:0,0:0:0:0:
260,63,50241,2,0,L|239:0,2,47.5,8|0|0,0:0|0:0|0:0,0:0:0:0:
500,258,50521,6,0,B|457:224|457:224|395:254|395:254|314:246,1,190,4|8,0:0|0:0,0:0:0:0:
87,327,50942,1,0,0:0:0:0:
14,185,51082,2,0,L|138:157,1,95,2|0,0:0|0:0,0:0:0:0:
331,102,51362,2,0,L|343:172,1,47.5,8|0,0:0|0:0,0:0:0:0:
228,252,51503,2,0,L|219:205,1,47.5
56,78,51643,6,0,L|212:52,1,142.5,4|0,0:0|0:0,0:0:0:0:
230,48,51923,1,8,0:0:0:0:
358,317,52063,2,0,L|202:343,1,142.5,2|0,0:0|0:0,0:0:0:0:
184,347,52343,1,0,0:0:0:0:
24,209,52484,1,8,0:0:0:0:
56,203,52554,1,0,0:0:0:0:
89,197,52624,1,0,0:0:0:0:
122,192,52694,1,0,0:0:0:0:
155,187,52764,6,0,P|250:159|263:69,1,190
171,295,53185,1,0,0:0:0:0:
171,295,53255,1,0,0:0:0:0:
171,295,53325,2,0,P|221:301|279:349,1,95
456,272,53605,1,0,0:0:0:0:
460,170,53746,6,0,P|365:198|352:288,1,190
348,277,54096,1,0,0:0:0:0:
348,277,54166,2,0,L|326:173,1,95
78,54,54447,2,0,L|100:158,1,95
223,354,54727,2,0,P|244:301|204:230,1,142.5
117,230,55007,6,0,L|16:257,1,95
138,320,55288,1,0,0:0:0:0:
267,155,55428,2,0,P|300:115|298:66,1,95
358,289,55708,2,0,P|312:279|270:300,1,95
432,182,55989,2,0,P|446:226|485:251,1,95
204,230,56269,5,0,0:0:0:0:
281,17,56409,2,0,P|338:98|324:206,1,190
195,336,56830,1,0,0:0:0:0:
30,253,56970,2,0,P|59:218|111:207,1,95
286,281,57250,6,0,P|351:346|438:322,1,190
323,74,57671,1,0,0:0:0:0:
315,104,57741,1,0,0:0:0:0:
316,135,57811,1,0,0:0:0:0:
511,215,57951,1,0,0:0:0:0:
408,114,58091,1,0,0:0:0:0:
374,261,58232,1,0,0:0:0:0:
163,356,58372,6,0,B|134:340|91:345|91:345|51:309|55:237,1,190
204,194,58792,2,0,L|309:208,1,95
110,122,59073,1,0,0:0:0:0:
110,122,59143,1,0,0:0:0:0:
110,122,59213,2,0,P|97:74|110:29,1,95
394,155,59493,6,0,B|433:191|431:253|431:253|393:265|350:309,1,190
114,317,59914,2,0,P|161:328|205:345,1,95
320,51,60194,2,0,P|287:91|261:143,1,95
49,225,60475,2,0,P|35:183|27:90,1,95
171,44,60755,5,0,0:0:0:0:
217,48,60825,1,0,0:0:0:0:
250,81,60895,1,0,0:0:0:0:
255,127,60965,1,0,0:0:0:0:
230,166,61035,1,0,0:0:0:0:
186,181,61105,1,0,0:0:0:0:
142,165,61176,2,0,L|134:243,1,47.5
209,352,61316,2,0,L|214:304,1,47.5
328,254,61456,2,0,L|322:301,3,47.5
408,349,61736,6,0,B|441:321|489:330|489:330|514:279|495:206,1,190
299,78,62157,1,0,0:0:0:0:
273,71,62227,1,0,0:0:0:0:
246,64,62297,1,0,0:0:0:0:
386,153,62437,1,0,0:0:0:0:
198,240,62577,1,0,0:0:0:0:
386,153,62718,6,0,L|492:183,1,95
198,240,62998,1,0,0:0:0:0:
299,78,63138,2,0,L|283:189,1,95
147,357,63418,2,0,L|36:338,1,95
143,116,63699,2,0,P|188:168|197:243,1,142.5
185,278,63979,6,0,P|250:260|319:291,1,142.5
337,374,64260,2,0,P|289:373|248:346,1,95
22,247,64540,6,0,P|68:241|102:209,1,95
131,47,64820,1,0,0:0:0:0:
22,247,64961,1,0,0:0:0:0:
312,167,65101,6,0,B|366:189|366:189|390:308,1,142.5
389,314,65381,1,0,0:0:0:0:
444,57,65521,2,0,L|481:248,1,190
242,355,65942,5,0,0:0:0:0:
208,322,66012,1,0,0:0:0:0:
162,311,66082,1,0,0:0:0:0:
117,324,66152,1,0,0:0:0:0:
80,351,66222,2,0,L|55:245,1,95
152,74,66503,1,0,0:0:0:0:
39,166,66643,2,0,L|137:179,1,95
312,196,66923,1,0,0:0:0:0:
242,355,67063,2,0,L|212:143,1,190
387,103,67484,5,0,0:0:0:0:
403,126,67554,1,0,0:0:0:0:
426,141,67624,1,0,0:0:0:0:
454,147,67694,1,0,0:0:0:0:
483,146,67764,2,0,P|494:123|501:94,1,47.5
335,15,67904,5,0,0:0:0:0:
312,32,67974,1,0,0:0:0:0:
298,56,68044,1,0,0:0:0:0:
293,84,68114,1,0,0:0:0:0:
295,112,68184,2,0,P|303:143|317:162,1,47.5
367,228,68325,2,0,P|394:244|439:248,1,47.5
502,238,68465,6,0,P|505:291|480:341,1,95
386,366,68746,1,0,0:0:0:0:
143,258,68886,2,0,P|187:228|243:225,1,95
310,295,69167,1,0,0:0:0:0:
116,365,69306,2,0,P|68:341|37:294,1,95
82,36,69587,6,0,L|107:241,1,190
303,342,70007,2,0,L|311:286,1,47.5
341,200,70147,2,0,P|365:180|395:170,2,63.3333333333333
410,274,70428,2,0,P|434:293|464:303,2,63.3333333333333
309,294,70708,5,0,0:0:0:0:
281,269,70801,1,0,0:0:0:0:
246,255,70894,1,0,0:0:0:0:
208,255,70988,1,0,0:0:0:0:
173,268,71081,1,0,0:0:0:0:
144,292,71175,1,0,0:0:0:0:
126,325,71269,2,0,P|69:333|3:279,1,126.666666666667
82,242,71549,1,0,0:0:0:0:
105,37,71690,6,0,P|112:71|113:111,2,63.3333333333333
208,172,71970,2,0,P|209:140|216:109,2,63.3333333333333
308,45,72250,1,0,0:0:0:0:
339,177,72390,1,0,0:0:0:0:
370,198,72483,1,0,0:0:0:0:
407,202,72576,1,0,0:0:0:0:
442,187,72671,2,0,P|464:164|477:136,2,63.3333333333333
309,294,72951,5,0,0:0:0:0:
281,269,73044,1,0,0:0:0:0:
246,255,73137,1,0,0:0:0:0:
208,255,73231,1,0,0:0:0:0:
173,268,73324,1,0,0:0:0:0:
144,292,73418,1,0,0:0:0:0:
126,325,73512,2,0,P|69:333|3:279,1,126.666666666667
82,242,73792,1,0,0:0:0:0:
105,37,73933,6,0,P|112:71|113:111,2,63.3333333333333
208,172,74213,2,0,P|209:140|216:109,2,63.3333333333333
308,45,74493,1,0,0:0:0:0:
339,177,74633,1,0,0:0:0:0:
370,198,74726,1,0,0:0:0:0:
407,202,74819,1,0,0:0:0:0:
442,187,74914,2,0,P|464:164|477:136,2,63.3333333333333
309,294,75194,5,0,0:0:0:0:
44,244,75475,1,0,0:0:0:0:
70,227,75568,1,0,0:0:0:0:
101,222,75661,1,0,0:0:0:0:
132,231,75755,1,0,0:0:0:0:
156,250,75848,1,0,0:0:0:0:
171,278,75942,1,0,0:0:0:0:
173,309,76035,1,0,0:0:0:0:
309,294,76176,6,0,L|320:224,2,63.3333333333333
234,186,76456,2,0,L|250:100,2,63.3333333333333
410,89,76736,2,0,L|417:34,1,31.6666666666667
317,44,76876,2,0,L|332:148,1,95
392,351,77157,5,0,0:0:0:0:
365,323,77250,1,0,0:0:0:0:
331,309,77343,1,0,0:0:0:0:
293,309,77437,2,0,P|268:311|239:325,4,47.5
158,343,77788,1,0,0:0:0:0:
148,326,77858,2,0,P|125:314|94:310,4,47.5
201,237,78208,1,0,0:0:0:0:
214,217,78278,2,0,P|236:208|259:206,4,47.5
413,134,78699,5,0,0:0:0:0:
401,110,78769,1,0,0:0:0:0:
379,93,78839,1,0,0:0:0:0:
352,83,78909,1,0,0:0:0:0:
324,81,78979,1,0,0:0:0:0:
296,87,79049,1,0,0:0:0:0:
271,101,79119,2,0,P|224:98|177:85,1,95
57,148,79400,5,0,0:0:0:0:
57,148,79470,1,0,0:0:0:0:
57,148,79540,2,0,L|3:137,2,31.6666666666667
83,179,79680,6,0,L|94:279,1,95
456,358,79961,2,0,P|397:293|304:321,1,190
227,208,80381,2,0,P|220:162|216:113,1,95
420,19,80661,2,0,B|402:69|402:69|421:140|421:140|393:204,1,190
191,347,81082,5,0,0:0:0:0:
165,319,81152,1,0,0:0:0:0:
132,301,81222,1,0,0:0:0:0:
94,295,81292,1,0,0:0:0:0:
57,303,81362,1,0,0:0:0:0:
77,114,81503,1,0,0:0:0:0:
227,208,81643,5,0,0:0:0:0:
264,215,81713,1,0,0:0:0:0:
301,210,81783,1,0,0:0:0:0:
334,192,81853,1,0,0:0:0:0:
360,164,81923,2,0,L|372:67,1,95
399,282,82204,1,0,0:0:0:0:
271,97,82344,2,0,P|225:77|176:71,1,95
197,349,82624,2,0,P|243:329|292:323,1,95
84,236,82904,2,0,B|55:218|23:208|23:208|-14:152|15:77,1,190
227,208,83325,5,0,0:0:0:0:
47,328,83465,1,0,0:0:0:0:
100,135,83605,1,0,0:0:0:0:
287,323,83746,1,0,0:0:0:0:
319,314,83816,1,0,0:0:0:0:
352,317,83886,1,0,0:0:0:0:
382,330,83956,1,0,0:0:0:0:
407,352,84026,2,0,L|430:303,1,47.5
395,97,84166,6,0,P|358:145|361:225,1,142.5
443,175,84447,1,0,0:0:0:0:
252,127,84587,1,0,0:0:0:0:
181,251,84727,2,0,L|278:224,1,95
295,32,85007,2,0,B|256:11|215:22|215:22|195:71|125:85,1,190
34,51,85428,5,0,0:0:0:0:
181,251,85568,2,0,P|205:297|218:364,1,95
22,232,85848,2,0,P|65:178|150:172,1,142.5
156,168,86129,2,0,P|177:162|203:159,1,47.5
298,215,86269,2,0,P|322:212|344:207,1,47.5
483,100,86409,5,0,0:0:0:0:
463,73,86479,1,0,0:0:0:0:
435,56,86549,1,0,0:0:0:0:
402,51,86619,1,0,0:0:0:0:
370,59,86690,2,0,P|346:84|330:121,1,47.5
440,212,86829,5,0,0:0:0:0:
460,253,86900,1,0,0:0:0:0:
454,299,86970,1,0,0:0:0:0:
424,336,87040,1,0,0:0:0:0:
380,352,87110,2,0,P|353:350|318:340,1,47.5
252,263,87250,5,0,0:0:0:0:
205,262,87320,1,0,0:0:0:0:
169,292,87390,1,0,0:0:0:0:
130,318,87460,1,0,0:0:0:0:
84,321,87530,1,0,0:0:0:0:
42,298,87600,1,0,0:0:0:0:
19,258,87671,2,0,L|15:188,1,47.5
83,60,87811,1,0,0:0:0:0:
288,169,87951,5,0,0:0:0:0:
288,169,88021,1,0,0:0:0:0:
288,169,88091,2,0,P|325:160|361:157,2,63.3333333333333
179,194,88372,2,0,P|141:202|106:206,2,63.3333333333333
351,249,88652,5,0,0:0:0:0:
214,97,88792,1,0,0:0:0:0:
163,288,88933,1,0,0:0:0:0:
55,86,89073,5,0,0:0:0:0:
265,276,89213,1,0,0:0:0:0:
42,365,89353,1,0,0:0:0:0:
179,194,89493,5,0,0:0:0:0:
440,294,89633,1,0,0:0:0:0:
222,369,89774,1,0,0:0:0:0:
374,159,89914,5,0,0:0:0:0:
141,296,90054,1,0,0:0:0:0:
368,350,90194,1,0,0:0:0:0:
283,76,90334,5,0,0:0:0:0:
283,76,90404,1,0,0:0:0:0:
283,76,90475,1,0,0:0:0:0:
242,271,90615,1,0,0:0:0:0:
62,191,90755,5,0,0:0:0:0:
62,191,90825,1,0,0:0:0:0:
62,191,90895,1,0,0:0:0:0:
334,154,91035,1,0,0:0:0:0:
151,350,91176,5,0,0:0:0:0:
139,329,91246,1,0,0:0:0:0:
134,305,91316,1,0,0:0:0:0:
135,282,91386,1,0,0:0:0:0:
142,259,91456,1,0,0:0:0:0:
414,118,91596,5,0,0:0:0:0:
425,138,91666,1,0,0:0:0:0:
430,162,91736,1,0,0:0:0:0:
429,185,91806,1,0,0:0:0:0:
422,208,91876,1,0,0:0:0:0:
61,121,92017,5,0,0:0:0:0:
53,99,92087,1,0,0:0:0:0:
52,75,92157,1,0,0:0:0:0:
56,52,92227,1,0,0:0:0:0:
67,30,92297,1,0,0:0:0:0:
359,319,92507,6,0,L|363:348,2,23.75
256,192,92738,12,0,97093,0:0:0:0:
212,307,97415,5,0,0:0:0:0:
181,316,97522,1,0,0:0:0:0:
150,316,97630,1,0,0:0:0:0:
120,307,97737,1,0,0:0:0:0:
305,242,98060,5,0,0:0:0:0:
335,250,98167,1,0,0:0:0:0:
366,250,98275,1,0,0:0:0:0:
396,241,98382,1,0,0:0:0:0:
170,71,98786,5,0,0:0:0:0:
171,98,98866,1,0,0:0:0:0:
172,124,98947,1,0,0:0:0:0:
173,150,99027,1,0,0:0:0:0:
174,176,99108,1,0,0:0:0:0:
347,116,99431,5,0,0:0:0:0:
346,143,99511,1,0,0:0:0:0:
345,169,99592,1,0,0:0:0:0:
344,195,99672,1,0,0:0:0:0:
245,275,99915,5,0,0:0:0:0:
246,289,99995,1,0,0:0:0:0:
248,303,100076,1,0,0:0:0:0:
250,317,100156,1,0,0:0:0:0:
251,331,100237,1,0,0:0:0:0:
253,345,100318,1,0,0:0:0:0:
280,192,100964,38,0,L|304:192,1,23.75,0|0,1:0|0:0,0:0:0:0:
231,192,100964,70,0,L|208:192,1,23.75,4|0,0:0|0:0,0:0:0:0:
256,46,101447,21,0,0:0:0:0:
256,46,101528,1,0,0:0:0:0:
256,46,101609,1,0,0:0:0:0:
256,151,101770,1,0,0:0:0:0:
256,247,101931,1,0,0:0:0:0:
256,343,102092,5,0,0:0:0:0:
256,343,102254,1,0,0:0:0:0:
256,343,102415,5,0,0:0:0:0:
103,281,102738,5,0,0:0:0:0:
103,281,102818,1,0,0:0:0:0:
103,281,102899,2,0,L|109:229,2,35.625001358986
213,203,103221,1,0,0:0:0:0:
46,129,103383,2,0,L|53:73,2,35.625001358986
213,203,103705,1,0,0:0:0:0:
316,77,103867,5,0,0:0:0:0:
347,57,103974,1,0,0:0:0:0:
385,54,104082,1,0,0:0:0:0:
419,70,104189,1,0,0:0:0:0:
442,100,104297,1,0,0:0:0:0:
447,137,104404,1,0,0:0:0:0:
435,172,104512,1,0,0:0:0:0:
407,197,104619,1,0,0:0:0:0:
370,206,104727,1,0,0:0:0:0:
332,196,104834,5,0,0:0:0:0:
212,56,105157,5,0,0:0:0:0:
46,131,105318,2,0,L|41:97,2,23.7500009059906
52,167,105479,2,0,B|93:151|93:151|144:175|144:175|191:167,1,142.500005435944
391,250,105963,1,0,0:0:0:0:
147,328,106125,2,0,L|62:316,1,71.2500027179719
292,364,106447,2,0,P|279:312|274:259,1,106.875004076958
285,227,106770,5,0,0:0:0:0:
306,185,106877,1,0,0:0:0:0:
300,139,106985,1,0,0:0:0:0:
268,104,107092,1,0,0:0:0:0:
223,94,107200,1,0,0:0:0:0:
180,112,107307,1,0,0:0:0:0:
154,151,107415,2,0,P|155:181|161:212,2,47.5000018119813
198,71,107738,5,0,0:0:0:0:
229,66,107818,1,0,0:0:0:0:
260,63,107899,1,0,0:0:0:0:
292,60,107979,1,0,0:0:0:0:
318,57,108060,2,0,L|439:84,1,106.875004076958
446,88,108383,1,0,0:0:0:0:
368,301,108544,2,0,L|252:319,1,106.875004076958
241,335,108867,1,0,0:0:0:0:
60,124,109028,2,0,P|110:144|169:190,1,106.875004076958
154,217,109350,5,0,0:0:0:0:
190,187,109457,1,0,0:0:0:0:
237,179,109565,1,0,0:0:0:0:
281,194,109673,1,0,0:0:0:0:
313,229,109781,1,0,0:0:0:0:
358,247,109888,1,0,0:0:0:0:
410,234,109996,1,0,0:0:0:0:
371,57,110318,1,0,0:0:0:0:
158,112,110641,5,0,0:0:0:0:
156,144,110721,1,0,0:0:0:0:
154,176,110802,1,0,0:0:0:0:
152,208,110882,1,0,0:0:0:0:
121,190,110963,5,0,0:0:0:0:
358,247,111125,5,0,0:0:0:0:
360,279,111205,1,0,0:0:0:0:
362,311,111286,1,0,0:0:0:0:
364,343,111366,1,0,0:0:0:0:
395,332,111447,5,0,0:0:0:0:
152,328,111608,6,0,P|93:327|57:286,1,106.875004076958
134,242,111931,1,0,0:0:0:0:
167,244,112038,1,0,0:0:0:0:
200,240,112146,1,0,0:0:0:0:
231,230,112253,1,0,0:0:0:0:
263,219,112361,1,0,0:0:0:0:
296,215,112468,1,0,0:0:0:0:
328,219,112576,5,0,0:0:0:0:
462,357,112738,1,0,0:0:0:0:
404,135,112899,1,0,0:0:0:0:
260,306,113060,1,0,0:0:0:0:
485,236,113221,6,0,L|422:222,1,47.5
248,25,113544,1,0,0:0:0:0:
266,121,113705,1,0,0:0:0:0:
404,135,113867,5,0,0:0:0:0:
504,115,114028,1,0,0:0:0:0:
352,357,114189,2,0,L|358:293,1,47.5
266,121,114512,6,0,L|279:187,1,47.5
152,317,114834,1,0,0:0:0:0:
260,297,114996,1,0,0:0:0:0:
260,297,115076,1,0,0:0:0:0:
260,297,115157,2,0,P|217:278|155:277,1,95
37,187,115641,5,0,0:0:0:0:
71,190,115721,1,0,0:0:0:0:
101,178,115802,2,0,P|125:154|162:144,1,71.25
194,155,116125,1,0,0:0:0:0:
335,277,116286,2,0,P|301:267|275:242,1,71.25
268,207,116609,1,0,0:0:0:0:
299,24,116770,2,0,P|307:58|272:117,1,95
282,109,117200,5,0,0:0:0:0:
313,106,117307,1,0,0:0:0:0:
345,103,117415,1,0,0:0:0:0:
376,100,117522,1,0,0:0:0:0:
408,97,117630,1,0,0:0:0:0:
439,94,117737,1,0,0:0:0:0:
401,334,118060,1,0,0:0:0:0:
228,189,118383,6,0,L|174:183,1,47.5
31,307,118705,1,0,0:0:0:0:
112,237,118867,1,0,0:0:0:0:
122,210,118947,1,0,0:0:0:0:
124,182,119028,1,0,0:0:0:0:
117,154,119108,1,0,0:0:0:0:
102,130,119189,1,0,0:0:0:0:
297,46,119350,2,0,L|291:122,1,71.25
300,140,119673,5,0,0:0:0:0:
393,282,119834,1,0,0:0:0:0:
375,262,119914,1,0,0:0:0:0:
353,249,119995,1,0,0:0:0:0:
327,242,120075,1,0,0:0:0:0:
301,244,120156,1,0,0:0:0:0:
277,252,120237,1,0,0:0:0:0:
256,268,120318,6,0,P|246:296|243:321,1,31.6666666666667
160,353,120533,1,0,0:0:0:0:
144,344,120641,2,0,P|139:328|134:313,1,31.6666666666667
44,226,120856,1,0,0:0:0:0:
61,241,120963,6,0,P|113:236|161:206,1,95
256,91,121447,2,0,P|214:69|166:65,1,95
267,305,121931,1,0,0:0:0:0:
298,302,122038,1,0,0:0:0:0:
330,300,122146,1,0,0:0:0:0:
361,298,122254,6,0,P|410:295|458:264,1,95
457,183,122738,5,0,0:0:0:0:
457,183,122818,1,0,0:0:0:0:
457,183,122899,1,0,0:0:0:0:
286,134,123060,1,0,0:0:0:0:
197,304,123221,2,0,L|207:356,1,47.5
50,300,123544,5,0,0:0:0:0:
215,207,123705,1,0,0:0:0:0:
145,37,123867,1,0,0:0:0:0:
237,217,124028,1,0,0:0:0:0:
471,167,124189,2,0,L|412:156,1,47.5
261,230,124512,2,0,L|320:219,1,47.5
352,109,124834,5,0,0:0:0:0:
299,317,124996,1,0,0:0:0:0:
128,243,125157,1,0,0:0:0:0:
322,325,125318,1,0,0:0:0:0:
429,226,125479,2,0,L|446:161,1,47.5
250,61,125802,2,0,L|263:107,1,47.5
203,346,126125,5,0,0:0:0:0:
231,203,126286,1,0,0:0:0:0:
388,108,126447,1,0,0:0:0:0:
249,218,126608,1,0,0:0:0:0:
56,121,126770,2,0,L|118:101,1,47.5
267,228,127092,2,0,L|205:248,1,47.5
95,334,127415,5,0,0:0:0:0:
121,212,127576,1,0,0:0:0:0:
341,140,127738,5,0,0:0:0:0:
367,262,127899,1,0,0:0:0:0:
240,320,128060,5,0,0:0:0:0:
225,144,128221,1,0,0:0:0:0:
384,32,128383,5,0,0:0:0:0:
393,53,128463,1,0,0:0:0:0:
404,74,128544,1,0,0:0:0:0:
415,95,128624,1,0,0:0:0:0:
426,116,128705,5,0,0:0:0:0:
219,327,128867,1,0,0:0:0:0:
239,170,129028,1,0,0:0:0:0:
367,262,129189,1,0,0:0:0:0:
90,286,129350,5,0,0:0:0:0:
38,112,129512,1,0,0:0:0:0:
201,64,129673,1,0,0:0:0:0:
253,238,129834,1,0,0:0:0:0:
424,289,129996,5,0,0:0:0:0:
477,106,130158,1,0,0:0:0:0:
307,56,130319,1,0,0:0:0:0:
253,238,130480,1,0,0:0:0:0:
62,337,130641,5,0,0:0:0:0:
57,264,130748,1,0,0:0:0:0:
52,191,130856,1,0,0:0:0:0:
47,118,130963,1,0,0:0:0:0:
96,63,131071,1,0,0:0:0:0:
167,52,131178,1,0,0:0:0:0:
235,77,131286,6,0,B|265:78|286:88|286:88|328:57|328:57|354:57|381:64,1,142.5
401,70,131608,1,0,0:0:0:0:
270,353,131770,2,0,L|243:181,1,142.5
270,204,132092,2,0,L|330:231,1,47.5
413,281,132254,5,0,0:0:0:0:
413,281,132294,1,0,0:0:0:0:
413,281,132334,2,0,B|379:304|379:304|308:282|308:282|418:167|366:38|234:-13|110:67|88:184|200:289|200:289|137:318|137:318|94:294,1,831.25
