osu file format v14

[General]
AudioFilename: audio.mp3
AudioLeadIn: 0
PreviewTime: 38278
Countdown: 0
SampleSet: Normal
StackLeniency: 0.7
Mode: 1
LetterboxInBreaks: 0
WidescreenStoryboard: 0

[Editor]
Bookmarks: 68467
DistanceSpacing: 0.8
BeatDivisor: 4
GridSize: 8
TimelineZoom: 3.999998

[Metadata]
Title:Sailing Force
TitleUnicode:Sailing Force
Artist:penoreri
ArtistUnicode:ぺのれり
Creator:MMzz
Version:Oni
Source:SOUND VOLTEX IV HEAVENLY HAVEN
Tags:Nofool Midnaait iloveyou4ever
BeatmapID:1343810
BeatmapSetID:632890

[Difficulty]
HPDrainRate:5
CircleSize:5
OverallDifficulty:6
ApproachRate:5
SliderMultiplier:1.4
SliderTickRate:1

[Events]
//Background and Video events
0,0,"bg (2).jpg",0,0
//Break Periods
//Storyboard Layer 0 (Background)
//Storyboard Layer 1 (Fail)
//Storyboard Layer 2 (Pass)
//Storyboard Layer 3 (Foreground)
//Storyboard Sound Samples

[TimingPoints]
2052,377.358490566038,4,1,0,80,1,0
38278,-100,4,1,0,80,0,1
59410,-100,4,1,0,80,0,0
94127,458.015267175573,4,1,0,80,1,0
94127,-83.3333333333333,4,1,0,80,0,0
94585,-100,4,1,0,80,0,0
95501,545.454545454546,4,1,0,80,1,0
96046,416.666666666667,4,1,0,80,1,0
97712,389.61038961039,4,1,0,80,1,0
98491,384.615384615385,4,1,0,80,1,0
99260,377.358490566038,4,1,0,80,1,1
114260,-100,4,1,0,80,0,0

[HitObjects]
184,168,2052,5,4,0:0:0:0:
184,152,2240,1,8,0:0:0:0:
184,152,2335,1,8,0:0:0:0:
192,152,2429,1,8,0:0:0:0:
192,152,2523,1,8,0:0:0:0:
192,120,2712,1,8,0:0:0:0:
192,120,2806,1,8,0:0:0:0:
192,120,3089,1,8,0:0:0:0:
192,120,3278,1,8,0:0:0:0:
184,120,3467,1,8,0:0:0:0:
184,120,3561,1,8,0:0:0:0:
184,120,3844,1,8,0:0:0:0:
184,120,4127,1,8,0:0:0:0:
184,120,4316,1,4,0:0:0:0:
56,152,4599,1,8,0:0:0:0:
128,168,4693,1,8,0:0:0:0:
184,120,4882,1,4,0:0:0:0:
168,128,5259,1,8,0:0:0:0:
168,128,5353,1,8,0:0:0:0:
168,128,5448,1,8,0:0:0:0:
168,128,5542,1,8,0:0:0:0:
168,128,5825,1,8,0:0:0:0:
160,128,6014,1,0,0:0:0:0:
160,128,6202,1,8,0:0:0:0:
160,128,6391,1,0,0:0:0:0:
160,128,6580,1,4,0:0:0:0:
152,128,6768,1,0,0:0:0:0:
152,128,6863,1,8,0:0:0:0:
152,128,7052,1,0,0:0:0:0:
152,128,7146,1,0,0:0:0:0:
144,128,7335,1,0,0:0:0:0:
144,128,7429,1,8,0:0:0:0:
144,128,7618,1,8,0:0:0:0:
144,128,7712,1,0,0:0:0:0:
144,128,7901,1,0,0:0:0:0:
144,128,7995,1,8,0:0:0:0:
144,128,8089,1,0,0:0:0:0:
160,128,8278,1,12,0:0:0:0:
144,128,8844,1,0,0:0:0:0:
144,128,9221,1,0,0:0:0:0:
160,104,9410,5,8,0:0:0:0:
160,104,9599,1,0,0:0:0:0:
160,104,9693,1,8,0:0:0:0:
160,104,9882,1,0,0:0:0:0:
160,104,9976,1,0,0:0:0:0:
160,104,10165,1,8,0:0:0:0:
160,104,10353,1,0,0:0:0:0:
160,104,10636,1,8,0:0:0:0:
160,104,10731,1,8,0:0:0:0:
160,104,10919,1,0,0:0:0:0:
168,96,11108,1,4,0:0:0:0:
184,80,11297,1,8,0:0:0:0:
184,80,11391,1,8,0:0:0:0:
184,80,11485,1,8,0:0:0:0:
184,80,11674,1,4,0:0:0:0:
184,80,11863,1,8,0:0:0:0:
184,80,11957,1,8,0:0:0:0:
184,80,12052,1,8,0:0:0:0:
184,80,12240,1,4,0:0:0:0:
176,80,12429,1,8,0:0:0:0:
176,80,12523,1,8,0:0:0:0:
176,80,12618,1,0,0:0:0:0:
72,136,12806,2,0,L|240:264,2,210
192,136,14127,1,4,0:0:0:0:
192,136,14316,1,8,0:0:0:0:
192,136,14504,1,0,0:0:0:0:
192,136,14599,1,0,0:0:0:0:
192,136,14693,1,8,0:0:0:0:
192,136,14882,1,0,0:0:0:0:
184,128,15070,1,8,0:0:0:0:
184,128,15259,1,0,0:0:0:0:
184,128,15353,1,0,0:0:0:0:
184,128,15448,1,8,0:0:0:0:
176,144,15636,1,0,0:0:0:0:
176,144,15731,1,0,0:0:0:0:
176,136,15919,1,8,0:0:0:0:
176,136,16014,1,0,0:0:0:0:
176,136,16108,1,0,0:0:0:0:
176,136,16202,1,8,0:0:0:0:
176,136,16391,1,0,0:0:0:0:
176,136,16580,1,8,0:0:0:0:
176,136,16674,1,8,0:0:0:0:
176,136,16768,1,0,0:0:0:0:
176,136,16957,1,12,0:0:0:0:
144,128,17335,1,8,0:0:0:0:
144,128,17523,1,0,0:0:0:0:
144,128,17618,1,0,0:0:0:0:
144,128,17712,1,8,0:0:0:0:
144,128,17901,1,0,0:0:0:0:
136,120,18089,1,8,0:0:0:0:
136,120,18278,1,0,0:0:0:0:
136,120,18372,1,0,0:0:0:0:
136,120,18467,1,8,0:0:0:0:
136,120,18655,1,0,0:0:0:0:
136,120,18844,1,8,0:0:0:0:
136,120,18938,1,0,0:0:0:0:
136,120,19127,1,8,0:0:0:0:
136,120,19221,1,0,0:0:0:0:
136,120,19410,1,8,0:0:0:0:
136,120,19504,1,8,0:0:0:0:
136,120,19693,1,8,0:0:0:0:
136,120,19882,1,8,0:0:0:0:
136,120,20165,1,0,0:0:0:0:
136,120,20448,1,0,0:0:0:0:
136,120,20731,1,12,0:0:0:0:
160,152,21108,1,8,0:0:0:0:
160,152,21297,1,0,0:0:0:0:
160,152,21391,1,0,0:0:0:0:
160,152,21485,1,8,0:0:0:0:
160,152,21674,1,0,0:0:0:0:
160,152,21863,1,8,0:0:0:0:
160,152,22052,1,0,0:0:0:0:
160,152,22146,1,0,0:0:0:0:
160,152,22240,1,8,0:0:0:0:
152,144,22429,1,8,0:0:0:0:
152,144,22618,1,0,0:0:0:0:
152,144,22712,1,8,0:0:0:0:
152,144,22806,1,0,0:0:0:0:
152,144,22995,1,8,0:0:0:0:
144,144,23184,1,0,0:0:0:0:
144,144,23372,1,8,0:0:0:0:
144,144,23467,1,8,0:0:0:0:
152,144,23561,1,0,0:0:0:0:
160,136,23750,1,8,0:0:0:0:
160,136,23844,1,8,0:0:0:0:
160,136,23938,1,0,0:0:0:0:
160,136,24127,1,8,0:0:0:0:
160,136,24221,1,8,0:0:0:0:
160,136,24316,1,0,0:0:0:0:
160,136,24504,1,8,0:0:0:0:
160,136,24599,1,0,0:0:0:0:
160,136,24693,1,8,0:0:0:0:
176,112,24882,1,8,0:0:0:0:
176,112,24976,1,8,0:0:0:0:
176,112,25070,1,0,0:0:0:0:
176,112,25259,1,8,0:0:0:0:
176,112,25353,1,8,0:0:0:0:
176,112,25448,1,0,0:0:0:0:
176,112,25542,1,0,0:0:0:0:
176,112,25636,1,0,0:0:0:0:
168,104,25825,1,12,0:0:0:0:
80,184,26202,1,8,0:0:0:0:
80,184,26391,1,8,0:0:0:0:
120,192,26580,1,0,0:0:0:0:
120,192,26674,1,8,0:0:0:0:
120,192,26957,1,0,0:0:0:0:
120,184,27146,1,0,0:0:0:0:
120,184,27240,1,0,0:0:0:0:
128,184,27335,1,8,0:0:0:0:
128,184,27523,1,0,0:0:0:0:
120,184,27712,1,8,0:0:0:0:
120,184,27901,1,8,0:0:0:0:
168,152,28089,1,0,0:0:0:0:
168,152,28184,1,8,0:0:0:0:
168,152,28467,1,0,0:0:0:0:
168,152,28655,1,0,0:0:0:0:
168,152,28844,1,8,0:0:0:0:
168,152,28938,1,8,0:0:0:0:
168,152,29033,1,0,0:0:0:0:
168,152,29221,1,8,0:0:0:0:
168,160,29410,1,8,0:0:0:0:
168,160,29599,1,0,0:0:0:0:
168,160,29693,1,8,0:0:0:0:
160,152,29976,1,0,0:0:0:0:
160,152,30165,1,0,0:0:0:0:
160,152,30259,1,0,0:0:0:0:
160,152,30353,1,8,0:0:0:0:
160,152,30542,1,0,0:0:0:0:
160,160,30731,1,8,0:0:0:0:
160,160,30919,1,8,0:0:0:0:
160,160,31108,1,0,0:0:0:0:
160,160,31202,1,8,0:0:0:0:
160,160,31391,1,8,0:0:0:0:
152,160,31485,1,0,0:0:0:0:
152,160,31580,1,8,0:0:0:0:
152,160,31768,1,8,0:0:0:0:
136,144,31957,1,0,0:0:0:0:
136,144,32146,1,8,0:0:0:0:
120,144,32429,1,4,0:0:0:0:
208,128,32712,1,8,0:0:0:0:
208,128,32901,1,0,0:0:0:0:
208,128,32995,1,0,0:0:0:0:
200,128,33089,1,8,0:0:0:0:
208,128,33278,1,8,0:0:0:0:
192,120,33467,1,0,0:0:0:0:
192,120,33561,1,0,0:0:0:0:
192,120,33655,1,0,0:0:0:0:
192,120,33750,1,8,0:0:0:0:
128,144,33938,1,8,0:0:0:0:
128,128,34033,1,8,0:0:0:0:
128,144,34127,1,0,0:0:0:0:
128,144,34221,1,8,0:0:0:0:
128,144,34410,1,8,0:0:0:0:
144,112,34599,1,8,0:0:0:0:
144,112,34787,1,0,0:0:0:0:
184,136,35070,1,8,0:0:0:0:
192,128,35259,1,0,0:0:0:0:
192,128,35353,1,0,0:0:0:0:
160,136,35825,1,0,0:0:0:0:
160,136,35919,1,0,0:0:0:0:
168,136,36391,1,0,0:0:0:0:
208,88,36517,1,0,0:0:0:0:
216,96,36643,1,0,0:0:0:0:
216,96,36768,1,0,0:0:0:0:
104,160,37995,1,0,0:0:0:0:
104,160,38089,1,8,0:0:0:0:
104,160,38278,1,4,0:0:0:0:
104,152,38467,1,8,0:0:0:0:
96,152,38655,1,0,0:0:0:0:
96,152,38750,1,0,0:0:0:0:
96,152,38844,1,8,0:0:0:0:
160,88,39033,1,0,0:0:0:0:
96,152,39127,1,0,0:0:0:0:
96,152,39221,1,8,0:0:0:0:
136,112,39316,1,0,0:0:0:0:
136,112,39504,1,0,0:0:0:0:
136,112,39599,1,8,0:0:0:0:
136,112,39787,1,0,0:0:0:0:
136,112,39976,1,8,0:0:0:0:
136,112,40165,1,0,0:0:0:0:
136,112,40259,1,0,0:0:0:0:
136,112,40353,1,8,0:0:0:0:
136,112,40542,1,8,0:0:0:0:
136,112,40636,1,8,0:0:0:0:
136,112,40731,1,0,0:0:0:0:
136,112,40825,1,8,0:0:0:0:
128,112,41014,1,0,0:0:0:0:
128,112,41108,1,8,0:0:0:0:
128,112,41297,1,0,0:0:0:0:
145,113,41485,1,8,0:0:0:0:
173,120,41674,1,0,0:0:0:0:
173,120,41768,1,0,0:0:0:0:
173,120,41863,1,8,0:0:0:0:
173,120,42052,1,0,0:0:0:0:
173,120,42146,1,0,0:0:0:0:
173,120,42240,1,8,0:0:0:0:
173,120,42335,1,8,0:0:0:0:
151,130,42523,1,0,0:0:0:0:
151,130,42618,1,8,0:0:0:0:
151,130,42806,1,0,0:0:0:0:
145,134,42995,1,8,0:0:0:0:
145,134,43184,1,0,0:0:0:0:
145,134,43278,1,0,0:0:0:0:
145,134,43372,1,0,0:0:0:0:
142,134,43467,1,8,0:0:0:0:
145,134,43655,1,8,0:0:0:0:
145,134,43750,1,0,0:0:0:0:
145,134,43844,1,0,0:0:0:0:
145,134,43938,1,8,0:0:0:0:
145,134,44127,1,8,0:0:0:0:
142,134,44221,1,8,0:0:0:0:
145,134,44316,1,0,0:0:0:0:
141,138,44504,1,8,0:0:0:0:
141,138,44693,1,0,0:0:0:0:
141,138,44787,1,0,0:0:0:0:
141,138,44882,1,8,0:0:0:0:
129,153,45165,1,0,0:0:0:0:
125,154,45259,1,8,0:0:0:0:
125,154,45448,1,0,0:0:0:0:
125,154,45636,1,8,0:0:0:0:
129,137,45825,1,0,0:0:0:0:
129,139,46014,1,8,0:0:0:0:
129,139,46108,1,0,0:0:0:0:
129,140,46297,1,0,0:0:0:0:
125,140,46391,1,8,0:0:0:0:
129,139,46768,1,8,0:0:0:0:
129,140,46957,1,8,0:0:0:0:
129,140,47052,1,0,0:0:0:0:
125,140,47146,1,8,0:0:0:0:
129,139,47335,1,0,0:0:0:0:
158,121,47523,1,8,0:0:0:0:
158,121,47618,1,8,0:0:0:0:
158,121,47712,1,0,0:0:0:0:
158,121,47901,1,8,0:0:0:0:
151,119,48089,1,0,0:0:0:0:
151,119,48184,1,0,0:0:0:0:
147,117,48278,1,8,0:0:0:0:
147,117,48372,1,8,0:0:0:0:
159,112,48561,1,0,0:0:0:0:
163,121,48655,1,8,0:0:0:0:
186,128,48844,1,0,0:0:0:0:
186,128,48938,1,0,0:0:0:0:
186,128,49033,1,8,0:0:0:0:
186,128,49221,1,0,0:0:0:0:
186,128,49316,1,0,0:0:0:0:
186,128,49410,1,8,0:0:0:0:
186,128,49599,1,8,0:0:0:0:
186,128,49693,1,8,0:0:0:0:
186,128,49882,1,8,0:0:0:0:
184,85,50070,1,0,0:0:0:0:
184,85,50165,1,8,0:0:0:0:
184,85,50353,1,4,0:0:0:0:
165,171,50542,1,8,0:0:0:0:
159,167,50731,1,0,0:0:0:0:
159,167,50825,1,0,0:0:0:0:
159,167,50919,1,8,0:0:0:0:
159,167,51108,1,0,0:0:0:0:
159,167,51202,1,0,0:0:0:0:
159,167,51297,1,8,0:0:0:0:
159,167,51391,1,0,0:0:0:0:
61,143,51580,1,0,0:0:0:0:
83,152,51674,1,8,0:0:0:0:
80,150,51863,1,0,0:0:0:0:
80,150,52052,1,8,0:0:0:0:
80,150,52240,1,0,0:0:0:0:
80,150,52335,1,0,0:0:0:0:
83,152,52429,1,8,0:0:0:0:
80,150,52618,1,8,0:0:0:0:
73,147,52712,1,8,0:0:0:0:
73,147,52806,1,0,0:0:0:0:
73,147,52901,1,8,0:0:0:0:
73,147,53089,1,0,0:0:0:0:
74,147,53184,1,8,0:0:0:0:
74,148,53372,1,0,0:0:0:0:
139,153,53561,1,8,0:0:0:0:
139,153,53655,1,8,0:0:0:0:
139,153,53844,1,0,0:0:0:0:
139,153,53938,1,8,0:0:0:0:
139,153,54127,1,0,0:0:0:0:
139,153,54221,1,0,0:0:0:0:
139,153,54316,1,8,0:0:0:0:
139,153,54410,1,0,0:0:0:0:
139,153,54599,1,0,0:0:0:0:
143,151,54693,1,8,0:0:0:0:
144,151,54882,1,0,0:0:0:0:
144,151,54976,1,0,0:0:0:0:
144,151,55070,1,0,0:0:0:0:
144,151,55165,1,8,0:0:0:0:
144,151,55353,1,0,0:0:0:0:
143,151,55448,1,8,0:0:0:0:
221,123,55636,1,8,0:0:0:0:
221,123,55731,1,0,0:0:0:0:
221,123,55825,1,0,0:0:0:0:
221,123,55919,1,8,0:0:0:0:
221,123,56108,1,0,0:0:0:0:
221,123,56202,1,8,0:0:0:0:
221,123,56391,1,4,0:0:0:0:
153,143,56580,1,8,0:0:0:0:
153,143,56674,1,8,0:0:0:0:
153,143,56768,1,0,0:0:0:0:
153,143,56957,1,12,0:0:0:0:
164,130,57335,1,8,0:0:0:0:
154,127,57523,1,0,0:0:0:0:
80,160,57618,1,0,0:0:0:0:
154,127,57712,1,8,0:0:0:0:
158,130,57901,1,0,0:0:0:0:
147,149,58089,1,8,0:0:0:0:
145,149,58184,1,8,0:0:0:0:
141,138,58278,1,0,0:0:0:0:
144,137,58467,1,8,0:0:0:0:
144,137,58561,1,0,0:0:0:0:
144,137,58655,1,8,0:0:0:0:
144,137,58844,1,0,0:0:0:0:
144,137,58938,1,0,0:0:0:0:
141,138,59033,1,8,0:0:0:0:
144,137,59127,1,8,0:0:0:0:
144,137,59221,1,0,0:0:0:0:
144,137,59316,1,0,0:0:0:0:
144,137,59410,1,0,0:0:0:0:
224,128,59599,1,0,0:0:0:0:
224,128,59787,1,8,0:0:0:0:
224,128,59976,1,8,0:0:0:0:
224,128,60070,1,8,0:0:0:0:
224,128,60165,1,0,0:0:0:0:
224,128,60353,1,0,0:0:0:0:
224,128,60448,1,8,0:0:0:0:
224,128,60636,1,0,0:0:0:0:
224,128,60731,1,8,0:0:0:0:
200,152,60919,1,0,0:0:0:0:
224,128,61108,1,0,0:0:0:0:
224,128,61297,1,8,0:0:0:0:
232,96,61485,1,8,0:0:0:0:
232,96,61580,1,8,0:0:0:0:
232,96,61674,1,0,0:0:0:0:
224,152,61863,1,0,0:0:0:0:
224,152,61957,1,8,0:0:0:0:
224,152,62146,1,8,0:0:0:0:
224,152,62240,1,8,0:0:0:0:
224,152,62429,1,0,0:0:0:0:
192,144,62618,1,0,0:0:0:0:
192,144,62806,1,8,0:0:0:0:
192,144,62995,1,0,0:0:0:0:
192,144,63089,1,0,0:0:0:0:
192,144,63184,1,0,0:0:0:0:
192,144,63372,1,0,0:0:0:0:
192,144,63467,1,0,0:0:0:0:
192,144,63561,1,8,0:0:0:0:
192,144,63655,1,8,0:0:0:0:
192,144,63750,1,0,0:0:0:0:
192,144,63844,1,0,0:0:0:0:
168,144,63938,1,8,0:0:0:0:
152,96,64221,1,8,0:0:0:0:
168,144,64504,1,4,0:0:0:0:
168,144,64882,1,0,0:0:0:0:
168,144,65070,1,8,0:0:0:0:
168,144,65165,1,8,0:0:0:0:
168,144,65259,1,8,0:0:0:0:
168,144,65353,1,8,0:0:0:0:
168,144,65448,1,0,0:0:0:0:
144,160,65731,1,0,0:0:0:0:
144,160,66014,1,0,0:0:0:0:
144,160,66202,1,8,0:0:0:0:
152,152,66391,1,0,0:0:0:0:
152,152,66485,1,0,0:0:0:0:
152,152,66580,1,8,0:0:0:0:
160,136,66674,1,8,0:0:0:0:
152,152,66768,1,0,0:0:0:0:
152,152,66863,1,8,0:0:0:0:
152,152,66957,1,0,0:0:0:0:
120,160,67335,1,12,0:0:0:0:
232,176,68467,1,0,0:0:0:0:
232,184,68844,1,0,0:0:0:0:
240,184,69033,1,0,0:0:0:0:
240,184,69221,1,8,0:0:0:0:
240,184,69410,1,0,0:0:0:0:
240,184,69599,1,8,0:0:0:0:
240,184,69787,1,8,0:0:0:0:
240,184,69976,1,0,0:0:0:0:
240,176,70353,1,0,0:0:0:0:
240,176,70542,1,0,0:0:0:0:
240,176,70731,1,8,0:0:0:0:
240,176,70919,1,0,0:0:0:0:
240,176,71108,1,8,0:0:0:0:
240,176,71297,1,8,0:0:0:0:
240,176,71485,1,8,0:0:0:0:
240,176,71863,1,0,0:0:0:0:
240,176,72052,1,0,0:0:0:0:
240,176,72240,1,8,0:0:0:0:
240,176,72429,1,0,0:0:0:0:
240,176,72618,1,8,0:0:0:0:
240,176,72806,1,8,0:0:0:0:
240,176,72995,1,0,0:0:0:0:
192,144,73372,1,8,0:0:0:0:
192,152,73561,1,0,0:0:0:0:
192,152,73750,1,8,0:0:0:0:
192,152,73938,1,8,0:0:0:0:
192,152,74127,1,0,0:0:0:0:
184,152,74316,1,8,0:0:0:0:
184,152,74504,1,0,0:0:0:0:
216,152,74882,1,0,0:0:0:0:
224,152,75070,1,0,0:0:0:0:
224,152,75259,1,8,0:0:0:0:
224,152,75448,1,0,0:0:0:0:
232,152,75636,1,8,0:0:0:0:
224,152,75825,1,8,0:0:0:0:
224,152,76014,1,0,0:0:0:0:
192,88,76391,1,0,0:0:0:0:
192,96,76580,1,0,0:0:0:0:
192,96,76768,1,8,0:0:0:0:
192,96,76957,1,0,0:0:0:0:
192,96,77146,1,8,0:0:0:0:
192,96,77335,1,8,0:0:0:0:
192,96,77523,1,8,0:0:0:0:
192,96,77901,1,0,0:0:0:0:
192,96,78089,1,0,0:0:0:0:
192,96,78278,1,8,0:0:0:0:
192,96,78467,1,0,0:0:0:0:
192,96,78655,1,8,0:0:0:0:
192,96,78844,1,8,0:0:0:0:
192,96,79033,1,0,0:0:0:0:
192,96,79316,1,0,0:0:0:0:
128,136,79599,1,8,0:0:0:0:
208,112,79976,1,8,0:0:0:0:
208,112,80165,1,0,0:0:0:0:
208,112,80353,1,0,0:0:0:0:
256,216,80542,1,12,0:0:0:0:
240,176,80731,1,8,0:0:0:0:
240,176,80825,1,0,0:0:0:0:
240,176,80919,1,8,0:0:0:0:
248,160,81108,1,0,0:0:0:0:
240,160,81297,1,8,0:0:0:0:
240,160,81485,1,8,0:0:0:0:
240,160,81580,1,8,0:0:0:0:
240,160,81674,1,0,0:0:0:0:
240,160,81863,1,0,0:0:0:0:
240,160,82052,1,8,0:0:0:0:
120,120,82240,1,0,0:0:0:0:
120,120,82335,1,0,0:0:0:0:
120,120,82523,1,8,0:0:0:0:
120,120,82618,1,0,0:0:0:0:
120,120,82712,1,0,0:0:0:0:
120,120,82806,1,8,0:0:0:0:
128,136,82995,1,0,0:0:0:0:
128,136,83089,1,0,0:0:0:0:
128,136,83278,1,8,0:0:0:0:
128,136,83372,1,8,0:0:0:0:
128,136,83467,1,0,0:0:0:0:
128,136,83561,1,8,0:0:0:0:
208,152,83750,1,0,0:0:0:0:
224,160,83844,1,0,0:0:0:0:
224,160,83938,1,0,0:0:0:0:
216,160,84127,1,0,0:0:0:0:
216,160,84221,1,0,0:0:0:0:
216,160,84316,1,8,0:0:0:0:
200,152,84504,1,0,0:0:0:0:
200,152,84599,1,0,0:0:0:0:
200,152,84693,1,8,0:0:0:0:
200,152,84787,1,8,0:0:0:0:
200,152,84882,1,0,0:0:0:0:
200,152,84976,1,0,0:0:0:0:
200,152,85070,1,8,0:0:0:0:
200,152,85259,1,0,0:0:0:0:
200,152,85353,1,0,0:0:0:0:
200,152,85542,1,8,0:0:0:0:
200,152,85636,1,0,0:0:0:0:
200,152,85731,1,0,0:0:0:0:
200,152,85825,1,8,0:0:0:0:
192,152,86014,1,0,0:0:0:0:
192,160,86108,1,0,0:0:0:0:
176,128,86202,1,8,0:0:0:0:
176,128,86297,1,8,0:0:0:0:
176,128,86391,1,0,0:0:0:0:
176,128,86580,1,4,0:0:0:0:
136,160,86957,1,8,0:0:0:0:
136,160,87146,1,0,0:0:0:0:
136,160,87240,1,0,0:0:0:0:
128,152,87335,1,0,0:0:0:0:
128,152,87523,1,0,0:0:0:0:
128,152,87712,1,8,0:0:0:0:
128,152,87901,1,4,0:0:0:0:
192,128,88278,1,8,0:0:0:0:
192,128,88372,1,8,0:0:0:0:
192,128,88467,1,0,0:0:0:0:
184,128,88655,1,8,0:0:0:0:
184,128,88750,1,8,0:0:0:0:
184,128,88844,1,0,0:0:0:0:
176,128,89033,1,0,0:0:0:0:
176,128,89127,1,0,0:0:0:0:
176,128,89221,1,8,0:0:0:0:
176,128,89316,1,8,0:0:0:0:
176,128,89410,1,0,0:0:0:0:
176,128,89504,1,0,0:0:0:0:
176,128,89599,1,8,0:0:0:0:
168,128,89882,1,8,0:0:0:0:
168,128,89976,1,8,0:0:0:0:
168,128,90165,1,4,0:0:0:0:
160,128,90542,1,0,0:0:0:0:
160,128,90731,1,8,0:0:0:0:
160,128,90919,1,0,0:0:0:0:
160,128,91014,1,0,0:0:0:0:
168,112,91108,1,8,0:0:0:0:
176,128,91202,1,0,0:0:0:0:
136,160,91391,1,8,0:0:0:0:
144,160,91580,1,8,0:0:0:0:
144,160,91768,1,0,0:0:0:0:
120,160,91957,1,8,0:0:0:0:
120,160,92052,1,0,0:0:0:0:
120,160,92240,1,8,0:0:0:0:
240,160,92429,1,0,0:0:0:0:
240,160,92523,1,0,0:0:0:0:
240,160,92618,1,0,0:0:0:0:
240,160,92806,1,8,0:0:0:0:
232,160,92995,1,0,0:0:0:0:
232,160,93089,1,8,0:0:0:0:
232,160,93278,1,0,0:0:0:0:
232,160,93372,1,8,0:0:0:0:
232,160,93561,1,0,0:0:0:0:
232,160,93655,1,8,0:0:0:0:
232,160,93844,1,8,0:0:0:0:
232,160,93938,1,0,0:0:0:0:
232,160,94033,1,0,0:0:0:0:
232,160,94127,1,8,0:0:0:0:
160,144,94585,1,8,0:0:0:0:
160,152,95043,1,0,0:0:0:0:
160,152,95501,1,0,0:0:0:0:
160,152,96046,1,8,0:0:0:0:
160,152,96671,1,0,0:0:0:0:
160,152,96775,1,0,0:0:0:0:
160,152,96879,1,0,0:0:0:0:
160,152,97087,1,0,0:0:0:0:
160,152,97296,1,8,0:0:0:0:
152,152,97504,1,0,0:0:0:0:
152,152,97712,1,8,0:0:0:0:
152,152,97906,1,8,0:0:0:0:
152,152,98101,1,0,0:0:0:0:
152,152,98296,1,8,0:0:0:0:
144,152,98491,1,8,0:0:0:0:
144,152,98587,1,8,0:0:0:0:
144,152,98683,1,8,0:0:0:0:
144,152,98779,1,8,0:0:0:0:
144,152,98875,1,8,0:0:0:0:
144,152,98971,1,8,0:0:0:0:
144,152,99067,1,8,0:0:0:0:
144,152,99164,1,8,0:0:0:0:
136,152,99260,1,0,0:0:0:0:
192,120,99448,1,8,0:0:0:0:
192,120,99543,1,0,0:0:0:0:
200,128,99731,1,0,0:0:0:0:
200,128,99826,1,8,0:0:0:0:
200,128,100014,1,0,0:0:0:0:
200,128,100203,1,8,0:0:0:0:
200,128,100392,1,0,0:0:0:0:
200,128,100486,1,0,0:0:0:0:
200,128,100580,1,8,0:0:0:0:
216,128,100769,1,0,0:0:0:0:
216,128,100958,1,8,0:0:0:0:
216,128,101052,1,0,0:0:0:0:
216,128,101241,1,0,0:0:0:0:
208,128,101335,1,8,0:0:0:0:
192,128,101524,1,0,0:0:0:0:
192,128,101618,1,0,0:0:0:0:
192,128,101712,1,8,0:0:0:0:
192,136,101807,1,8,0:0:0:0:
192,136,101995,1,0,0:0:0:0:
192,128,102090,1,8,0:0:0:0:
192,128,102278,1,0,0:0:0:0:
192,128,102467,1,8,0:0:0:0:
192,136,102656,1,0,0:0:0:0:
192,136,102750,1,0,0:0:0:0:
192,128,102844,1,8,0:0:0:0:
192,136,103033,1,0,0:0:0:0:
192,136,103127,1,0,0:0:0:0:
192,136,103222,1,8,0:0:0:0:
192,136,103316,1,0,0:0:0:0:
192,136,103505,1,0,0:0:0:0:
192,136,103599,1,8,0:0:0:0:
192,136,103693,1,8,0:0:0:0:
192,136,103788,1,0,0:0:0:0:
208,144,103976,1,8,0:0:0:0:
184,104,104165,5,0,0:0:0:0:
184,104,104260,1,0,0:0:0:0:
184,104,104354,1,8,0:0:0:0:
184,104,104543,1,0,0:0:0:0:
184,104,104637,1,0,0:0:0:0:
184,104,104731,1,8,0:0:0:0:
184,104,104920,1,8,0:0:0:0:
184,104,105014,1,8,0:0:0:0:
184,104,105109,1,8,0:0:0:0:
184,104,105203,1,8,0:0:0:0:
184,104,105297,1,0,0:0:0:0:
192,88,105486,1,0,0:0:0:0:
192,88,105580,1,0,0:0:0:0:
192,88,105675,1,8,0:0:0:0:
192,88,105863,1,0,0:0:0:0:
192,88,106052,1,8,0:0:0:0:
192,88,106241,1,8,0:0:0:0:
192,88,106335,1,0,0:0:0:0:
192,88,106429,1,8,0:0:0:0:
192,88,106618,1,8,0:0:0:0:
184,104,106807,1,0,0:0:0:0:
184,104,106995,1,0,0:0:0:0:
184,104,107090,1,0,0:0:0:0:
184,104,107184,1,8,0:0:0:0:
184,104,107373,1,0,0:0:0:0:
184,104,107561,1,8,0:0:0:0:
184,104,107750,1,8,0:0:0:0:
184,104,107844,1,0,0:0:0:0:
184,104,107939,1,8,0:0:0:0:
184,104,108127,1,8,0:0:0:0:
192,104,108316,1,0,0:0:0:0:
256,96,108505,1,0,0:0:0:0:
256,96,108599,1,8,0:0:0:0:
264,96,108788,1,0,0:0:0:0:
264,96,108882,1,0,0:0:0:0:
256,96,109071,1,0,0:0:0:0:
256,96,109165,1,8,0:0:0:0:
256,96,109354,1,0,0:0:0:0:
256,96,109448,1,0,0:0:0:0:
256,96,109637,1,8,0:0:0:0:
256,96,109731,1,8,0:0:0:0:
256,96,109920,1,8,0:0:0:0:
256,96,110014,1,0,0:0:0:0:
256,96,110203,1,0,0:0:0:0:
256,96,110297,1,8,0:0:0:0:
256,96,110486,1,0,0:0:0:0:
256,96,110580,1,0,0:0:0:0:
256,96,110769,1,0,0:0:0:0:
256,96,110863,1,8,0:0:0:0:
240,96,111052,1,0,0:0:0:0:
232,96,111146,1,0,0:0:0:0:
240,104,111524,1,8,0:0:0:0:
240,104,111618,1,8,0:0:0:0:
240,104,111712,1,8,0:0:0:0:
240,104,111807,1,8,0:0:0:0:
240,104,111901,1,0,0:0:0:0:
240,104,111995,1,0,0:0:0:0:
240,104,112090,1,0,0:0:0:0:
240,104,112184,1,0,0:0:0:0:
152,152,112278,1,8,0:0:0:0:
152,152,112373,1,8,0:0:0:0:
152,152,112467,1,0,0:0:0:0:
152,152,112561,1,0,0:0:0:0:
152,152,112656,1,0,0:0:0:0:
144,152,112750,1,0,0:0:0:0:
144,152,112844,1,8,0:0:0:0:
224,96,113033,1,0,0:0:0:0:
224,160,113127,1,0,0:0:0:0:
224,96,113222,1,0,0:0:0:0:
224,96,113316,1,8,0:0:0:0:
152,152,113505,1,8,0:0:0:0:
224,96,113599,1,8,0:0:0:0:
224,96,113788,1,8,0:0:0:0:
224,96,113882,1,8,0:0:0:0:
224,96,114071,1,8,0:0:0:0:
224,96,114260,1,12,0:0:0:0:
