osu file format v14

[General]
AudioFilename: audio.mp3
AudioLeadIn: 0
PreviewTime: 38278
Countdown: 0
SampleSet: Normal
StackLeniency: 0.7
Mode: 1
LetterboxInBreaks: 0
WidescreenStoryboard: 0

[Editor]
Bookmarks: 68467
DistanceSpacing: 0.8
BeatDivisor: 4
GridSize: 8
TimelineZoom: 4.399997

[Metadata]
Title:Sailing Force
TitleUnicode:Sailing Force
Artist:penoreri
ArtistUnicode:ぺのれり
Creator:MMzz
Version:Inner Oni
Source:SOUND VOLTEX IV HEAVENLY HAVEN
Tags:Nofool Midnaait iloveyou4ever
BeatmapID:1343333
BeatmapSetID:632890

[Difficulty]
HPDrainRate:6
CircleSize:5
OverallDifficulty:7
ApproachRate:5
SliderMultiplier:1.6
SliderTickRate:1

[Events]
//Background and Video events
0,0,"bg (2).jpg",0,0
//Break Periods
//Storyboard Layer 0 (Background)
//Storyboard Layer 1 (Fail)
//Storyboard Layer 2 (Pass)
//Storyboard Layer 3 (Foreground)
//Storyboard Sound Samples

[TimingPoints]
2052,377.358490566038,4,1,0,80,1,0
14127,-90.9090909090909,4,1,0,80,0,0
26202,-100,4,1,0,80,0,0
38278,-86.9565217391304,4,1,0,80,0,1
59410,-86.9565217391304,4,1,0,80,0,0
68467,-100,4,1,0,80,0,0
80542,-83.3333333333333,4,1,0,80,0,0
94127,458.015267175573,4,1,0,80,1,0
94127,-71.4285714285714,4,1,0,80,0,0
94585,-100,4,1,0,80,0,0
95501,545.454545454546,4,1,0,80,1,0
96046,416.666666666667,4,1,0,80,1,0
97712,389.61038961039,4,1,0,80,1,0
97712,-95.2380952380952,4,1,0,80,0,0
98491,384.615384615385,4,1,0,80,1,0
98491,-90.9090909090909,4,1,0,80,0,0
99260,377.358490566038,4,1,0,80,1,1
99260,-83.3333333333333,4,1,0,80,0,1
114260,-83.3333333333333,4,1,0,80,0,0

[HitObjects]
176,144,2052,5,4,0:0:0:0:
192,152,2240,1,8,0:0:0:0:
192,152,2335,1,8,0:0:0:0:
192,152,2429,1,8,0:0:0:0:
192,152,2523,1,8,0:0:0:0:
192,152,2712,1,0,0:0:0:0:
192,152,2806,1,8,0:0:0:0:
184,152,2995,1,8,0:0:0:0:
184,152,3089,1,8,0:0:0:0:
184,152,3278,1,8,0:0:0:0:
184,152,3467,1,8,0:0:0:0:
184,152,3561,1,8,0:0:0:0:
120,160,3750,1,0,0:0:0:0:
120,160,3844,1,8,0:0:0:0:
176,128,4127,1,8,0:0:0:0:
192,152,4316,1,4,0:0:0:0:
192,152,4599,1,8,0:0:0:0:
192,152,4693,1,8,0:0:0:0:
192,152,4882,1,4,0:0:0:0:
136,112,5259,1,8,0:0:0:0:
136,112,5353,1,8,0:0:0:0:
136,112,5448,1,8,0:0:0:0:
136,112,5542,1,8,0:0:0:0:
128,120,5731,1,0,0:0:0:0:
128,120,5825,1,8,0:0:0:0:
112,128,6014,1,0,0:0:0:0:
112,128,6202,1,8,0:0:0:0:
112,120,6391,1,0,0:0:0:0:
112,120,6485,1,0,0:0:0:0:
112,128,6580,1,8,0:0:0:0:
112,128,6674,1,8,0:0:0:0:
112,128,6768,1,0,0:0:0:0:
112,128,6863,1,8,0:0:0:0:
112,128,6957,1,0,0:0:0:0:
112,128,7052,1,0,0:0:0:0:
112,128,7146,1,8,0:0:0:0:
112,128,7240,1,0,0:0:0:0:
112,128,7335,1,0,0:0:0:0:
112,128,7429,1,8,0:0:0:0:
112,120,7523,1,8,0:0:0:0:
112,120,7618,1,0,0:0:0:0:
112,120,7712,1,8,0:0:0:0:
112,120,7806,1,0,0:0:0:0:
112,120,7901,1,8,0:0:0:0:
88,120,7995,1,0,0:0:0:0:
192,144,8278,1,12,0:0:0:0:
144,136,8467,1,0,0:0:0:0:
160,128,8655,1,8,0:0:0:0:
184,88,8750,1,8,0:0:0:0:
144,136,8844,1,0,0:0:0:0:
160,96,9033,1,8,0:0:0:0:
168,96,9221,1,0,0:0:0:0:
160,96,9410,1,8,0:0:0:0:
88,160,9504,1,8,0:0:0:0:
160,96,9599,1,0,0:0:0:0:
160,96,9693,1,8,0:0:0:0:
160,96,9882,1,8,0:0:0:0:
160,96,9976,1,0,0:0:0:0:
152,96,10165,1,8,0:0:0:0:
192,136,10259,1,0,0:0:0:0:
192,136,10353,1,8,0:0:0:0:
176,96,10542,1,0,0:0:0:0:
176,96,10636,1,8,0:0:0:0:
176,96,10731,1,0,0:0:0:0:
64,136,10919,1,0,0:0:0:0:
64,128,11014,1,0,0:0:0:0:
64,128,11108,1,8,0:0:0:0:
96,120,11202,1,0,0:0:0:0:
96,120,11297,1,0,0:0:0:0:
96,120,11391,1,8,0:0:0:0:
96,120,11485,1,8,0:0:0:0:
88,120,11580,1,0,0:0:0:0:
88,120,11674,1,8,0:0:0:0:
112,144,11768,1,0,0:0:0:0:
120,144,11863,1,0,0:0:0:0:
120,144,11957,1,8,0:0:0:0:
120,144,12052,1,8,0:0:0:0:
120,144,12146,1,0,0:0:0:0:
120,144,12240,1,8,0:0:0:0:
80,136,12335,1,0,0:0:0:0:
88,144,12429,1,8,0:0:0:0:
88,144,12523,1,8,0:0:0:0:
88,144,12618,1,0,0:0:0:0:
88,152,12806,1,8,0:0:0:0:
88,152,12901,1,8,0:0:0:0:
104,136,12995,1,8,0:0:0:0:
104,136,13089,1,8,0:0:0:0:
104,136,13184,1,8,0:0:0:0:
104,136,13278,1,8,0:0:0:0:
104,144,13372,1,0,0:0:0:0:
168,112,13467,1,0,0:0:0:0:
176,112,13561,1,8,0:0:0:0:
176,112,13655,1,8,0:0:0:0:
104,144,13750,1,0,0:0:0:0:
176,112,13844,1,8,0:0:0:0:
168,112,13938,1,8,0:0:0:0:
168,112,14033,1,8,0:0:0:0:
120,168,14127,1,4,0:0:0:0:
136,128,14316,1,8,0:0:0:0:
136,128,14410,1,0,0:0:0:0:
128,128,14599,1,0,0:0:0:0:
128,128,14693,1,8,0:0:0:0:
152,112,14882,1,0,0:0:0:0:
144,112,15070,1,8,0:0:0:0:
104,88,15259,1,0,0:0:0:0:
104,88,15353,1,0,0:0:0:0:
104,88,15448,1,8,0:0:0:0:
104,88,15542,1,8,0:0:0:0:
88,152,15636,1,0,0:0:0:0:
88,152,15731,1,8,0:0:0:0:
120,80,15919,1,8,0:0:0:0:
120,80,16014,1,0,0:0:0:0:
56,138,16108,1,0,0:0:0:0:
168,176,16202,1,8,0:0:0:0:
168,176,16297,1,0,0:0:0:0:
168,176,16391,1,8,0:0:0:0:
152,104,16580,1,0,0:0:0:0:
152,104,16674,1,8,0:0:0:0:
152,104,16768,1,0,0:0:0:0:
157,70,16863,1,0,0:0:0:0:
120,112,16957,1,8,0:0:0:0:
120,112,17052,1,8,0:0:0:0:
120,112,17146,1,0,0:0:0:0:
120,112,17240,1,8,0:0:0:0:
120,112,17335,1,8,0:0:0:0:
120,112,17429,1,8,0:0:0:0:
112,112,17523,1,0,0:0:0:0:
112,112,17618,1,0,0:0:0:0:
112,112,17712,1,8,0:0:0:0:
112,112,17806,1,0,0:0:0:0:
152,104,17901,1,8,0:0:0:0:
152,104,17948,1,8,0:0:0:0:
152,104,17995,1,8,0:0:0:0:
152,104,18089,1,0,0:0:0:0:
144,104,18184,1,8,0:0:0:0:
144,104,18278,1,0,0:0:0:0:
168,112,18372,1,0,0:0:0:0:
168,112,18467,1,8,0:0:0:0:
168,112,18561,1,8,0:0:0:0:
168,112,18655,1,0,0:0:0:0:
144,128,18750,1,0,0:0:0:0:
148,82,18844,1,8,0:0:0:0:
158,120,18938,1,0,0:0:0:0:
158,120,19033,1,0,0:0:0:0:
158,120,19127,1,8,0:0:0:0:
158,120,19221,1,0,0:0:0:0:
158,120,19316,1,0,0:0:0:0:
158,120,19410,1,8,0:0:0:0:
123,89,19504,1,8,0:0:0:0:
183,128,19693,1,8,0:0:0:0:
178,125,19882,1,0,0:0:0:0:
176,112,20070,1,8,0:0:0:0:
176,112,20165,1,0,0:0:0:0:
172,113,20448,1,0,0:0:0:0:
172,113,20731,1,12,0:0:0:0:
119,138,21108,1,8,0:0:0:0:
119,138,21297,1,0,0:0:0:0:
119,138,21391,1,0,0:0:0:0:
119,138,21485,1,8,0:0:0:0:
119,138,21580,1,8,0:0:0:0:
119,138,21674,1,0,0:0:0:0:
146,129,21863,1,8,0:0:0:0:
140,137,22052,1,0,0:0:0:0:
140,137,22146,1,0,0:0:0:0:
140,137,22240,1,8,0:0:0:0:
140,137,22335,1,0,0:0:0:0:
140,137,22429,1,8,0:0:0:0:
140,137,22618,1,0,0:0:0:0:
140,137,22712,1,8,0:0:0:0:
78,151,22806,1,0,0:0:0:0:
140,137,22901,1,0,0:0:0:0:
140,137,22995,1,8,0:0:0:0:
143,157,23184,1,8,0:0:0:0:
143,157,23278,1,8,0:0:0:0:
200,88,23372,1,0,0:0:0:0:
200,88,23467,1,0,0:0:0:0:
200,88,23561,1,8,0:0:0:0:
200,88,23655,1,8,0:0:0:0:
200,88,23750,1,0,0:0:0:0:
200,88,23844,1,0,0:0:0:0:
200,88,23938,1,8,0:0:0:0:
200,88,24033,1,8,0:0:0:0:
200,88,24127,1,8,0:0:0:0:
200,88,24221,1,0,0:0:0:0:
200,88,24316,5,8,0:0:0:0:
200,88,24410,1,8,0:0:0:0:
200,88,24504,1,8,0:0:0:0:
200,88,24599,1,0,0:0:0:0:
67,140,24693,1,8,0:0:0:0:
133,131,24787,1,8,0:0:0:0:
134,141,24882,1,0,0:0:0:0:
134,141,24976,1,8,0:0:0:0:
88,112,25070,1,0,0:0:0:0:
88,112,25165,1,0,0:0:0:0:
88,112,25259,1,8,0:0:0:0:
88,112,25353,1,8,0:0:0:0:
200,144,25448,1,0,0:0:0:0:
200,144,25511,1,0,0:0:0:0:
200,144,25574,1,0,0:0:0:0:
200,144,25636,1,0,0:0:0:0:
200,144,25699,1,0,0:0:0:0:
200,144,25762,1,0,0:0:0:0:
96,152,25825,5,8,0:0:0:0:
96,152,26202,1,12,0:0:0:0:
126,129,26391,1,8,0:0:0:0:
61,136,26580,1,0,0:0:0:0:
61,136,26674,1,8,0:0:0:0:
61,136,26863,1,8,0:0:0:0:
61,136,26957,1,0,0:0:0:0:
144,98,27146,1,0,0:0:0:0:
144,98,27240,1,0,0:0:0:0:
144,98,27335,1,8,0:0:0:0:
144,98,27523,1,0,0:0:0:0:
144,98,27712,1,8,0:0:0:0:
144,98,27901,1,8,0:0:0:0:
126,130,28089,1,0,0:0:0:0:
126,130,28184,1,8,0:0:0:0:
134,128,28372,1,8,0:0:0:0:
134,128,28467,1,0,0:0:0:0:
132,128,28655,1,0,0:0:0:0:
132,128,28844,1,8,0:0:0:0:
132,128,28938,1,8,0:0:0:0:
132,128,29033,1,0,0:0:0:0:
129,125,29221,1,8,0:0:0:0:
129,125,29410,1,8,0:0:0:0:
132,128,29599,1,0,0:0:0:0:
132,128,29693,1,8,0:0:0:0:
132,128,29787,1,0,0:0:0:0:
132,128,29882,1,0,0:0:0:0:
127,125,29976,1,8,0:0:0:0:
126,138,30165,1,0,0:0:0:0:
126,138,30259,1,8,0:0:0:0:
126,138,30448,1,8,0:0:0:0:
126,138,30542,1,0,0:0:0:0:
123,139,30731,1,8,0:0:0:0:
123,139,30919,1,8,0:0:0:0:
126,138,31108,1,0,0:0:0:0:
126,138,31202,1,8,0:0:0:0:
116,140,31391,1,8,0:0:0:0:
116,140,31485,1,0,0:0:0:0:
116,140,31580,1,8,0:0:0:0:
110,141,31768,1,8,0:0:0:0:
117,136,31957,1,0,0:0:0:0:
178,86,32052,1,0,0:0:0:0:
116,136,32146,1,8,0:0:0:0:
118,132,32240,1,0,0:0:0:0:
136,128,32429,1,12,0:0:0:0:
131,142,32712,1,8,0:0:0:0:
172,106,32775,1,8,0:0:0:0:
172,106,32838,1,0,0:0:0:0:
192,200,32901,1,0,0:0:0:0:
192,200,32995,1,8,0:0:0:0:
192,152,33089,1,0,0:0:0:0:
112,144,33278,1,8,0:0:0:0:
88,152,33467,1,0,0:0:0:0:
88,152,33561,1,0,0:0:0:0:
88,152,33655,1,0,0:0:0:0:
88,152,33750,1,8,0:0:0:0:
104,136,33938,1,8,0:0:0:0:
104,136,34033,1,8,0:0:0:0:
104,136,34127,1,0,0:0:0:0:
104,136,34221,1,8,0:0:0:0:
208,152,34363,1,0,0:0:0:0:
208,152,34410,1,8,0:0:0:0:
192,128,34599,1,0,0:0:0:0:
192,128,34787,1,8,0:0:0:0:
192,128,34835,1,8,0:0:0:0:
240,160,34976,1,0,0:0:0:0:
240,160,35070,1,8,0:0:0:0:
212,142,35259,1,0,0:0:0:0:
28,156,35353,1,0,0:0:0:0:
148,151,35542,1,8,0:0:0:0:
148,151,35636,1,8,0:0:0:0:
139,152,35825,1,0,0:0:0:0:
45,149,35919,1,0,0:0:0:0:
139,152,36108,1,8,0:0:0:0:
138,152,36202,1,8,0:0:0:0:
222,166,36391,1,0,0:0:0:0:
222,166,36517,1,0,0:0:0:0:
222,166,36643,1,8,0:0:0:0:
222,166,36768,1,4,0:0:0:0:
165,138,37523,1,8,0:0:0:0:
159,140,37618,1,8,0:0:0:0:
146,134,37806,1,8,0:0:0:0:
146,134,37995,1,0,0:0:0:0:
146,134,38089,1,8,0:0:0:0:
146,134,38278,1,4,0:0:0:0:
148,126,38467,1,0,0:0:0:0:
148,126,38561,1,0,0:0:0:0:
148,126,38655,1,8,0:0:0:0:
148,126,38750,1,8,0:0:0:0:
148,126,38844,1,0,0:0:0:0:
148,125,38938,1,0,0:0:0:0:
148,125,39033,1,8,0:0:0:0:
148,125,39127,1,0,0:0:0:0:
148,125,39221,1,0,0:0:0:0:
148,126,39316,1,8,0:0:0:0:
148,126,39504,1,0,0:0:0:0:
148,126,39599,1,8,0:0:0:0:
148,126,39787,1,0,0:0:0:0:
148,125,39976,1,0,0:0:0:0:
148,125,40070,1,0,0:0:0:0:
148,125,40165,1,8,0:0:0:0:
148,126,40259,1,8,0:0:0:0:
148,126,40353,1,0,0:0:0:0:
148,126,40448,1,0,0:0:0:0:
124,150,40542,1,8,0:0:0:0:
124,150,40636,1,8,0:0:0:0:
124,150,40731,1,0,0:0:0:0:
124,150,40825,1,8,0:0:0:0:
152,113,41014,1,0,0:0:0:0:
152,113,41108,1,8,0:0:0:0:
124,150,41297,1,0,0:0:0:0:
155,117,41485,1,0,0:0:0:0:
155,117,41580,1,8,0:0:0:0:
155,117,41674,1,0,0:0:0:0:
152,113,41768,1,0,0:0:0:0:
152,113,41863,1,8,0:0:0:0:
152,113,41957,1,0,0:0:0:0:
149,121,42052,1,8,0:0:0:0:
149,121,42146,1,0,0:0:0:0:
149,121,42240,1,0,0:0:0:0:
149,121,42335,1,8,0:0:0:0:
141,125,42523,1,8,0:0:0:0:
141,125,42618,1,0,0:0:0:0:
141,125,42712,1,0,0:0:0:0:
152,113,42806,1,8,0:0:0:0:
152,113,42901,1,8,0:0:0:0:
155,112,42995,1,0,0:0:0:0:
153,112,43089,1,0,0:0:0:0:
153,112,43184,1,8,0:0:0:0:
153,112,43278,1,0,0:0:0:0:
153,112,43372,1,0,0:0:0:0:
153,112,43467,1,8,0:0:0:0:
107,131,43655,1,8,0:0:0:0:
107,131,43750,1,8,0:0:0:0:
107,131,43844,1,0,0:0:0:0:
107,131,43938,1,8,0:0:0:0:
107,131,44033,1,8,0:0:0:0:
107,131,44127,1,0,0:0:0:0:
107,131,44221,1,8,0:0:0:0:
107,131,44316,1,0,0:0:0:0:
95,128,44504,1,8,0:0:0:0:
95,128,44599,1,0,0:0:0:0:
96,128,44693,1,0,0:0:0:0:
96,128,44787,1,0,0:0:0:0:
96,128,44882,1,8,0:0:0:0:
70,149,45070,1,0,0:0:0:0:
111,118,45165,1,0,0:0:0:0:
111,118,45259,1,8,0:0:0:0:
112,116,45448,1,8,0:0:0:0:
112,116,45542,1,8,0:0:0:0:
108,117,45636,1,0,0:0:0:0:
108,117,45731,1,0,0:0:0:0:
100,115,45825,1,8,0:0:0:0:
100,115,46014,1,0,0:0:0:0:
100,115,46108,1,8,0:0:0:0:
88,152,46202,1,0,0:0:0:0:
88,152,46297,1,8,0:0:0:0:
128,144,46391,1,8,0:0:0:0:
146,112,46580,1,0,0:0:0:0:
146,112,46674,1,0,0:0:0:0:
146,112,46768,1,8,0:0:0:0:
146,112,46957,1,8,0:0:0:0:
146,112,47052,1,0,0:0:0:0:
146,112,47146,1,8,0:0:0:0:
257,120,47335,1,8,0:0:0:0:
257,120,47429,1,8,0:0:0:0:
257,120,47523,1,0,0:0:0:0:
179,144,47618,1,8,0:0:0:0:
179,144,47665,1,8,0:0:0:0:
179,144,47712,1,0,0:0:0:0:
179,144,47806,1,0,0:0:0:0:
179,144,47901,1,8,0:0:0:0:
179,144,47995,1,0,0:0:0:0:
165,143,48089,1,8,0:0:0:0:
165,143,48184,1,8,0:0:0:0:
165,143,48278,1,0,0:0:0:0:
165,143,48372,1,8,0:0:0:0:
188,150,48561,1,8,0:0:0:0:
188,150,48655,1,0,0:0:0:0:
188,150,48750,1,0,0:0:0:0:
152,129,48844,1,8,0:0:0:0:
158,116,49033,1,0,0:0:0:0:
160,116,49127,1,0,0:0:0:0:
159,112,49221,1,8,0:0:0:0:
157,113,49316,1,8,0:0:0:0:
157,113,49410,1,0,0:0:0:0:
158,110,49504,1,0,0:0:0:0:
152,110,49599,1,8,0:0:0:0:
151,106,49693,1,8,0:0:0:0:
151,106,49787,1,0,0:0:0:0:
149,106,49882,1,8,0:0:0:0:
125,99,50070,1,0,0:0:0:0:
125,99,50165,1,8,0:0:0:0:
125,99,50353,1,4,0:0:0:0:
160,96,50542,1,0,0:0:0:0:
160,96,50636,1,0,0:0:0:0:
144,104,50731,1,8,0:0:0:0:
144,96,50825,1,8,0:0:0:0:
144,96,50919,1,0,0:0:0:0:
144,96,51014,1,0,0:0:0:0:
144,96,51108,1,8,0:0:0:0:
144,96,51202,1,0,0:0:0:0:
144,96,51297,1,0,0:0:0:0:
144,96,51391,1,8,0:0:0:0:
136,96,51580,1,0,0:0:0:0:
136,96,51674,1,8,0:0:0:0:
136,96,51863,1,8,0:0:0:0:
176,120,52052,1,0,0:0:0:0:
176,120,52146,1,0,0:0:0:0:
176,120,52240,1,8,0:0:0:0:
176,120,52335,1,8,0:0:0:0:
184,120,52429,1,8,0:0:0:0:
184,120,52523,1,0,0:0:0:0:
184,112,52618,1,8,0:0:0:0:
184,112,52712,1,8,0:0:0:0:
184,112,52806,1,0,0:0:0:0:
184,112,52901,1,8,0:0:0:0:
144,104,53089,1,0,0:0:0:0:
144,104,53184,1,8,0:0:0:0:
144,96,53372,1,0,0:0:0:0:
80,146,53561,1,0,0:0:0:0:
80,146,53655,1,8,0:0:0:0:
65,147,53844,1,8,0:0:0:0:
67,147,53938,1,0,0:0:0:0:
67,147,54033,1,8,0:0:0:0:
77,121,54127,1,0,0:0:0:0:
77,121,54221,1,0,0:0:0:0:
77,128,54316,1,8,0:0:0:0:
98,117,54410,1,0,0:0:0:0:
100,118,54599,1,8,0:0:0:0:
100,118,54693,1,0,0:0:0:0:
101,118,54787,1,0,0:0:0:0:
97,125,54882,1,8,0:0:0:0:
97,125,54976,1,8,0:0:0:0:
100,125,55070,1,0,0:0:0:0:
100,125,55165,1,8,0:0:0:0:
100,125,55259,1,8,0:0:0:0:
100,125,55353,1,0,0:0:0:0:
100,125,55448,1,8,0:0:0:0:
225,122,55636,1,8,0:0:0:0:
225,122,55699,1,8,0:0:0:0:
225,122,55762,1,8,0:0:0:0:
225,122,55825,1,8,0:0:0:0:
225,122,55888,1,8,0:0:0:0:
225,122,55951,1,8,0:0:0:0:
186,126,56014,1,0,0:0:0:0:
186,126,56077,1,0,0:0:0:0:
186,126,56140,1,0,0:0:0:0:
186,126,56202,1,0,0:0:0:0:
186,126,56265,1,8,0:0:0:0:
161,104,56328,1,8,0:0:0:0:
131,76,56391,1,0,0:0:0:0:
128,120,56580,1,8,0:0:0:0:
128,120,56674,1,0,0:0:0:0:
120,112,56863,1,0,0:0:0:0:
120,112,56957,1,8,0:0:0:0:
168,160,57146,1,0,0:0:0:0:
168,160,57240,1,0,0:0:0:0:
168,160,57335,1,8,0:0:0:0:
168,160,57523,1,8,0:0:0:0:
168,160,57618,1,0,0:0:0:0:
168,160,57712,1,8,0:0:0:0:
168,160,57806,1,8,0:0:0:0:
168,160,57901,1,0,0:0:0:0:
96,136,58089,1,8,0:0:0:0:
96,136,58184,1,8,0:0:0:0:
96,136,58278,1,0,0:0:0:0:
232,96,58372,1,0,0:0:0:0:
96,136,58467,1,8,0:0:0:0:
216,128,58655,1,8,0:0:0:0:
216,128,58718,1,8,0:0:0:0:
216,128,58781,1,0,0:0:0:0:
216,128,58844,1,0,0:0:0:0:
192,112,58907,1,0,0:0:0:0:
192,112,58970,1,0,0:0:0:0:
160,120,59033,1,8,0:0:0:0:
160,120,59096,1,8,0:0:0:0:
152,120,59158,1,8,0:0:0:0:
152,120,59221,1,8,0:0:0:0:
152,120,59284,1,8,0:0:0:0:
152,120,59347,1,8,0:0:0:0:
152,120,59410,1,0,0:0:0:0:
192,128,59599,1,0,0:0:0:0:
192,128,59693,1,0,0:0:0:0:
192,128,59787,1,8,0:0:0:0:
192,128,59976,1,0,0:0:0:0:
192,128,60070,1,0,0:0:0:0:
192,128,60165,1,8,0:0:0:0:
192,128,60259,1,0,0:0:0:0:
192,128,60353,1,0,0:0:0:0:
192,128,60448,1,8,0:0:0:0:
192,136,60636,1,0,0:0:0:0:
192,136,60731,1,8,0:0:0:0:
192,136,60919,1,0,0:0:0:0:
192,136,61108,1,0,0:0:0:0:
192,136,61202,1,0,0:0:0:0:
192,136,61297,1,8,0:0:0:0:
192,136,61485,1,8,0:0:0:0:
192,136,61580,1,0,0:0:0:0:
200,136,61674,1,8,0:0:0:0:
200,136,61768,1,0,0:0:0:0:
200,136,61863,1,0,0:0:0:0:
200,136,61957,1,8,0:0:0:0:
200,136,62146,1,0,0:0:0:0:
200,136,62240,1,8,0:0:0:0:
200,136,62429,1,8,0:0:0:0:
200,120,62618,1,0,0:0:0:0:
200,120,62712,1,0,0:0:0:0:
200,120,62806,1,8,0:0:0:0:
184,120,62995,1,0,0:0:0:0:
184,120,63058,1,0,0:0:0:0:
184,120,63121,1,0,0:0:0:0:
184,120,63184,1,8,0:0:0:0:
184,120,63246,1,0,0:0:0:0:
184,120,63309,1,0,0:0:0:0:
184,120,63372,1,8,0:0:0:0:
184,120,63435,1,0,0:0:0:0:
184,120,63498,1,0,0:0:0:0:
200,112,63561,1,8,0:0:0:0:
200,112,63624,1,8,0:0:0:0:
200,112,63687,1,0,0:0:0:0:
200,112,63750,1,0,0:0:0:0:
200,112,63813,1,0,0:0:0:0:
200,112,63875,1,0,0:0:0:0:
200,112,63938,1,8,0:0:0:0:
200,112,64127,1,0,0:0:0:0:
200,112,64221,1,0,0:0:0:0:
184,72,64410,1,0,0:0:0:0:
184,72,64504,1,12,0:0:0:0:
160,120,64787,1,8,0:0:0:0:
160,120,64882,1,0,0:0:0:0:
160,120,64976,1,0,0:0:0:0:
232,136,65070,1,8,0:0:0:0:
224,136,65165,1,8,0:0:0:0:
224,136,65259,1,8,0:0:0:0:
224,144,65353,1,8,0:0:0:0:
224,136,65448,1,4,0:0:0:0:
208,120,65731,1,0,0:0:0:0:
208,120,66014,1,0,0:0:0:0:
208,119,66202,1,8,0:0:0:0:
147,120,66391,1,0,0:0:0:0:
147,120,66485,1,0,0:0:0:0:
147,120,66580,1,8,0:0:0:0:
147,120,66674,1,8,0:0:0:0:
147,120,66768,1,0,0:0:0:0:
147,120,66863,1,8,0:0:0:0:
129,103,66957,1,4,0:0:0:0:
129,103,67335,1,12,0:0:0:0:
256,192,67429,12,0,68372,0:0:0:0:
229,114,68467,5,8,0:0:0:0:
229,114,68655,1,8,0:0:0:0:
229,114,68844,1,0,0:0:0:0:
229,114,69033,1,0,0:0:0:0:
229,114,69221,1,8,0:0:0:0:
224,114,69410,1,0,0:0:0:0:
229,114,69599,1,8,0:0:0:0:
222,114,69787,1,8,0:0:0:0:
222,114,69976,1,8,0:0:0:0:
224,114,70165,1,8,0:0:0:0:
220,114,70353,1,0,0:0:0:0:
222,114,70542,1,0,0:0:0:0:
222,114,70731,1,8,0:0:0:0:
224,114,70919,1,0,0:0:0:0:
220,114,71108,1,8,0:0:0:0:
222,114,71297,1,8,0:0:0:0:
222,114,71485,1,0,0:0:0:0:
217,95,71674,1,0,0:0:0:0:
214,97,71863,1,8,0:0:0:0:
214,97,72052,1,0,0:0:0:0:
220,101,72240,1,8,0:0:0:0:
220,101,72429,1,8,0:0:0:0:
217,101,72618,1,0,0:0:0:0:
217,101,72806,1,8,0:0:0:0:
220,101,72995,1,0,0:0:0:0:
220,101,73184,1,0,0:0:0:0:
217,101,73372,1,8,0:0:0:0:
217,101,73561,1,0,0:0:0:0:
220,101,73750,1,8,0:0:0:0:
220,101,73938,1,8,0:0:0:0:
217,101,74127,1,0,0:0:0:0:
210,100,74316,1,0,0:0:0:0:
229,114,74504,5,8,0:0:0:0:
229,114,74692,1,8,0:0:0:0:
229,114,74881,1,0,0:0:0:0:
229,114,75070,1,0,0:0:0:0:
229,114,75258,1,8,0:0:0:0:
224,114,75447,1,0,0:0:0:0:
229,114,75636,1,8,0:0:0:0:
222,114,75824,1,8,0:0:0:0:
222,114,76013,1,8,0:0:0:0:
224,114,76202,1,8,0:0:0:0:
220,114,76390,1,0,0:0:0:0:
222,114,76579,1,0,0:0:0:0:
222,114,76768,1,8,0:0:0:0:
224,114,76956,1,0,0:0:0:0:
220,114,77145,1,8,0:0:0:0:
222,114,77334,1,8,0:0:0:0:
222,114,77522,1,0,0:0:0:0:
217,95,77711,1,0,0:0:0:0:
214,97,77900,1,8,0:0:0:0:
214,97,78089,1,0,0:0:0:0:
220,101,78277,1,8,0:0:0:0:
220,101,78466,1,8,0:0:0:0:
217,101,78655,1,0,0:0:0:0:
217,101,78843,1,8,0:0:0:0:
220,101,79032,1,0,0:0:0:0:
146,164,79316,1,0,0:0:0:0:
146,164,79599,1,8,0:0:0:0:
140,150,79976,1,8,0:0:0:0:
139,150,80165,1,0,0:0:0:0:
135,149,80353,1,0,0:0:0:0:
187,163,80542,1,8,0:0:0:0:
156,104,80605,1,0,0:0:0:0:
177,144,80668,1,0,0:0:0:0:
178,144,80731,1,8,0:0:0:0:
178,144,80794,1,0,0:0:0:0:
181,142,80857,1,0,0:0:0:0:
178,143,80919,1,8,0:0:0:0:
178,143,80982,1,8,0:0:0:0:
178,146,81045,1,0,0:0:0:0:
179,147,81108,1,8,0:0:0:0:
179,145,81171,1,8,0:0:0:0:
179,144,81234,1,0,0:0:0:0:
191,137,81297,1,8,0:0:0:0:
191,137,81360,1,0,0:0:0:0:
191,137,81423,1,0,0:0:0:0:
191,137,81485,1,8,0:0:0:0:
191,137,81548,1,0,0:0:0:0:
190,136,81611,1,0,0:0:0:0:
189,135,81674,1,8,0:0:0:0:
188,128,81737,1,8,0:0:0:0:
188,128,81800,1,0,0:0:0:0:
187,128,81863,1,8,0:0:0:0:
183,126,81926,1,8,0:0:0:0:
183,126,81989,1,0,0:0:0:0:
155,123,82052,1,8,0:0:0:0:
155,123,82114,1,0,0:0:0:0:
184,97,82177,1,0,0:0:0:0:
184,97,82240,1,0,0:0:0:0:
184,97,82303,1,0,0:0:0:0:
184,97,82366,1,0,0:0:0:0:
181,89,82429,1,8,0:0:0:0:
181,89,82492,1,8,0:0:0:0:
181,89,82555,1,0,0:0:0:0:
181,89,82618,1,8,0:0:0:0:
181,89,82680,1,8,0:0:0:0:
181,89,82743,1,0,0:0:0:0:
181,79,82806,1,8,0:0:0:0:
182,79,82869,1,0,0:0:0:0:
182,79,82932,1,0,0:0:0:0:
182,79,82995,1,0,0:0:0:0:
184,78,83058,1,0,0:0:0:0:
184,78,83121,1,0,0:0:0:0:
143,137,83184,1,8,0:0:0:0:
143,137,83246,1,8,0:0:0:0:
143,137,83309,1,0,0:0:0:0:
143,137,83372,1,8,0:0:0:0:
143,137,83435,1,8,0:0:0:0:
143,137,83498,1,0,0:0:0:0:
147,135,83561,1,8,0:0:0:0:
185,117,83624,1,8,0:0:0:0:
185,117,83687,1,0,0:0:0:0:
185,117,83750,1,0,0:0:0:0:
185,117,83813,1,0,0:0:0:0:
185,117,83875,1,0,0:0:0:0:
185,117,83938,1,8,0:0:0:0:
192,91,84001,1,8,0:0:0:0:
192,91,84064,1,0,0:0:0:0:
192,91,84127,1,0,0:0:0:0:
192,91,84190,1,0,0:0:0:0:
192,91,84253,1,0,0:0:0:0:
192,91,84316,1,8,0:0:0:0:
181,88,84379,1,8,0:0:0:0:
181,88,84441,1,0,0:0:0:0:
181,88,84504,1,0,0:0:0:0:
181,88,84567,1,0,0:0:0:0:
181,88,84630,1,0,0:0:0:0:
182,88,84693,1,8,0:0:0:0:
230,108,84787,1,8,0:0:0:0:
230,108,84882,1,0,0:0:0:0:
230,108,84976,1,0,0:0:0:0:
213,109,85070,1,8,0:0:0:0:
213,109,85133,1,8,0:0:0:0:
212,109,85196,1,8,0:0:0:0:
212,109,85259,1,0,0:0:0:0:
212,109,85322,1,8,0:0:0:0:
212,108,85385,1,8,0:0:0:0:
212,107,85448,1,8,0:0:0:0:
212,107,85511,1,0,0:0:0:0:
212,106,85574,1,8,0:0:0:0:
211,105,85636,1,8,0:0:0:0:
211,105,85699,1,8,0:0:0:0:
211,105,85762,1,0,0:0:0:0:
192,105,85825,1,8,0:0:0:0:
254,143,86108,1,0,0:0:0:0:
254,143,86202,1,8,0:0:0:0:
254,143,86297,1,0,0:0:0:0:
254,143,86391,1,0,0:0:0:0:
254,143,86580,1,4,0:0:0:0:
99,153,86768,1,0,0:0:0:0:
99,153,86863,1,0,0:0:0:0:
99,153,86957,1,8,0:0:0:0:
99,153,87146,1,0,0:0:0:0:
99,153,87240,1,8,0:0:0:0:
99,153,87335,1,0,0:0:0:0:
99,153,87523,1,0,0:0:0:0:
99,153,87618,1,0,0:0:0:0:
99,153,87712,1,8,0:0:0:0:
99,153,87901,1,4,0:0:0:0:
203,170,88278,1,8,0:0:0:0:
203,170,88341,1,8,0:0:0:0:
203,170,88404,1,8,0:0:0:0:
203,170,88467,1,0,0:0:0:0:
288,144,88561,1,0,0:0:0:0:
201,156,88655,1,8,0:0:0:0:
202,156,88718,1,8,0:0:0:0:
202,156,88781,1,0,0:0:0:0:
200,155,88844,1,0,0:0:0:0:
184,85,88938,1,0,0:0:0:0:
199,152,89033,1,8,0:0:0:0:
199,152,89096,1,0,0:0:0:0:
199,152,89158,1,0,0:0:0:0:
198,152,89221,1,8,0:0:0:0:
197,152,89284,1,0,0:0:0:0:
197,152,89347,1,0,0:0:0:0:
194,151,89410,1,8,0:0:0:0:
194,151,89473,1,0,0:0:0:0:
196,151,89536,1,0,0:0:0:0:
196,151,89599,1,8,0:0:0:0:
173,116,89882,1,0,0:0:0:0:
173,116,89976,1,0,0:0:0:0:
161,146,90165,1,12,0:0:0:0:
154,139,90353,1,0,0:0:0:0:
154,125,90448,1,0,0:0:0:0:
160,163,90542,1,0,0:0:0:0:
104,88,90731,1,8,0:0:0:0:
104,88,90825,1,8,0:0:0:0:
104,88,90920,1,0,0:0:0:0:
104,88,91014,1,0,0:0:0:0:
88,152,91108,1,8,0:0:0:0:
88,152,91203,1,8,0:0:0:0:
120,80,91391,1,0,0:0:0:0:
203,133,91485,1,8,0:0:0:0:
56,138,91580,1,0,0:0:0:0:
168,176,91769,1,8,0:0:0:0:
102,177,91957,1,0,0:0:0:0:
199,238,92052,1,0,0:0:0:0:
199,238,92240,1,8,0:0:0:0:
151,155,92429,1,8,0:0:0:0:
151,155,92523,1,8,0:0:0:0:
205,149,92618,1,0,0:0:0:0:
205,149,92806,1,8,0:0:0:0:
89,157,92901,1,0,0:0:0:0:
183,156,92995,1,0,0:0:0:0:
186,156,93089,1,8,0:0:0:0:
186,156,93184,1,0,0:0:0:0:
186,156,93278,1,0,0:0:0:0:
186,156,93372,1,8,0:0:0:0:
186,156,93561,1,8,0:0:0:0:
186,156,93655,1,8,0:0:0:0:
187,155,93750,1,0,0:0:0:0:
186,156,93844,1,8,0:0:0:0:
186,156,93938,1,0,0:0:0:0:
186,156,94033,1,0,0:0:0:0:
216,152,94127,1,12,0:0:0:0:
123,163,94585,1,8,0:0:0:0:
257,78,94985,1,0,0:0:0:0:
153,135,95043,1,0,0:0:0:0:
170,131,95501,1,0,0:0:0:0:
170,131,96046,1,12,0:0:0:0:
186,170,96671,1,8,0:0:0:0:
182,164,96775,1,8,0:0:0:0:
181,164,96879,1,0,0:0:0:0:
176,153,97087,1,0,0:0:0:0:
141,177,97296,1,8,0:0:0:0:
136,172,97504,1,0,0:0:0:0:
136,172,97712,1,8,0:0:0:0:
136,172,97906,1,8,0:0:0:0:
136,172,98101,1,0,0:0:0:0:
136,172,98296,1,8,0:0:0:0:
136,172,98491,1,0,0:0:0:0:
136,172,98587,1,0,0:0:0:0:
136,172,98683,1,8,0:0:0:0:
136,172,98779,1,8,0:0:0:0:
168,183,98875,1,0,0:0:0:0:
168,183,98971,1,8,0:0:0:0:
168,183,99067,1,8,0:0:0:0:
168,183,99164,1,8,0:0:0:0:
168,183,99260,1,4,0:0:0:0:
160,188,99448,1,8,0:0:0:0:
168,183,99543,1,0,0:0:0:0:
168,183,99731,1,0,0:0:0:0:
168,183,99826,1,8,0:0:0:0:
122,148,100014,1,0,0:0:0:0:
122,148,100109,1,0,0:0:0:0:
122,148,100203,1,8,0:0:0:0:
133,110,100392,1,0,0:0:0:0:
122,148,100486,1,0,0:0:0:0:
133,110,100580,1,8,0:0:0:0:
133,110,100675,1,8,0:0:0:0:
128,152,100769,1,0,0:0:0:0:
143,105,100958,1,8,0:0:0:0:
142,105,101052,1,0,0:0:0:0:
142,105,101241,1,0,0:0:0:0:
142,105,101335,1,8,0:0:0:0:
143,105,101524,1,0,0:0:0:0:
178,94,101618,5,0,0:0:0:0:
177,76,101712,1,8,0:0:0:0:
175,77,101807,1,8,0:0:0:0:
179,61,101995,1,8,0:0:0:0:
179,61,102090,1,0,0:0:0:0:
179,61,102184,1,8,0:0:0:0:
179,57,102278,1,0,0:0:0:0:
144,144,102467,1,8,0:0:0:0:
168,120,102561,1,0,0:0:0:0:
168,128,102656,1,0,0:0:0:0:
168,128,102750,1,0,0:0:0:0:
168,128,102844,1,8,0:0:0:0:
168,128,103033,1,0,0:0:0:0:
168,128,103127,1,0,0:0:0:0:
176,120,103222,1,8,0:0:0:0:
176,120,103316,1,8,0:0:0:0:
176,120,103505,1,0,0:0:0:0:
176,120,103599,1,8,0:0:0:0:
168,120,103788,1,8,0:0:0:0:
96,128,103882,1,8,0:0:0:0:
112,112,103976,1,0,0:0:0:0:
112,112,104071,1,0,0:0:0:0:
112,112,104165,5,8,0:0:0:0:
112,112,104260,1,0,0:0:0:0:
112,112,104354,1,8,0:0:0:0:
152,136,104448,1,8,0:0:0:0:
112,112,104543,1,0,0:0:0:0:
112,112,104637,1,0,0:0:0:0:
112,112,104731,1,8,0:0:0:0:
112,112,104826,1,8,0:0:0:0:
112,112,104920,1,0,0:0:0:0:
112,112,105014,1,0,0:0:0:0:
112,112,105109,1,8,0:0:0:0:
112,112,105203,1,0,0:0:0:0:
210,165,105297,5,8,0:0:0:0:
210,165,105360,1,0,0:0:0:0:
210,165,105423,1,0,0:0:0:0:
210,165,105486,1,8,0:0:0:0:
210,165,105549,1,0,0:0:0:0:
210,165,105612,1,0,0:0:0:0:
148,154,105675,1,8,0:0:0:0:
148,154,105737,1,8,0:0:0:0:
148,154,105800,1,0,0:0:0:0:
148,154,105863,1,8,0:0:0:0:
148,154,105926,1,8,0:0:0:0:
148,154,105989,1,0,0:0:0:0:
148,154,106052,1,8,0:0:0:0:
148,154,106115,1,0,0:0:0:0:
148,154,106178,1,0,0:0:0:0:
148,154,106241,1,8,0:0:0:0:
148,154,106304,1,0,0:0:0:0:
148,154,106366,1,0,0:0:0:0:
184,151,106429,1,8,0:0:0:0:
184,151,106492,1,8,0:0:0:0:
184,151,106555,1,0,0:0:0:0:
184,151,106618,1,8,0:0:0:0:
184,151,106681,1,8,0:0:0:0:
184,151,106744,1,0,0:0:0:0:
210,165,106807,5,8,0:0:0:0:
210,165,106870,1,0,0:0:0:0:
210,165,106933,1,0,0:0:0:0:
210,165,106996,1,8,0:0:0:0:
210,165,107059,1,0,0:0:0:0:
210,165,107122,1,0,0:0:0:0:
148,154,107185,1,8,0:0:0:0:
148,154,107247,1,8,0:0:0:0:
148,154,107310,1,0,0:0:0:0:
148,154,107373,1,8,0:0:0:0:
148,154,107436,1,8,0:0:0:0:
148,154,107499,1,0,0:0:0:0:
148,154,107562,1,8,0:0:0:0:
148,154,107625,1,0,0:0:0:0:
148,154,107688,1,0,0:0:0:0:
148,154,107751,1,8,0:0:0:0:
148,154,107813,1,0,0:0:0:0:
148,154,107876,1,0,0:0:0:0:
184,151,107939,1,8,0:0:0:0:
184,151,108002,1,8,0:0:0:0:
184,151,108065,1,0,0:0:0:0:
184,151,108128,1,8,0:0:0:0:
184,151,108191,1,8,0:0:0:0:
184,151,108254,1,0,0:0:0:0:
159,130,108316,1,8,0:0:0:0:
255,159,108410,1,0,0:0:0:0:
255,159,108505,1,0,0:0:0:0:
238,152,108599,1,8,0:0:0:0:
238,152,108693,1,0,0:0:0:0:
238,152,108788,1,0,0:0:0:0:
232,146,108882,1,8,0:0:0:0:
232,146,108976,1,8,0:0:0:0:
232,146,109071,1,0,0:0:0:0:
232,146,109165,1,8,0:0:0:0:
235,146,109260,1,8,0:0:0:0:
238,146,109354,1,0,0:0:0:0:
162,143,109448,1,8,0:0:0:0:
162,143,109543,1,0,0:0:0:0:
162,143,109637,1,0,0:0:0:0:
162,143,109731,1,8,0:0:0:0:
162,143,109826,1,0,0:0:0:0:
145,142,109920,1,0,0:0:0:0:
153,117,110014,1,8,0:0:0:0:
146,125,110109,1,8,0:0:0:0:
146,125,110203,1,0,0:0:0:0:
146,125,110297,1,8,0:0:0:0:
145,126,110392,1,8,0:0:0:0:
145,126,110486,1,0,0:0:0:0:
145,126,110580,1,8,0:0:0:0:
164,124,110675,1,0,0:0:0:0:
164,124,110769,1,0,0:0:0:0:
166,124,110863,1,8,0:0:0:0:
166,124,110958,1,0,0:0:0:0:
166,123,111052,1,0,0:0:0:0:
166,123,111146,1,12,0:0:0:0:
97,165,111524,1,8,0:0:0:0:
97,165,111587,1,8,0:0:0:0:
97,165,111649,1,8,0:0:0:0:
97,165,111712,1,8,0:0:0:0:
97,165,111775,1,8,0:0:0:0:
97,165,111838,1,8,0:0:0:0:
113,157,111901,1,0,0:0:0:0:
113,157,111964,1,0,0:0:0:0:
113,157,112027,1,0,0:0:0:0:
112,156,112090,1,0,0:0:0:0:
112,156,112153,1,8,0:0:0:0:
112,156,112215,1,8,0:0:0:0:
112,156,112278,1,0,0:0:0:0:
112,156,112341,1,0,0:0:0:0:
112,156,112404,1,8,0:0:0:0:
112,156,112467,1,8,0:0:0:0:
112,156,112530,1,8,0:0:0:0:
112,156,112593,1,8,0:0:0:0:
113,157,112656,1,0,0:0:0:0:
113,157,112719,1,0,0:0:0:0:
113,157,112782,1,0,0:0:0:0:
112,156,112844,1,8,0:0:0:0:
137,149,113033,1,0,0:0:0:0:
137,149,113127,1,0,0:0:0:0:
132,144,113222,1,8,0:0:0:0:
132,144,113316,1,8,0:0:0:0:
132,144,113505,1,0,0:0:0:0:
133,144,113599,1,8,0:0:0:0:
130,139,113788,1,0,0:0:0:0:
130,139,113882,1,8,0:0:0:0:
88,145,114071,1,8,0:0:0:0:
88,145,114260,1,12,0:0:0:0:
