osu file format v14

[General]
AudioFilename: audio.ogg
AudioLeadIn: 0
PreviewTime: 38391
Countdown: 0
SampleSet: Soft
StackLeniency: 0.7
Mode: 3
LetterboxInBreaks: 0
SpecialStyle: 0
WidescreenStoryboard: 1

[Editor]
DistanceSpacing: 1.5
BeatDivisor: 4
GridSize: 4
TimelineZoom: 2.2

[Metadata]
Title:Sailing Force
TitleUnicode:Sailing Force
Artist:penoreri
ArtistUnicode:ぺのれり
Creator:ML-ysg
Version:EXHAUST
Source:SOUND VOLTEX IV HEAVENLY HAVEN
Tags:electronic instrumental sdvx オリジナル楽曲コンテスト The 6th KAC Original Song Contest excellence award lovely_hyahya video game konami
BeatmapID:4123810
BeatmapSetID:1985368

[Difficulty]
HPDrainRate:8
CircleSize:4
OverallDifficulty:8
ApproachRate:5
SliderMultiplier:1.4
SliderTickRate:1

[Events]
//Background and Video events
0,0,"sf.jpg",0,0
//Break Periods
//Storyboard Layer 0 (Background)
//Storyboard Layer 1 (Fail)
//Storyboard Layer 2 (Pass)
//Storyboard Layer 3 (Foreground)
//Storyboard Layer 4 (Overlay)
//Storyboard Sound Samples
Sample,21693,0,"cymbal.wav",55
Sample,90561,0,"boom.wav",55
Sample,94900,0,"cymbal.wav",55
Sample,106259,0,"drums.wav",45
Sample,108995,0,"drums.wav",45

[TimingPoints]
3014,377.358490566038,4,2,1,50,1,0
39240,-100.0,4,2,1,50,0,1
69429,-100.0,4,2,1,50,0,0
81504,-100.0,4,2,1,50,0,1
95089,458.015267175573,4,2,1,50,1,0
95089,-83.3333333333333,4,2,1,50,0,0
96005,-100.0,4,2,1,50,0,0
96463,545.454545454546,4,2,1,50,1,0
96463,-90.9090909090909,4,2,1,50,0,0
97008,416.666666666667,4,2,1,50,1,0
97008,-125.0,4,2,1,50,0,0
98674,389.61038961039,4,2,1,50,1,0
98674,-125.0,4,2,1,50,0,0
98868,-117.647058823529,4,2,1,50,0,0
99063,-111.111111111111,4,2,1,50,0,0
99258,-105.263157894737,4,2,1,50,0,0
99453,384.615384615385,4,2,1,50,1,0
99453,-98.0392156862745,4,2,1,50,0,0
100222,377.358490566038,4,2,1,50,1,1
115316,-100.0,4,2,1,50,0,0

[HitObjects]
64,192,3013,1,0,0:0:0:55:LR_Drum Kick Wet Fast.wav
192,192,3013,1,0,0:0:0:70:cymbal.wav
448,192,3013,1,0,0:0:0:0:
320,192,3202,1,0,0:0:0:0:
192,192,3297,1,0,0:0:0:0:
320,192,3391,1,0,0:0:0:0:
64,192,3485,128,0,3674:0:0:0:0:
192,192,3485,128,0,3674:0:0:0:0:
448,192,3674,1,0,0:0:0:0:
64,192,3768,128,0,3957:0:0:0:0:
192,192,3768,128,0,3957:0:0:0:0:
64,192,4051,128,0,4146:0:0:0:0:
448,192,4051,128,0,4146:0:0:0:0:
64,192,4240,128,0,4334:0:0:0:0:
448,192,4240,128,0,4334:0:0:0:0:
192,192,4429,1,0,0:0:0:0:
320,192,4523,128,0,4712:0:0:0:0:
448,192,4523,128,0,4712:0:0:0:0:
320,192,4806,128,0,4995:0:0:0:0:
448,192,4806,128,0,4995:0:0:0:0:
320,192,5089,128,0,5183:0:0:0:0:
448,192,5089,128,0,5183:0:0:0:0:
64,192,5278,128,0,5561:0:0:0:55:LR_Drum Kick Wet Fast.wav
192,192,5278,128,0,5561:0:0:0:55:cymbal.wav
448,192,5278,1,0,0:0:0:0:
320,192,5561,1,0,0:0:0:30:snare.wav
448,192,5561,1,0,0:0:0:0:
64,192,5655,1,0,0:0:0:30:snare.wav
192,192,5655,1,0,0:0:0:0:
64,192,5844,1,0,0:0:0:55:LR_Drum Kick Wet Fast.wav
320,192,5844,1,0,0:0:0:55:cymbal.wav
448,192,5844,1,0,0:0:0:0:
192,192,6221,1,0,0:0:0:0:
320,192,6315,1,0,0:0:0:0:
192,192,6410,1,0,0:0:0:0:
320,192,6504,128,0,6693:0:0:0:0:
448,192,6504,128,0,6693:0:0:0:0:
64,192,6693,1,0,0:0:0:0:
320,192,6787,128,0,6976:0:0:0:0:
448,192,6787,128,0,6976:0:0:0:0:
64,192,6976,1,0,0:0:0:55:LR_Drum Kick Wet Fast.wav
192,192,6976,1,0,0:0:0:0:
320,192,7070,1,0,0:0:0:0:
64,192,7164,1,0,0:0:0:30:snare.wav
448,192,7164,1,0,0:0:0:0:
192,192,7259,1,0,0:0:0:0:
320,192,7353,1,0,0:0:0:45:lowdrum.wav
448,192,7353,1,0,0:0:0:0:
192,192,7447,1,0,0:0:0:45:lowdrum.wav
64,192,7542,1,0,0:0:0:55:LR_Drum Kick Wet Fast.wav
320,192,7542,1,0,0:0:0:55:cymbal.wav
448,192,7542,1,0,0:0:0:0:
192,192,7636,1,0,0:0:0:0:
320,192,7730,1,0,0:0:0:0:
64,192,7825,1,0,0:0:0:55:LR_Drum Kick Wet Fast.wav
192,192,7825,1,0,0:0:0:55:cymbal.wav
448,192,7825,1,0,0:0:0:0:
320,192,7919,1,0,0:0:0:0:
192,192,8014,1,0,0:0:0:0:
64,192,8108,1,0,0:0:0:55:LR_Drum Kick Wet Fast.wav
320,192,8108,1,0,0:0:0:55:cymbal.wav
448,192,8108,1,0,0:0:0:0:
192,192,8202,1,0,0:0:0:0:
448,192,8297,1,0,0:0:0:0:
64,192,8391,1,0,0:0:0:55:LR_Drum Kick Wet Fast.wav
192,192,8391,1,0,0:0:0:55:cymbal.wav
320,192,8391,1,0,0:0:0:0:
448,192,8485,1,0,0:0:0:0:
64,192,8580,1,0,0:0:0:0:
192,192,8674,1,0,0:0:0:55:LR_Drum Kick Wet Fast.wav
320,192,8674,1,0,0:0:0:55:cymbal.wav
448,192,8674,1,0,0:0:0:0:
64,192,8768,1,0,0:0:0:0:
192,192,8863,1,0,0:0:0:55:LR_Drum Kick Wet Fast.wav
320,192,8863,1,0,0:0:0:55:cymbal.wav
448,192,8957,1,0,0:0:0:0:
64,192,9240,128,0,10183:0:0:0:55:LR_Drum Kick Wet Fast.wav
192,192,9240,1,0,0:0:0:55:cymbal.wav
320,192,9240,1,0,0:0:0:55:boom.wav
448,192,9429,1,0,0:0:0:0:
192,192,9617,1,0,0:0:0:0:
320,192,9806,1,0,0:0:0:55:LR_Drum Kick Wet Fast.wav
448,192,9806,1,0,0:0:0:0:
192,192,9995,1,0,0:0:0:0:
320,192,10183,1,0,0:0:0:55:LR_Drum Kick Wet Fast.wav
448,192,10183,1,0,0:0:0:0:
192,192,10372,1,0,0:0:0:0:
448,192,10372,1,0,0:0:0:0:
64,192,10561,1,0,0:0:0:55:LR_Drum Kick Wet Fast.wav
320,192,10561,1,0,0:0:0:0:
192,192,10655,1,0,0:0:0:0:
448,192,10655,1,0,0:0:0:0:
320,192,10844,128,0,11127:0:0:0:0:
448,192,10844,1,0,0:0:0:0:
64,192,10938,1,0,0:0:0:55:LR_Drum Kick Wet Fast.wav
192,192,10938,1,0,0:0:0:0:
64,192,11127,128,0,11315:0:0:0:0:
448,192,11127,1,0,0:0:0:0:
192,192,11315,1,0,0:0:0:55:LR_Drum Kick Wet Fast.wav
320,192,11315,128,0,11598:0:0:0:0:
64,192,11598,1,0,0:0:0:0:
192,192,11598,128,0,11881:0:0:0:0:
320,192,11693,1,0,0:0:0:30:snare.wav
448,192,11693,1,0,0:0:0:0:
64,192,11881,1,0,0:0:0:45:lowdrum.wav
448,192,11881,1,0,0:0:0:0:
320,192,11976,1,0,0:0:0:45:lowdrum.wav
64,192,12070,1,0,0:0:0:55:LR_Drum Kick Wet Fast.wav
192,192,12070,1,0,0:0:0:55:cymbal.wav
448,192,12070,1,0,0:0:0:0:
320,192,12164,1,0,0:0:0:0:
192,192,12259,1,0,0:0:0:0:
64,192,12353,1,0,0:0:0:30:snare.wav
448,192,12353,1,0,0:0:0:0:
192,192,12447,1,0,0:0:0:30:snare.wav
320,192,12447,1,0,0:0:0:0:
64,192,12636,1,0,0:0:0:55:LR_Drum Kick Wet Fast.wav
320,192,12636,1,0,0:0:0:55:cymbal.wav
448,192,12636,1,0,0:0:0:0:
192,192,12730,1,0,0:0:0:0:
320,192,12825,1,0,0:0:0:0:
64,192,12919,1,0,0:0:0:30:snare.wav
448,192,12919,1,0,0:0:0:0:
192,192,13014,1,0,0:0:0:30:snare.wav
320,192,13014,1,0,0:0:0:0:
64,192,13202,1,0,0:0:0:55:LR_Drum Kick Wet Fast.wav
192,192,13202,1,0,0:0:0:55:cymbal.wav
448,192,13202,1,0,0:0:0:0:
320,192,13297,1,0,0:0:0:0:
192,192,13391,1,0,0:0:0:30:snare.wav
64,192,13485,1,0,0:0:0:30:snare.wav
448,192,13485,1,0,0:0:0:0:
192,192,13580,1,0,0:0:0:30:snare.wav
320,192,13580,1,0,0:0:0:0:
64,192,13768,1,0,0:0:0:55:LR_Drum Kick Wet Fast.wav
192,192,13768,1,0,0:0:0:45:drums.wav
320,192,13863,1,0,0:0:0:45:drums.wav
64,192,13957,1,0,0:0:0:45:drums.wav
448,192,13957,1,0,0:0:0:0:
192,192,14051,1,0,0:0:0:45:drums.wav
320,192,14146,1,0,0:0:0:45:drums.wav
448,192,14146,1,0,0:0:0:0:
192,192,14240,1,0,0:0:0:45:drums.wav
64,192,14334,1,0,0:0:0:45:drums.wav
320,192,14334,1,0,0:0:0:0:
448,192,14429,1,0,0:0:0:45:drums.wav
64,192,14523,1,0,0:0:0:45:drums.wav
192,192,14523,1,0,0:0:0:0:
320,192,14617,1,0,0:0:0:45:drums.wav
64,192,14712,1,0,0:0:0:55:LR_Drum Kick Wet Fast.wav
192,192,14712,1,0,0:0:0:45:drums.wav
448,192,14712,1,0,0:0:0:55:boom.wav
320,192,14806,1,0,0:0:0:45:drums.wav
64,192,14900,1,0,0:0:0:45:drums.wav
448,192,14900,1,0,0:0:0:0:
192,192,14995,1,0,0:0:0:45:drums.wav
64,192,15089,1,0,0:0:0:55:LR_Drum Kick Wet Fast.wav
320,192,15089,1,0,0:0:0:55:cymbal.wav
448,192,15089,1,0,0:0:0:45:drums.wav
192,192,15278,1,0,0:0:0:30:snare.wav
320,192,15278,1,0,0:0:0:0:
448,192,15372,1,0,0:0:0:0:
64,192,15561,1,0,0:0:0:55:LR_Drum Kick Wet Fast.wav
192,192,15561,1,0,0:0:0:0:
320,192,15655,1,0,0:0:0:30:snare.wav
448,192,15655,1,0,0:0:0:0:
192,192,15844,1,0,0:0:0:55:LR_Drum Kick Wet Fast.wav
320,192,15844,1,0,0:0:0:0:
64,192,16032,1,0,0:0:0:30:snare.wav
448,192,16032,1,0,0:0:0:0:
192,192,16127,1,0,0:0:0:55:LR_Drum Kick Wet Fast.wav
320,192,16127,1,0,0:0:0:0:
448,192,16221,1,0,0:0:0:0:
64,192,16315,1,0,0:0:0:55:LR_Drum Kick Wet Fast.wav
192,192,16315,1,0,0:0:0:0:
320,192,16410,1,0,0:0:0:30:snare.wav
448,192,16410,1,0,0:0:0:0:
64,192,16504,1,0,0:0:0:0:
192,192,16598,1,0,0:0:0:55:LR_Drum Kick Wet Fast.wav
320,192,16598,1,0,0:0:0:0:
448,192,16693,1,0,0:0:0:0:
64,192,16787,1,0,0:0:0:30:snare.wav
192,192,16787,1,0,0:0:0:0:
320,192,16881,1,0,0:0:0:0:
64,192,17070,1,0,0:0:0:55:LR_Drum Kick Wet Fast.wav
448,192,17070,1,0,0:0:0:0:
192,192,17164,1,0,0:0:0:30:snare.wav
320,192,17164,1,0,0:0:0:0:
448,192,17259,1,0,0:0:0:0:
64,192,17353,1,0,0:0:0:55:LR_Drum Kick Wet Fast.wav
192,192,17353,1,0,0:0:0:0:
320,192,17447,1,0,0:0:0:0:
64,192,17542,1,0,0:0:0:30:snare.wav
448,192,17542,1,0,0:0:0:0:
192,192,17636,1,0,0:0:0:55:LR_Drum Kick Wet Fast.wav
320,192,17636,1,0,0:0:0:0:
64,192,17825,1,0,0:0:0:0:
192,192,17919,1,0,0:0:0:55:LR_Drum Kick Wet Fast.wav
320,192,17919,1,0,0:0:0:55:cymbal.wav
448,192,17919,1,0,0:0:0:0:
64,192,18014,1,0,0:0:0:0:
448,192,18108,1,0,0:0:0:0:
320,192,18202,1,0,0:0:0:0:
64,192,18297,1,0,0:0:0:30:snare.wav
192,192,18297,1,0,0:0:0:0:
320,192,18391,1,0,0:0:0:0:
64,192,18485,1,0,0:0:0:55:LR_Drum Kick Wet Fast.wav
448,192,18485,1,0,0:0:0:0:
192,192,18580,1,0,0:0:0:55:LR_Drum Kick Wet Fast.wav
320,192,18580,1,0,0:0:0:0:
64,192,18674,1,0,0:0:0:30:snare.wav
448,192,18674,1,0,0:0:0:0:
192,192,18768,1,0,0:0:0:0:
320,192,18863,1,0,0:0:0:55:LR_Drum Kick Wet Fast.wav
448,192,18863,1,0,0:0:0:0:
192,192,18957,1,0,0:0:0:0:
64,192,19051,1,0,0:0:0:30:snare.wav
448,192,19051,1,0,0:0:0:0:
192,192,19146,1,0,0:0:0:55:LR_Drum Kick Wet Fast.wav
320,192,19146,1,0,0:0:0:0:
64,192,19240,1,0,0:0:0:0:
320,192,19334,1,0,0:0:0:55:LR_Drum Kick Wet Fast.wav
448,192,19334,1,0,0:0:0:0:
64,192,19429,1,0,0:0:0:30:snare.wav
192,192,19429,1,0,0:0:0:0:
320,192,19523,1,0,0:0:0:0:
64,192,19617,1,0,0:0:0:55:LR_Drum Kick Wet Fast.wav
192,192,19617,1,0,0:0:0:55:cymbal.wav
448,192,19617,1,0,0:0:0:0:
320,192,19806,1,0,0:0:0:30:snare.wav
64,192,19900,1,0,0:0:0:55:LR_Drum Kick Wet Fast.wav
192,192,19900,1,0,0:0:0:55:cymbal.wav
448,192,19900,1,0,0:0:0:0:
192,192,20089,1,0,0:0:0:30:snare.wav
64,192,20183,1,0,0:0:0:55:cymbal.wav
320,192,20183,1,0,0:0:0:45:lowdrum.wav
448,192,20183,1,0,0:0:0:0:
64,192,20372,1,0,0:0:0:30:snare.wav
192,192,20372,1,0,0:0:0:0:
320,192,20466,128,0,20561:0:0:0:55:LR_Drum Kick Wet Fast.wav
448,192,20466,128,0,20561:0:0:0:45:sel_l.wav
320,192,20655,128,0,20749:0:0:0:55:LR_Drum Kick Wet Fast.wav
448,192,20655,128,0,20749:0:0:0:45:sel_l.wav
64,192,20844,128,0,21032:0:0:0:55:LR_Drum Kick Wet Fast.wav
192,192,20844,128,0,21032:0:0:0:45:sel_l.wav
320,192,21032,1,0,0:0:0:30:snare.wav
448,192,21032,1,0,0:0:0:0:
64,192,21127,128,0,21315:0:0:0:45:lowdrum.wav
192,192,21315,1,0,0:0:0:0:
320,192,21410,1,0,0:0:0:45:lowdrum.wav
64,192,21504,1,0,0:0:0:0:
192,192,21567,1,0,0:0:0:0:
448,192,21630,1,0,0:0:0:0:
320,192,21693,1,0,0:0:0:55:LR_Drum Kick Wet Fast.wav
64,192,21756,1,0,0:0:0:0:
192,192,21819,1,0,0:0:0:0:
448,192,21881,1,0,0:0:0:0:
320,192,21944,1,0,0:0:0:0:
64,192,22007,1,0,0:0:0:0:
192,192,22070,1,0,0:0:0:30:snare.wav
448,192,22133,1,0,0:0:0:0:
320,192,22196,1,0,0:0:0:0:
64,192,22259,1,0,0:0:0:55:LR_Drum Kick Wet Fast.wav
192,192,22322,1,0,0:0:0:0:
448,192,22385,1,0,0:0:0:0:
320,192,22447,1,0,0:0:0:30:snare.wav
64,192,22510,1,0,0:0:0:0:
192,192,22573,1,0,0:0:0:0:
448,192,22636,1,0,0:0:0:55:LR_Drum Kick Wet Fast.wav
320,192,22699,1,0,0:0:0:0:
64,192,22762,1,0,0:0:0:0:
192,192,22825,1,0,0:0:0:30:snare.wav
448,192,22888,1,0,0:0:0:0:
320,192,22951,1,0,0:0:0:0:
64,192,23108,1,0,0:0:0:55:LR_Drum Kick Wet Fast.wav
192,192,23108,1,0,0:0:0:0:
320,192,23202,1,0,0:0:0:30:snare.wav
448,192,23202,1,0,0:0:0:0:
64,192,23391,1,0,0:0:0:55:LR_Drum Kick Wet Fast.wav
448,192,23391,1,0,0:0:0:0:
192,192,23485,1,0,0:0:0:55:LR_Drum Kick Wet Fast.wav
320,192,23485,1,0,0:0:0:0:
64,192,23580,1,0,0:0:0:30:snare.wav
448,192,23580,1,0,0:0:0:0:
320,192,23674,1,0,0:0:0:0:
64,192,23768,1,0,0:0:0:55:LR_Drum Kick Wet Fast.wav
192,192,23768,1,0,0:0:0:0:
320,192,23863,1,0,0:0:0:55:LR_Drum Kick Wet Fast.wav
448,192,23863,1,0,0:0:0:0:
64,192,23957,1,0,0:0:0:30:snare.wav
192,192,23957,1,0,0:0:0:0:
192,192,24146,1,0,0:0:0:55:LR_Drum Kick Wet Fast.wav
320,192,24146,1,0,0:0:0:55:cymbal.wav
448,192,24146,1,0,0:0:0:0:
64,192,24334,1,0,0:0:0:30:snare.wav
192,192,24334,1,0,0:0:0:0:
320,192,24429,1,0,0:0:0:30:snare.wav
64,192,24523,1,0,0:0:0:55:LR_Drum Kick Wet Fast.wav
192,192,24523,1,0,0:0:0:55:cymbal.wav
448,192,24523,1,0,0:0:0:0:
320,192,24712,1,0,0:0:0:30:snare.wav
448,192,24712,1,0,0:0:0:0:
192,192,24806,1,0,0:0:0:30:snare.wav
64,192,24900,1,0,0:0:0:55:LR_Drum Kick Wet Fast.wav
320,192,24900,1,0,0:0:0:55:cymbal.wav
448,192,24900,1,0,0:0:0:0:
64,192,25089,1,0,0:0:0:30:snare.wav
192,192,25089,1,0,0:0:0:0:
448,192,25183,1,0,0:0:0:30:snare.wav
64,192,25278,1,0,0:0:0:55:LR_Drum Kick Wet Fast.wav
192,192,25278,1,0,0:0:0:55:cymbal.wav
320,192,25278,1,0,0:0:0:0:
320,192,25466,1,0,0:0:0:30:snare.wav
448,192,25466,1,0,0:0:0:0:
64,192,25561,1,0,0:0:0:30:snare.wav
192,192,25655,1,0,0:0:0:55:LR_Drum Kick Wet Fast.wav
320,192,25655,1,0,0:0:0:55:cymbal.wav
448,192,25655,1,0,0:0:0:0:
64,192,25844,1,0,0:0:0:30:snare.wav
192,192,25844,1,0,0:0:0:0:
320,192,25938,1,0,0:0:0:30:snare.wav
64,192,26032,1,0,0:0:0:55:LR_Drum Kick Wet Fast.wav
192,192,26032,1,0,0:0:0:55:cymbal.wav
448,192,26032,1,0,0:0:0:0:
320,192,26221,1,0,0:0:0:30:snare.wav
448,192,26221,1,0,0:0:0:0:
192,192,26315,1,0,0:0:0:30:snare.wav
64,192,26410,128,0,26787:0:0:0:55:LR_Drum Kick Wet Fast.wav
320,192,26410,1,0,0:0:0:55:cymbal.wav
448,192,26410,128,0,26598:0:0:0:0:
320,192,26787,1,0,0:0:0:55:LR_Drum Kick Wet Fast.wav
448,192,26787,1,0,0:0:0:55:boom.wav
192,192,26850,1,0,0:0:0:0:
64,192,26913,1,0,0:0:0:0:
448,192,26976,1,0,0:0:0:0:
320,192,27039,1,0,0:0:0:0:
192,192,27102,1,0,0:0:0:0:
64,192,27164,1,0,0:0:0:55:LR_Drum Kick Wet Fast.wav
320,192,27164,128,0,27353:0:0:0:55:cymbal.wav
448,192,27164,1,0,0:0:0:0:
64,192,27353,1,0,0:0:0:55:LR_Drum Kick Wet Fast.wav
192,192,27353,1,0,0:0:0:45:sel_l.wav
320,192,27542,1,0,0:0:0:30:snare.wav
448,192,27542,1,0,0:0:0:0:
64,192,27636,1,0,0:0:0:55:LR_Drum Kick Wet Fast.wav
192,192,27636,1,0,0:0:0:0:
320,192,27730,1,0,0:0:0:45:sel_l.wav
64,192,27919,128,0,28108:0:0:0:55:LR_Drum Kick Wet Fast.wav
448,192,27919,1,0,0:0:0:0:
192,192,28108,1,0,0:0:0:45:sel_l.wav
320,192,28202,1,0,0:0:0:55:LR_Drum Kick Wet Fast.wav
448,192,28202,1,0,0:0:0:0:
64,192,28297,128,0,28485:0:0:0:30:snare.wav
192,192,28297,1,0,0:0:0:0:
320,192,28485,1,0,0:0:0:55:LR_Drum Kick Wet Fast.wav
448,192,28485,1,0,0:0:0:45:sel_l.wav
64,192,28674,1,0,0:0:0:55:LR_Drum Kick Wet Fast.wav
448,192,28674,128,0,28863:0:0:0:0:
192,192,28863,1,0,0:0:0:55:LR_Drum Kick Wet Fast.wav
320,192,28863,1,0,0:0:0:45:sel_l.wav
64,192,29051,1,0,0:0:0:30:snare.wav
320,192,29051,1,0,0:0:0:0:
192,192,29146,1,0,0:0:0:55:LR_Drum Kick Wet Fast.wav
448,192,29146,1,0,0:0:0:0:
64,192,29240,1,0,0:0:0:45:sel_l.wav
192,192,29429,128,0,29617:0:0:0:55:LR_Drum Kick Wet Fast.wav
448,192,29429,1,0,0:0:0:0:
320,192,29617,1,0,0:0:0:45:sel_l.wav
64,192,29712,1,0,0:0:0:55:LR_Drum Kick Wet Fast.wav
448,192,29712,1,0,0:0:0:0:
192,192,29806,128,0,29995:0:0:0:30:snare.wav
320,192,29806,1,0,0:0:0:0:
64,192,29995,1,0,0:0:0:55:LR_Drum Kick Wet Fast.wav
448,192,29995,1,0,0:0:0:45:sel_l.wav
64,192,30183,128,0,30372:0:0:0:55:LR_Drum Kick Wet Fast.wav
192,192,30183,1,0,0:0:0:55:cymbal.wav
320,192,30183,1,0,0:0:0:0:
320,192,30372,1,0,0:0:0:55:LR_Drum Kick Wet Fast.wav
448,192,30372,1,0,0:0:0:45:sel_l.wav
64,192,30561,1,0,0:0:0:30:snare.wav
192,192,30561,1,0,0:0:0:0:
320,192,30655,1,0,0:0:0:55:LR_Drum Kick Wet Fast.wav
448,192,30655,1,0,0:0:0:0:
192,192,30749,1,0,0:0:0:45:sel_l.wav
64,192,30938,1,0,0:0:0:55:LR_Drum Kick Wet Fast.wav
448,192,30938,128,0,31127:0:0:0:0:
192,192,31127,1,0,0:0:0:45:sel_l.wav
320,192,31221,1,0,0:0:0:55:LR_Drum Kick Wet Fast.wav
448,192,31221,1,0,0:0:0:0:
64,192,31315,128,0,31504:0:0:0:30:snare.wav
192,192,31315,1,0,0:0:0:0:
320,192,31504,1,0,0:0:0:55:LR_Drum Kick Wet Fast.wav
448,192,31504,1,0,0:0:0:45:sel_l.wav
64,192,31693,1,0,0:0:0:55:LR_Drum Kick Wet Fast.wav
192,192,31693,1,0,0:0:0:55:cymbal.wav
448,192,31693,128,0,31881:0:0:0:0:
64,192,31881,1,0,0:0:0:55:LR_Drum Kick Wet Fast.wav
320,192,31881,1,0,0:0:0:45:sel_l.wav
192,192,32070,1,0,0:0:0:30:snare.wav
320,192,32070,1,0,0:0:0:0:
64,192,32164,1,0,0:0:0:55:LR_Drum Kick Wet Fast.wav
448,192,32164,1,0,0:0:0:0:
192,192,32259,1,0,0:0:0:45:sel_l.wav
320,192,32447,1,0,0:0:0:30:snare.wav
448,192,32447,1,0,0:0:0:55:cymbal.wav
64,192,32542,128,0,32730:0:0:0:30:snare.wav
192,192,32542,1,0,0:0:0:0:
320,192,32730,1,0,0:0:0:55:LR_Drum Kick Wet Fast.wav
448,192,32730,128,0,32919:0:0:0:45:sel_l.wav
64,192,32919,1,0,0:0:0:55:LR_Drum Kick Wet Fast.wav
192,192,32919,1,0,0:0:0:45:sel_l.wav
320,192,33014,1,0,0:0:0:30:snare.wav
448,192,33014,1,0,0:0:0:0:
192,192,33108,1,0,0:0:0:0:
64,192,33202,1,0,0:0:0:55:LR_Drum Kick Wet Fast.wav
448,192,33202,1,0,0:0:0:0:
64,192,33391,128,0,33580:0:0:0:55:LR_Drum Kick Wet Fast.wav
192,192,33391,128,0,33580:0:0:0:55:cymbal.wav
320,192,33391,1,0,0:0:0:55:boom.wav
448,192,33674,1,0,0:0:0:45:lowdrum.wav
320,192,33721,1,0,0:0:0:45:lowdrum.wav
192,192,33768,1,0,0:0:0:0:
64,192,33863,1,0,0:0:0:45:lowdrum.wav
192,192,33957,1,0,0:0:0:55:LR_Drum Kick Wet Fast.wav
320,192,33957,1,0,0:0:0:55:cymbal.wav
448,192,33957,1,0,0:0:0:0:
64,192,34051,128,0,34240:0:0:0:0:
192,192,34240,1,0,0:0:0:55:LR_Drum Kick Wet Fast.wav
320,192,34240,1,0,0:0:0:55:cymbal.wav
448,192,34240,128,0,34429:0:0:0:0:
64,192,34429,1,0,0:0:0:0:
192,192,34523,1,0,0:0:0:55:LR_Drum Kick Wet Fast.wav
320,192,34523,1,0,0:0:0:30:snare.wav
448,192,34617,1,0,0:0:0:0:
64,192,34712,128,0,34900:0:0:0:55:LR_Drum Kick Wet Fast.wav
192,192,34712,1,0,0:0:0:0:
320,192,34900,1,0,0:0:0:55:LR_Drum Kick Wet Fast.wav
448,192,34900,1,0,0:0:0:45:sel_l.wav
192,192,34995,1,0,0:0:0:0:
64,192,35089,1,0,0:0:0:30:snare.wav
448,192,35089,1,0,0:0:0:0:
192,192,35183,1,0,0:0:0:55:LR_Drum Kick Wet Fast.wav
320,192,35183,128,0,35372:0:0:0:55:cymbal.wav
64,192,35372,1,0,0:0:0:30:snare.wav
192,192,35372,1,0,0:0:0:0:
320,192,35466,1,0,0:0:0:55:LR_Drum Kick Wet Fast.wav
448,192,35466,1,0,0:0:0:55:cymbal.wav
192,192,35561,128,0,35749:0:0:0:0:
64,192,35749,1,0,0:0:0:55:LR_Drum Kick Wet Fast.wav
320,192,35749,1,0,0:0:0:55:cymbal.wav
448,192,35749,1,0,0:0:0:0:
192,192,35844,1,0,0:0:0:0:
64,192,35938,1,0,0:0:0:0:
320,192,36032,1,0,0:0:0:55:LR_Drum Kick Wet Fast.wav
448,192,36032,1,0,0:0:0:55:cymbal.wav
192,192,36127,1,0,0:0:0:0:
64,192,36221,1,0,0:0:0:55:LR_Drum Kick Wet Fast.wav
448,192,36221,1,0,0:0:0:30:snare.wav
192,192,36315,1,0,0:0:0:30:snare.wav
320,192,36315,1,0,0:0:0:0:
320,192,36504,1,0,0:0:0:45:lowdrum.wav
448,192,36504,1,0,0:0:0:0:
64,192,36598,1,0,0:0:0:45:lowdrum.wav
192,192,36598,1,0,0:0:0:0:
192,192,36787,1,0,0:0:0:55:LR_Drum Kick Wet Fast.wav
320,192,36787,1,0,0:0:0:30:snare.wav
64,192,36881,1,0,0:0:0:30:snare.wav
448,192,36881,1,0,0:0:0:0:
64,192,37070,1,0,0:0:0:45:lowdrum.wav
192,192,37070,1,0,0:0:0:0:
320,192,37164,1,0,0:0:0:45:lowdrum.wav
448,192,37164,1,0,0:0:0:0:
64,192,37353,1,0,0:0:0:55:LR_Drum Kick Wet Fast.wav
192,192,37353,1,0,0:0:0:0:
320,192,37479,1,0,0:0:0:45:lowdrum.wav
448,192,37479,1,0,0:0:0:0:
64,192,37605,1,0,0:0:0:45:lowdrum.wav
192,192,37605,1,0,0:0:0:0:
320,192,37730,128,0,38485:0:0:0:55:LR_Drum Kick Wet Fast.wav
448,192,37730,128,0,38485:0:0:0:55:cymbal.wav
64,192,38108,128,0,38485:0:0:0:0:
192,192,38485,1,0,0:0:0:0:
320,192,38580,128,0,38768:0:0:0:0:
448,192,38580,128,0,38768:0:0:0:0:
64,192,38768,128,0,38957:0:0:0:0:
192,192,38768,128,0,38957:0:0:0:0:
320,192,38957,1,0,0:0:0:55:LR_Drum Kick Wet Fast.wav
64,192,39051,1,0,0:0:0:30:snare.wav
192,192,39051,1,0,0:0:0:55:boom.wav
448,192,39051,1,0,0:0:0:0:
64,192,39240,1,0,0:0:0:55:LR_Drum Kick Wet Fast.wav
320,192,39240,1,0,0:0:0:55:cymbal.wav
448,192,39240,1,0,0:0:0:0:
192,192,39429,1,0,0:0:0:30:snare.wav
320,192,39429,1,0,0:0:0:0:
64,192,39523,1,0,0:0:0:0:
448,192,39617,1,0,0:0:0:0:
64,192,39712,1,0,0:0:0:55:LR_Drum Kick Wet Fast.wav
192,192,39712,1,0,0:0:0:0:
320,192,39806,1,0,0:0:0:30:snare.wav
448,192,39806,1,0,0:0:0:0:
192,192,39900,1,0,0:0:0:0:
64,192,39995,1,0,0:0:0:55:LR_Drum Kick Wet Fast.wav
320,192,39995,1,0,0:0:0:0:
448,192,40089,1,0,0:0:0:0:
64,192,40183,1,0,0:0:0:30:snare.wav
192,192,40183,1,0,0:0:0:0:
320,192,40278,1,0,0:0:0:55:LR_Drum Kick Wet Fast.wav
448,192,40278,1,0,0:0:0:0:
192,192,40466,1,0,0:0:0:55:LR_Drum Kick Wet Fast.wav
320,192,40466,1,0,0:0:0:0:
64,192,40561,1,0,0:0:0:30:snare.wav
448,192,40561,1,0,0:0:0:0:
64,192,40749,1,0,0:0:0:55:LR_Drum Kick Wet Fast.wav
320,192,40749,1,0,0:0:0:0:
192,192,40938,1,0,0:0:0:30:snare.wav
320,192,40938,1,0,0:0:0:0:
448,192,41032,1,0,0:0:0:0:
64,192,41127,1,0,0:0:0:0:
320,192,41221,1,0,0:0:0:55:LR_Drum Kick Wet Fast.wav
448,192,41221,1,0,0:0:0:0:
64,192,41315,1,0,0:0:0:30:snare.wav
192,192,41315,1,0,0:0:0:0:
320,192,41410,1,0,0:0:0:0:
64,192,41504,1,0,0:0:0:55:LR_Drum Kick Wet Fast.wav
192,192,41598,1,0,0:0:0:55:LR_Drum Kick Wet Fast.wav
320,192,41693,1,0,0:0:0:30:snare.wav
448,192,41693,1,0,0:0:0:55:cymbal.wav
64,192,41787,1,0,0:0:0:55:LR_Drum Kick Wet Fast.wav
192,192,41787,1,0,0:0:0:0:
64,192,41976,1,0,0:0:0:55:LR_Drum Kick Wet Fast.wav
320,192,41976,1,0,0:0:0:0:
192,192,42070,1,0,0:0:0:30:snare.wav
448,192,42070,1,0,0:0:0:0:
320,192,42259,1,0,0:0:0:55:LR_Drum Kick Wet Fast.wav
448,192,42259,1,0,0:0:0:0:
64,192,42447,1,0,0:0:0:30:snare.wav
192,192,42447,1,0,0:0:0:0:
320,192,42542,1,0,0:0:0:0:
448,192,42636,1,0,0:0:0:0:
64,192,42730,1,0,0:0:0:55:LR_Drum Kick Wet Fast.wav
192,192,42730,1,0,0:0:0:0:
320,192,42825,1,0,0:0:0:30:snare.wav
448,192,42825,1,0,0:0:0:0:
192,192,42919,1,0,0:0:0:0:
64,192,43014,1,0,0:0:0:55:LR_Drum Kick Wet Fast.wav
448,192,43014,1,0,0:0:0:0:
320,192,43108,1,0,0:0:0:0:
64,192,43202,1,0,0:0:0:30:snare.wav
192,192,43202,1,0,0:0:0:0:
320,192,43297,1,0,0:0:0:55:LR_Drum Kick Wet Fast.wav
448,192,43297,1,0,0:0:0:0:
320,192,43485,1,0,0:0:0:55:LR_Drum Kick Wet Fast.wav
448,192,43485,1,0,0:0:0:0:
64,192,43580,1,0,0:0:0:30:snare.wav
192,192,43580,1,0,0:0:0:0:
320,192,43674,1,0,0:0:0:0:
192,192,43768,1,0,0:0:0:55:LR_Drum Kick Wet Fast.wav
448,192,43768,1,0,0:0:0:0:
64,192,43863,1,0,0:0:0:0:
320,192,43957,1,0,0:0:0:30:snare.wav
448,192,43957,1,0,0:0:0:0:
192,192,44051,1,0,0:0:0:0:
64,192,44146,1,0,0:0:0:55:LR_Drum Kick Wet Fast.wav
320,192,44146,1,0,0:0:0:55:cymbal.wav
448,192,44240,1,0,0:0:0:55:LR_Drum Kick Wet Fast.wav
64,192,44334,1,0,0:0:0:30:snare.wav
192,192,44334,1,0,0:0:0:0:
320,192,44429,1,0,0:0:0:0:
64,192,44523,1,0,0:0:0:55:LR_Drum Kick Wet Fast.wav
448,192,44523,1,0,0:0:0:0:
192,192,44617,128,0,44712:0:0:0:45:lowdrum.wav
320,192,44712,128,0,44806:0:0:0:30:snare.wav
448,192,44712,1,0,0:0:0:0:
64,192,44806,128,0,44900:0:0:0:45:lowdrum.wav
192,192,44900,128,0,44995:0:0:0:0:
448,192,44995,128,0,45089:0:0:0:45:lowdrum.wav
64,192,45089,1,0,0:0:0:30:snare.wav
320,192,45089,128,0,45183:0:0:0:0:
192,192,45183,128,0,45278:0:0:0:0:
64,192,45278,1,0,0:0:0:55:LR_Drum Kick Wet Fast.wav
320,192,45278,1,0,0:0:0:55:cymbal.wav
448,192,45278,1,0,0:0:0:0:
320,192,45466,1,0,0:0:0:30:snare.wav
448,192,45466,1,0,0:0:0:0:
64,192,45561,1,0,0:0:0:55:LR_Drum Kick Wet Fast.wav
192,192,45561,1,0,0:0:0:0:
320,192,45655,1,0,0:0:0:0:
64,192,45749,1,0,0:0:0:55:LR_Drum Kick Wet Fast.wav
448,192,45749,1,0,0:0:0:0:
192,192,45844,128,0,46032:0:0:0:30:snare.wav
320,192,45844,1,0,0:0:0:55:cymbal.wav
64,192,46032,1,0,0:0:0:55:LR_Drum Kick Wet Fast.wav
448,192,46032,1,0,0:0:0:0:
320,192,46127,1,0,0:0:0:55:LR_Drum Kick Wet Fast.wav
64,192,46221,1,0,0:0:0:30:snare.wav
192,192,46221,1,0,0:0:0:0:
320,192,46315,1,0,0:0:0:0:
64,192,46410,1,0,0:0:0:55:LR_Drum Kick Wet Fast.wav
448,192,46410,1,0,0:0:0:0:
192,192,46504,1,0,0:0:0:55:LR_Drum Kick Wet Fast.wav
320,192,46598,1,0,0:0:0:30:snare.wav
448,192,46598,1,0,0:0:0:0:
64,192,46787,1,0,0:0:0:55:LR_Drum Kick Wet Fast.wav
192,192,46787,1,0,0:0:0:0:
64,192,46976,1,0,0:0:0:30:snare.wav
448,192,46976,1,0,0:0:0:0:
192,192,47070,1,0,0:0:0:55:LR_Drum Kick Wet Fast.wav
320,192,47070,1,0,0:0:0:0:
320,192,47259,1,0,0:0:0:55:LR_Drum Kick Wet Fast.wav
448,192,47259,1,0,0:0:0:0:
64,192,47353,128,0,47542:0:0:0:30:snare.wav
192,192,47353,1,0,0:0:0:55:cymbal.wav
320,192,47542,1,0,0:0:0:55:LR_Drum Kick Wet Fast.wav
448,192,47542,1,0,0:0:0:0:
192,192,47636,1,0,0:0:0:55:LR_Drum Kick Wet Fast.wav
64,192,47730,1,0,0:0:0:30:snare.wav
320,192,47730,1,0,0:0:0:0:
448,192,47825,1,0,0:0:0:0:
64,192,47919,1,0,0:0:0:55:LR_Drum Kick Wet Fast.wav
192,192,47919,1,0,0:0:0:0:
320,192,48014,1,0,0:0:0:55:LR_Drum Kick Wet Fast.wav
64,192,48108,1,0,0:0:0:30:snare.wav
448,192,48108,1,0,0:0:0:0:
192,192,48202,1,0,0:0:0:0:
320,192,48297,1,0,0:0:0:55:LR_Drum Kick Wet Fast.wav
448,192,48297,1,0,0:0:0:0:
64,192,48485,1,0,0:0:0:30:snare.wav
192,192,48485,1,0,0:0:0:0:
320,192,48580,1,0,0:0:0:0:
64,192,48674,1,0,0:0:0:55:LR_Drum Kick Wet Fast.wav
448,192,48674,1,0,0:0:0:0:
192,192,48768,1,0,0:0:0:55:LR_Drum Kick Wet Fast.wav
320,192,48863,1,0,0:0:0:30:snare.wav
448,192,48863,1,0,0:0:0:0:
192,192,48957,1,0,0:0:0:0:
64,192,49051,1,0,0:0:0:55:LR_Drum Kick Wet Fast.wav
320,192,49051,1,0,0:0:0:55:cymbal.wav
448,192,49146,1,0,0:0:0:55:LR_Drum Kick Wet Fast.wav
64,192,49240,1,0,0:0:0:30:snare.wav
192,192,49240,1,0,0:0:0:0:
320,192,49334,1,0,0:0:0:0:
64,192,49429,1,0,0:0:0:55:LR_Drum Kick Wet Fast.wav
448,192,49429,1,0,0:0:0:0:
192,192,49523,1,0,0:0:0:55:LR_Drum Kick Wet Fast.wav
320,192,49617,1,0,0:0:0:30:snare.wav
448,192,49617,1,0,0:0:0:0:
64,192,49712,1,0,0:0:0:0:
192,192,49806,1,0,0:0:0:55:LR_Drum Kick Wet Fast.wav
320,192,49806,1,0,0:0:0:55:cymbal.wav
448,192,49900,1,0,0:0:0:55:LR_Drum Kick Wet Fast.wav
64,192,49995,1,0,0:0:0:30:snare.wav
192,192,49995,1,0,0:0:0:0:
320,192,50089,1,0,0:0:0:0:
64,192,50183,1,0,0:0:0:55:LR_Drum Kick Wet Fast.wav
448,192,50183,1,0,0:0:0:55:cymbal.wav
192,192,50278,1,0,0:0:0:55:LR_Drum Kick Wet Fast.wav
320,192,50372,1,0,0:0:0:30:snare.wav
448,192,50372,1,0,0:0:0:0:
64,192,50466,1,0,0:0:0:0:
192,192,50561,1,0,0:0:0:30:snare.wav
320,192,50561,1,0,0:0:0:55:cymbal.wav
448,192,50655,1,0,0:0:0:45:lowdrum.wav
64,192,50749,1,0,0:0:0:45:lowdrum.wav
192,192,50749,1,0,0:0:0:0:
320,192,50844,1,0,0:0:0:30:snare.wav
448,192,50844,1,0,0:0:0:55:cymbal.wav
192,192,51032,1,0,0:0:0:30:snare.wav
320,192,51032,1,0,0:0:0:0:
64,192,51127,1,0,0:0:0:55:boom.wav
448,192,51127,1,0,0:0:0:0:
64,192,51315,1,0,0:0:0:55:LR_Drum Kick Wet Fast.wav
192,192,51315,1,0,0:0:0:55:cymbal.wav
320,192,51315,1,0,0:0:0:0:
320,192,51504,1,0,0:0:0:30:snare.wav
448,192,51504,1,0,0:0:0:0:
64,192,51598,1,0,0:0:0:0:
192,192,51693,1,0,0:0:0:0:
320,192,51787,1,0,0:0:0:55:LR_Drum Kick Wet Fast.wav
448,192,51787,1,0,0:0:0:0:
64,192,51881,1,0,0:0:0:30:snare.wav
192,192,51881,1,0,0:0:0:0:
320,192,51976,1,0,0:0:0:0:
64,192,52070,1,0,0:0:0:55:LR_Drum Kick Wet Fast.wav
448,192,52070,1,0,0:0:0:0:
192,192,52164,1,0,0:0:0:0:
320,192,52259,1,0,0:0:0:30:snare.wav
448,192,52259,1,0,0:0:0:0:
64,192,52353,1,0,0:0:0:55:LR_Drum Kick Wet Fast.wav
192,192,52353,1,0,0:0:0:0:
64,192,52542,1,0,0:0:0:55:LR_Drum Kick Wet Fast.wav
192,192,52542,1,0,0:0:0:0:
320,192,52636,1,0,0:0:0:30:snare.wav
448,192,52636,1,0,0:0:0:0:
64,192,52825,1,0,0:0:0:55:LR_Drum Kick Wet Fast.wav
448,192,52825,1,0,0:0:0:0:
64,192,53014,1,0,0:0:0:30:snare.wav
192,192,53014,1,0,0:0:0:0:
320,192,53108,1,0,0:0:0:0:
448,192,53202,1,0,0:0:0:0:
64,192,53297,1,0,0:0:0:55:LR_Drum Kick Wet Fast.wav
192,192,53297,1,0,0:0:0:0:
320,192,53391,1,0,0:0:0:30:snare.wav
448,192,53391,1,0,0:0:0:0:
192,192,53485,1,0,0:0:0:0:
64,192,53580,1,0,0:0:0:55:LR_Drum Kick Wet Fast.wav
320,192,53580,1,0,0:0:0:0:
448,192,53674,1,0,0:0:0:55:LR_Drum Kick Wet Fast.wav
64,192,53768,1,0,0:0:0:30:snare.wav
192,192,53768,1,0,0:0:0:55:cymbal.wav
320,192,53863,1,0,0:0:0:55:LR_Drum Kick Wet Fast.wav
448,192,53863,1,0,0:0:0:0:
192,192,54051,1,0,0:0:0:55:LR_Drum Kick Wet Fast.wav
320,192,54051,1,0,0:0:0:0:
64,192,54146,1,0,0:0:0:30:snare.wav
448,192,54146,1,0,0:0:0:0:
64,192,54334,1,0,0:0:0:55:LR_Drum Kick Wet Fast.wav
192,192,54334,1,0,0:0:0:0:
320,192,54523,1,0,0:0:0:30:snare.wav
448,192,54523,1,0,0:0:0:0:
192,192,54617,1,0,0:0:0:0:
64,192,54712,1,0,0:0:0:0:
320,192,54806,1,0,0:0:0:55:LR_Drum Kick Wet Fast.wav
448,192,54806,1,0,0:0:0:0:
64,192,54900,1,0,0:0:0:30:snare.wav
192,192,54900,1,0,0:0:0:0:
320,192,54995,1,0,0:0:0:0:
64,192,55089,1,0,0:0:0:55:LR_Drum Kick Wet Fast.wav
448,192,55089,1,0,0:0:0:0:
192,192,55183,1,0,0:0:0:0:
320,192,55278,1,0,0:0:0:30:snare.wav
448,192,55278,1,0,0:0:0:0:
64,192,55372,1,0,0:0:0:55:LR_Drum Kick Wet Fast.wav
192,192,55372,1,0,0:0:0:0:
64,192,55561,1,0,0:0:0:55:LR_Drum Kick Wet Fast.wav
192,192,55561,1,0,0:0:0:0:
320,192,55655,1,0,0:0:0:30:snare.wav
448,192,55655,1,0,0:0:0:0:
192,192,55749,1,0,0:0:0:0:
64,192,55844,1,0,0:0:0:55:LR_Drum Kick Wet Fast.wav
448,192,55844,1,0,0:0:0:0:
320,192,55938,1,0,0:0:0:0:
64,192,56032,1,0,0:0:0:30:snare.wav
192,192,56032,1,0,0:0:0:0:
448,192,56127,1,0,0:0:0:0:
192,192,56221,1,0,0:0:0:55:LR_Drum Kick Wet Fast.wav
320,192,56221,1,0,0:0:0:55:cymbal.wav
64,192,56315,1,0,0:0:0:55:LR_Drum Kick Wet Fast.wav
320,192,56410,1,0,0:0:0:30:snare.wav
448,192,56410,1,0,0:0:0:0:
64,192,56598,1,0,0:0:0:55:LR_Drum Kick Wet Fast.wav
192,192,56598,1,0,0:0:0:0:
320,192,56693,1,0,0:0:0:30:snare.wav
448,192,56693,1,0,0:0:0:0:
64,192,56787,1,0,0:0:0:30:snare.wav
192,192,56787,1,0,0:0:0:0:
320,192,56881,1,0,0:0:0:30:snare.wav
448,192,56881,1,0,0:0:0:0:
64,192,56976,1,0,0:0:0:45:lowdrum.wav
192,192,57070,1,0,0:0:0:45:lowdrum.wav
448,192,57164,1,0,0:0:0:45:lowdrum.wav
320,192,57259,1,0,0:0:0:45:lowdrum.wav
64,192,57353,1,0,0:0:0:55:LR_Drum Kick Wet Fast.wav
192,192,57353,1,0,0:0:0:55:cymbal.wav
448,192,57353,1,0,0:0:0:0:
192,192,57542,1,0,0:0:0:30:snare.wav
320,192,57542,1,0,0:0:0:0:
64,192,57636,1,0,0:0:0:55:LR_Drum Kick Wet Fast.wav
448,192,57636,1,0,0:0:0:0:
64,192,57825,1,0,0:0:0:55:LR_Drum Kick Wet Fast.wav
448,192,57825,1,0,0:0:0:0:
192,192,57919,1,0,0:0:0:30:snare.wav
320,192,57919,1,0,0:0:0:55:cymbal.wav
64,192,58108,1,0,0:0:0:55:LR_Drum Kick Wet Fast.wav
448,192,58108,1,0,0:0:0:0:
320,192,58202,1,0,0:0:0:55:LR_Drum Kick Wet Fast.wav
64,192,58297,1,0,0:0:0:30:snare.wav
192,192,58297,1,0,0:0:0:0:
320,192,58485,1,0,0:0:0:55:LR_Drum Kick Wet Fast.wav
448,192,58485,1,0,0:0:0:0:
192,192,58580,1,0,0:0:0:55:LR_Drum Kick Wet Fast.wav
64,192,58674,1,0,0:0:0:30:snare.wav
448,192,58674,1,0,0:0:0:0:
64,192,58863,1,0,0:0:0:55:LR_Drum Kick Wet Fast.wav
192,192,58863,1,0,0:0:0:0:
320,192,59051,1,0,0:0:0:30:snare.wav
448,192,59051,1,0,0:0:0:0:
192,192,59146,1,0,0:0:0:55:LR_Drum Kick Wet Fast.wav
64,192,59240,1,0,0:0:0:0:
320,192,59334,1,0,0:0:0:55:LR_Drum Kick Wet Fast.wav
448,192,59334,1,0,0:0:0:0:
64,192,59429,1,0,0:0:0:30:snare.wav
192,192,59429,1,0,0:0:0:0:
320,192,59523,1,0,0:0:0:0:
64,192,59617,1,0,0:0:0:55:LR_Drum Kick Wet Fast.wav
448,192,59617,1,0,0:0:0:0:
192,192,59712,1,0,0:0:0:45:drums.wav
320,192,59806,1,0,0:0:0:45:drums.wav
448,192,59806,1,0,0:0:0:0:
64,192,59900,1,0,0:0:0:45:drums.wav
192,192,59995,1,0,0:0:0:55:LR_Drum Kick Wet Fast.wav
320,192,59995,1,0,0:0:0:45:drums.wav
448,192,60089,1,0,0:0:0:45:drums.wav
64,192,60183,1,0,0:0:0:45:drums.wav
192,192,60183,1,0,0:0:0:0:
320,192,60278,1,0,0:0:0:45:drums.wav
64,192,60372,128,0,60938:0:0:0:55:LR_Drum Kick Wet Fast.wav
192,192,60372,1,0,0:0:0:55:cymbal.wav
448,192,60372,1,0,0:0:0:45:drums.wav
320,192,60561,1,0,0:0:0:45:sel_l.wav
192,192,60749,1,0,0:0:0:30:snare.wav
448,192,60749,1,0,0:0:0:0:
320,192,60938,128,0,61127:0:0:0:45:sel_l.wav
64,192,61127,1,0,0:0:0:55:LR_Drum Kick Wet Fast.wav
192,192,61127,128,0,61410:0:0:0:0:
320,192,61315,1,0,0:0:0:45:sel_l.wav
448,192,61410,128,0,61693:0:0:0:55:LR_Drum Kick Wet Fast.wav
64,192,61504,1,0,0:0:0:30:snare.wav
192,192,61504,1,0,0:0:0:0:
320,192,61598,1,0,0:0:0:55:LR_Drum Kick Wet Fast.wav
64,192,61693,128,0,61881:0:0:0:45:sel_l.wav
192,192,61881,1,0,0:0:0:55:LR_Drum Kick Wet Fast.wav
448,192,61881,128,0,62447:0:0:0:0:
64,192,62070,1,0,0:0:0:45:sel_l.wav
192,192,62259,1,0,0:0:0:30:snare.wav
320,192,62259,1,0,0:0:0:0:
64,192,62447,128,0,62636:0:0:0:45:sel_l.wav
320,192,62636,128,0,62919:0:0:0:55:LR_Drum Kick Wet Fast.wav
448,192,62636,1,0,0:0:0:0:
64,192,62825,1,0,0:0:0:45:sel_l.wav
192,192,62919,128,0,63202:0:0:0:55:LR_Drum Kick Wet Fast.wav
320,192,63014,1,0,0:0:0:30:snare.wav
448,192,63014,1,0,0:0:0:0:
64,192,63108,1,0,0:0:0:55:LR_Drum Kick Wet Fast.wav
448,192,63202,128,0,63391:0:0:0:45:sel_l.wav
64,192,63391,128,0,63768:0:0:0:55:LR_Drum Kick Wet Fast.wav
192,192,63391,1,0,0:0:0:55:cymbal.wav
320,192,63391,1,0,0:0:0:0:
448,192,63580,1,0,0:0:0:45:sel_l.wav
192,192,63768,1,0,0:0:0:30:snare.wav
320,192,63768,1,0,0:0:0:0:
448,192,63957,1,0,0:0:0:45:sel_l.wav
320,192,64020,1,0,0:0:0:0:
64,192,64083,1,0,0:0:0:0:
192,192,64146,1,0,0:0:0:55:LR_Drum Kick Wet Fast.wav
448,192,64208,1,0,0:0:0:0:
320,192,64271,1,0,0:0:0:0:
64,192,64334,1,0,0:0:0:45:sel_l.wav
192,192,64397,1,0,0:0:0:0:
448,192,64460,1,0,0:0:0:0:
320,192,64523,1,0,0:0:0:30:snare.wav
64,192,64586,1,0,0:0:0:0:
192,192,64649,1,0,0:0:0:0:
448,192,64712,1,0,0:0:0:45:sel_l.wav
320,192,64775,1,0,0:0:0:0:
192,192,64837,1,0,0:0:0:0:
64,192,64900,1,0,0:0:0:55:LR_Drum Kick Wet Fast.wav
320,192,64900,1,0,0:0:0:55:cymbal.wav
448,192,64900,1,0,0:0:0:0:
64,192,65089,1,0,0:0:0:30:snare.wav
192,192,65089,1,0,0:0:0:0:
320,192,65183,1,0,0:0:0:55:LR_Drum Kick Wet Fast.wav
448,192,65183,1,0,0:0:0:0:
320,192,65372,1,0,0:0:0:55:LR_Drum Kick Wet Fast.wav
448,192,65372,1,0,0:0:0:0:
64,192,65466,128,0,65749:0:0:0:30:snare.wav
192,192,65466,128,0,65749:0:0:0:55:cymbal.wav
320,192,65749,1,0,0:0:0:45:drums.wav
448,192,65749,1,0,0:0:0:0:
64,192,65844,1,0,0:0:0:45:drums.wav
192,192,65844,1,0,0:0:0:0:
320,192,65938,1,0,0:0:0:45:drums.wav
64,192,66032,1,0,0:0:0:45:drums.wav
448,192,66032,1,0,0:0:0:0:
192,192,66127,1,0,0:0:0:45:drums.wav
320,192,66221,1,0,0:0:0:45:drums.wav
448,192,66221,1,0,0:0:0:0:
192,192,66315,1,0,0:0:0:45:drums.wav
64,192,66410,128,0,66693:0:0:0:55:LR_Drum Kick Wet Fast.wav
320,192,66410,1,0,0:0:0:55:cymbal.wav
448,192,66410,1,0,0:0:0:45:drums.wav
192,192,66693,1,0,0:0:0:55:LR_Drum Kick Wet Fast.wav
320,192,66693,128,0,66976:0:0:0:0:
192,192,66976,128,0,67164:0:0:0:55:LR_Drum Kick Wet Fast.wav
448,192,66976,1,0,0:0:0:0:
64,192,67164,1,0,0:0:0:30:snare.wav
448,192,67164,128,0,67353:0:0:0:55:cymbal.wav
320,192,67353,1,0,0:0:0:0:
192,192,67447,1,0,0:0:0:55:LR_Drum Kick Wet Fast.wav
64,192,67542,1,0,0:0:0:0:
448,192,67636,1,0,0:0:0:0:
320,192,67730,1,0,0:0:0:45:lowdrum.wav
192,192,67825,1,0,0:0:0:0:
64,192,67919,128,0,68108:0:0:0:55:LR_Drum Kick Wet Fast.wav
448,192,67919,128,0,68108:0:0:0:45:lowdrum.wav
64,192,68297,128,0,68674:0:0:0:55:LR_Drum Kick Wet Fast.wav
192,192,68297,128,0,69051:0:0:0:55:cymbal.wav
320,192,68297,1,0,0:0:0:55:boom.wav
448,192,68485,1,0,0:0:0:0:
320,192,68674,128,0,69429:0:0:0:0:
64,192,68863,1,0,0:0:0:0:
448,192,69051,128,0,69429:0:0:0:0:
192,192,69240,1,0,0:0:0:0:
64,192,69429,1,0,0:0:0:0:
448,192,69617,1,0,0:0:0:0:
320,192,69806,1,0,0:0:0:0:
192,192,69995,1,0,0:0:0:0:
64,192,70183,1,0,0:0:0:0:
448,192,70372,1,0,0:0:0:0:
64,192,70561,1,0,0:0:0:0:
320,192,70749,1,0,0:0:0:0:
64,192,70938,1,0,0:0:0:0:
448,192,71127,1,0,0:0:0:0:
320,192,71315,1,0,0:0:0:0:
192,192,71504,1,0,0:0:0:0:
64,192,71693,1,0,0:0:0:0:
320,192,71881,1,0,0:0:0:0:
192,192,72070,1,0,0:0:0:0:
448,192,72259,1,0,0:0:0:0:
320,192,72447,1,0,0:0:0:0:
64,192,72636,1,0,0:0:0:0:
448,192,72825,1,0,0:0:0:0:
192,192,73014,1,0,0:0:0:0:
64,192,73202,1,0,0:0:0:0:
192,192,73391,1,0,0:0:0:0:
320,192,73580,1,0,0:0:0:0:
448,192,73768,1,0,0:0:0:0:
320,192,73957,1,0,0:0:0:0:
192,192,74146,1,0,0:0:0:0:
64,192,74334,1,0,0:0:0:0:
448,192,74523,1,0,0:0:0:0:
320,192,74712,1,0,0:0:0:0:
192,192,74900,1,0,0:0:0:0:
64,192,75089,1,0,0:0:0:0:
320,192,75278,1,0,0:0:0:0:
64,192,75466,1,0,0:0:0:0:
448,192,75655,1,0,0:0:0:0:
320,192,75844,1,0,0:0:0:0:
192,192,76032,1,0,0:0:0:0:
64,192,76221,1,0,0:0:0:0:
448,192,76410,1,0,0:0:0:0:
64,192,76598,1,0,0:0:0:0:
320,192,76787,1,0,0:0:0:0:
64,192,76976,1,0,0:0:0:0:
448,192,77164,1,0,0:0:0:0:
320,192,77353,1,0,0:0:0:0:
192,192,77542,1,0,0:0:0:0:
64,192,77730,1,0,0:0:0:0:
448,192,77919,1,0,0:0:0:0:
192,192,78108,1,0,0:0:0:0:
320,192,78297,1,0,0:0:0:0:
64,192,78485,1,0,0:0:0:0:
192,192,78674,1,0,0:0:0:0:
448,192,78863,1,0,0:0:0:0:
192,192,79051,1,0,0:0:0:0:
64,192,79240,1,0,0:0:0:0:
320,192,79429,1,0,0:0:0:0:
192,192,79617,1,0,0:0:0:0:
448,192,79806,1,0,0:0:0:0:
64,192,79995,128,0,80278:0:0:0:0:
320,192,80278,128,0,80561:0:0:0:0:
192,192,80561,128,0,80938:0:0:0:0:
448,192,80938,128,0,81127:0:0:0:0:
64,192,81127,128,0,81315:0:0:0:55:boom.wav
320,192,81127,1,0,0:0:0:0:
192,192,81315,128,0,81504:0:0:0:0:
64,192,81504,1,0,0:0:0:55:LR_Drum Kick Wet Fast.wav
448,192,81504,1,0,0:0:0:55:cymbal.wav
320,192,81567,1,0,0:0:0:0:
192,192,81630,1,0,0:0:0:0:
64,192,81693,1,0,0:0:0:55:LR_Drum Kick Wet Fast.wav
448,192,81756,1,0,0:0:0:0:
320,192,81819,1,0,0:0:0:0:
192,192,81881,1,0,0:0:0:0:
64,192,81944,1,0,0:0:0:0:
448,192,82007,1,0,0:0:0:0:
320,192,82070,1,0,0:0:0:0:
64,192,82133,1,0,0:0:0:0:
192,192,82196,1,0,0:0:0:0:
320,192,82259,1,0,0:0:0:30:snare.wav
448,192,82259,1,0,0:0:0:0:
64,192,82322,1,0,0:0:0:0:
192,192,82385,1,0,0:0:0:0:
320,192,82447,1,0,0:0:0:0:
448,192,82510,1,0,0:0:0:0:
64,192,82573,1,0,0:0:0:0:
192,192,82636,1,0,0:0:0:0:
320,192,82699,1,0,0:0:0:0:
448,192,82762,1,0,0:0:0:0:
192,192,82825,128,0,83014:0:0:0:55:LR_Drum Kick Wet Fast.wav
64,192,83014,1,0,0:0:0:55:LR_Drum Kick Wet Fast.wav
448,192,83014,1,0,0:0:0:0:
320,192,83076,1,0,0:0:0:0:
192,192,83139,1,0,0:0:0:0:
64,192,83202,1,0,0:0:0:55:LR_Drum Kick Wet Fast.wav
448,192,83265,1,0,0:0:0:0:
320,192,83328,1,0,0:0:0:0:
192,192,83391,1,0,0:0:0:0:
64,192,83454,1,0,0:0:0:0:
448,192,83517,1,0,0:0:0:0:
320,192,83580,1,0,0:0:0:0:
64,192,83642,1,0,0:0:0:0:
192,192,83705,1,0,0:0:0:0:
320,192,83768,1,0,0:0:0:30:snare.wav
448,192,83768,1,0,0:0:0:0:
64,192,83831,1,0,0:0:0:0:
192,192,83894,1,0,0:0:0:0:
320,192,83957,1,0,0:0:0:0:
448,192,84020,1,0,0:0:0:0:
64,192,84083,1,0,0:0:0:0:
192,192,84146,1,0,0:0:0:0:
320,192,84208,1,0,0:0:0:0:
448,192,84271,1,0,0:0:0:0:
64,192,84334,1,0,0:0:0:55:LR_Drum Kick Wet Fast.wav
192,192,84397,1,0,0:0:0:0:
320,192,84460,1,0,0:0:0:0:
64,192,84523,1,0,0:0:0:55:LR_Drum Kick Wet Fast.wav
448,192,84523,1,0,0:0:0:55:cymbal.wav
192,192,84712,1,0,0:0:0:55:LR_Drum Kick Wet Fast.wav
320,192,84775,1,0,0:0:0:0:
448,192,84837,1,0,0:0:0:0:
64,192,84900,1,0,0:0:0:0:
320,192,85089,1,0,0:0:0:0:
192,192,85152,1,0,0:0:0:0:
64,192,85215,1,0,0:0:0:0:
320,192,85278,1,0,0:0:0:30:snare.wav
448,192,85278,1,0,0:0:0:55:cymbal.wav
64,192,85466,1,0,0:0:0:0:
192,192,85529,1,0,0:0:0:0:
320,192,85592,1,0,0:0:0:0:
448,192,85655,1,0,0:0:0:0:
64,192,85749,1,0,0:0:0:0:
320,192,85844,1,0,0:0:0:55:LR_Drum Kick Wet Fast.wav
192,192,85938,1,0,0:0:0:0:
64,192,86032,1,0,0:0:0:55:LR_Drum Kick Wet Fast.wav
448,192,86032,1,0,0:0:0:0:
320,192,86095,1,0,0:0:0:0:
192,192,86158,1,0,0:0:0:0:
64,192,86221,1,0,0:0:0:55:LR_Drum Kick Wet Fast.wav
448,192,86284,1,0,0:0:0:0:
320,192,86347,1,0,0:0:0:0:
192,192,86410,1,0,0:0:0:0:
64,192,86473,1,0,0:0:0:0:
448,192,86536,1,0,0:0:0:0:
320,192,86598,1,0,0:0:0:0:
192,192,86661,1,0,0:0:0:0:
64,192,86724,1,0,0:0:0:0:
320,192,86787,128,0,87070:0:0:0:30:snare.wav
448,192,86787,1,0,0:0:0:55:cymbal.wav
64,192,87070,1,0,0:0:0:45:drums.wav
192,192,87070,1,0,0:0:0:0:
320,192,87164,1,0,0:0:0:55:LR_Drum Kick Wet Fast.wav
448,192,87164,1,0,0:0:0:45:drums.wav
192,192,87259,1,0,0:0:0:45:drums.wav
64,192,87353,1,0,0:0:0:45:lowdrum.wav
448,192,87353,1,0,0:0:0:0:
64,192,87542,1,0,0:0:0:55:LR_Drum Kick Wet Fast.wav
192,192,87542,1,0,0:0:0:55:cymbal.wav
320,192,87542,1,0,0:0:0:0:
448,192,87730,1,0,0:0:0:0:
320,192,87825,1,0,0:0:0:0:
64,192,87919,1,0,0:0:0:55:LR_Drum Kick Wet Fast.wav
192,192,87919,1,0,0:0:0:30:snare.wav
64,192,88108,1,0,0:0:0:0:
192,192,88202,1,0,0:0:0:0:
320,192,88297,1,0,0:0:0:55:LR_Drum Kick Wet Fast.wav
448,192,88297,1,0,0:0:0:0:
64,192,88485,1,0,0:0:0:0:
320,192,88580,1,0,0:0:0:55:LR_Drum Kick Wet Fast.wav
448,192,88580,1,0,0:0:0:0:
64,192,88674,1,0,0:0:0:30:snare.wav
192,192,88674,1,0,0:0:0:0:
192,192,88863,1,0,0:0:0:55:LR_Drum Kick Wet Fast.wav
320,192,88863,1,0,0:0:0:55:cymbal.wav
448,192,88863,128,0,89240:0:0:0:0:
64,192,89240,1,0,0:0:0:55:LR_Drum Kick Wet Fast.wav
192,192,89303,1,0,0:0:0:0:
320,192,89366,1,0,0:0:0:0:
64,192,89429,1,0,0:0:0:30:snare.wav
448,192,89429,1,0,0:0:0:0:
192,192,89617,1,0,0:0:0:0:
320,192,89680,1,0,0:0:0:0:
448,192,89743,1,0,0:0:0:0:
64,192,89806,1,0,0:0:0:55:LR_Drum Kick Wet Fast.wav
192,192,89869,1,0,0:0:0:0:
448,192,89932,1,0,0:0:0:0:
320,192,89995,1,0,0:0:0:0:
192,192,90058,1,0,0:0:0:0:
64,192,90120,1,0,0:0:0:0:
448,192,90183,1,0,0:0:0:30:snare.wav
320,192,90246,1,0,0:0:0:0:
192,192,90309,1,0,0:0:0:0:
64,192,90372,1,0,0:0:0:55:LR_Drum Kick Wet Fast.wav
448,192,90435,1,0,0:0:0:0:
320,192,90498,1,0,0:0:0:0:
64,192,90561,128,0,90844:0:0:0:55:LR_Drum Kick Wet Fast.wav
192,192,90561,128,0,90844:0:0:0:55:cymbal.wav
320,192,90844,1,0,0:0:0:30:snare.wav
448,192,90844,1,0,0:0:0:0:
64,192,90938,1,0,0:0:0:30:snare.wav
192,192,90938,1,0,0:0:0:0:
64,192,91127,1,0,0:0:0:55:LR_Drum Kick Wet Fast.wav
320,192,91127,128,0,91410:0:0:0:55:cymbal.wav
448,192,91127,128,0,91693:0:0:0:0:
64,192,91410,1,0,0:0:0:55:LR_Drum Kick Wet Fast.wav
192,192,91410,1,0,0:0:0:0:
64,192,91693,1,0,0:0:0:30:snare.wav
320,192,91693,1,0,0:0:0:0:
192,192,91787,1,0,0:0:0:0:
320,192,91881,1,0,0:0:0:55:LR_Drum Kick Wet Fast.wav
448,192,91881,1,0,0:0:0:0:
192,192,91976,1,0,0:0:0:0:
64,192,92070,1,0,0:0:0:55:LR_Drum Kick Wet Fast.wav
448,192,92070,1,0,0:0:0:0:
320,192,92164,1,0,0:0:0:0:
64,192,92353,1,0,0:0:0:30:snare.wav
192,192,92353,1,0,0:0:0:0:
320,192,92447,1,0,0:0:0:30:snare.wav
448,192,92447,1,0,0:0:0:0:
192,192,92542,1,0,0:0:0:0:
64,192,92636,1,0,0:0:0:55:LR_Drum Kick Wet Fast.wav
320,192,92636,1,0,0:0:0:55:cymbal.wav
448,192,92636,1,0,0:0:0:0:
192,192,92730,1,0,0:0:0:0:
320,192,92919,1,0,0:0:0:55:LR_Drum Kick Wet Fast.wav
448,192,92919,1,0,0:0:0:0:
64,192,93014,1,0,0:0:0:0:
192,192,93202,1,0,0:0:0:30:snare.wav
448,192,93202,1,0,0:0:0:0:
320,192,93297,1,0,0:0:0:0:
64,192,93391,1,0,0:0:0:55:LR_Drum Kick Wet Fast.wav
192,192,93391,1,0,0:0:0:0:
320,192,93485,1,0,0:0:0:0:
64,192,93580,1,0,0:0:0:55:LR_Drum Kick Wet Fast.wav
448,192,93580,1,0,0:0:0:0:
192,192,93674,1,0,0:0:0:0:
320,192,93768,1,0,0:0:0:30:snare.wav
448,192,93768,1,0,0:0:0:0:
64,192,93863,1,0,0:0:0:55:LR_Drum Kick Wet Fast.wav
192,192,93863,1,0,0:0:0:55:cymbal.wav
64,192,94051,1,0,0:0:0:30:snare.wav
448,192,94051,1,0,0:0:0:0:
192,192,94146,1,0,0:0:0:55:LR_Drum Kick Wet Fast.wav
320,192,94146,1,0,0:0:0:55:cymbal.wav
64,192,94334,1,0,0:0:0:55:LR_Drum Kick Wet Fast.wav
320,192,94334,1,0,0:0:0:55:cymbal.wav
64,192,94523,1,0,0:0:0:30:snare.wav
192,192,94523,1,0,0:0:0:0:
320,192,94617,1,0,0:0:0:55:LR_Drum Kick Wet Fast.wav
448,192,94617,1,0,0:0:0:55:cymbal.wav
64,192,94806,1,0,0:0:0:30:snare.wav
448,192,94806,1,0,0:0:0:0:
192,192,94900,1,0,0:0:0:55:LR_Drum Kick Wet Fast.wav
320,192,94995,1,0,0:0:0:45:lowdrum.wav
64,192,95089,1,0,0:0:0:55:LR_Drum Kick Wet Fast.wav
192,192,95089,1,0,0:0:0:55:cymbal.wav
448,192,95089,1,0,0:0:0:0:
64,192,95547,1,0,0:0:0:55:cymbal.wav
448,192,95547,128,0,96005:0:0:0:0:
64,192,96005,128,0,97008:0:0:0:0:
192,192,96005,128,0,96463:0:0:0:0:
320,192,96463,128,0,97008:0:0:0:0:
192,192,97008,1,0,0:0:0:55:cymbal.wav
448,192,97008,128,0,97841:0:0:0:0:
64,192,97633,1,0,0:0:0:0:
192,192,97737,1,0,0:0:0:0:
64,192,97841,128,0,98049:0:0:0:0:
320,192,97841,1,0,0:0:0:0:
192,192,98049,128,0,98258:0:0:0:0:
448,192,98258,128,0,98466:0:0:0:0:
320,192,98466,128,0,98674:0:0:0:0:
64,192,98674,1,0,0:0:0:0:
448,192,98674,1,0,0:0:0:0:
192,192,98868,1,0,0:0:0:45:drums.wav
320,192,98868,1,0,0:0:0:0:
64,192,99063,1,0,0:0:0:45:drums.wav
448,192,99063,1,0,0:0:0:0:
192,192,99258,1,0,0:0:0:45:drums.wav
320,192,99258,1,0,0:0:0:0:
64,192,99453,1,0,0:0:0:45:drums.wav
192,192,99453,1,0,0:0:0:0:
320,192,99549,1,0,0:0:0:45:drums.wav
64,192,99645,1,0,0:0:0:45:drums.wav
448,192,99645,1,0,0:0:0:0:
192,192,99741,1,0,0:0:0:45:drums.wav
320,192,99837,1,0,0:0:0:45:drums.wav
448,192,99837,1,0,0:0:0:55:boom.wav
192,192,99933,1,0,0:0:0:45:drums.wav
64,192,100029,1,0,0:0:0:45:drums.wav
448,192,100029,1,0,0:0:0:0:
320,192,100126,1,0,0:0:0:45:drums.wav
64,192,100222,1,0,0:0:0:55:LR_Drum Kick Wet Fast.wav
192,192,100222,1,0,0:0:0:55:cymbal.wav
448,192,100222,1,0,0:0:0:45:drums.wav
320,192,100410,1,0,0:0:0:30:snare.wav
448,192,100410,1,0,0:0:0:0:
64,192,100505,1,0,0:0:0:55:LR_Drum Kick Wet Fast.wav
192,192,100505,1,0,0:0:0:0:
64,192,100693,1,0,0:0:0:55:LR_Drum Kick Wet Fast.wav
192,192,100693,1,0,0:0:0:0:
320,192,100788,1,0,0:0:0:30:snare.wav
448,192,100788,1,0,0:0:0:0:
64,192,100976,1,0,0:0:0:55:LR_Drum Kick Wet Fast.wav
448,192,100976,1,0,0:0:0:0:
192,192,101071,1,0,0:0:0:55:LR_Drum Kick Wet Fast.wav
64,192,101165,1,0,0:0:0:30:snare.wav
320,192,101165,1,0,0:0:0:0:
192,192,101354,1,0,0:0:0:55:LR_Drum Kick Wet Fast.wav
448,192,101354,1,0,0:0:0:0:
320,192,101448,1,0,0:0:0:55:LR_Drum Kick Wet Fast.wav
64,192,101542,1,0,0:0:0:30:snare.wav
192,192,101542,1,0,0:0:0:0:
320,192,101731,1,0,0:0:0:55:LR_Drum Kick Wet Fast.wav
448,192,101731,1,0,0:0:0:0:
64,192,101920,1,0,0:0:0:30:snare.wav
192,192,101920,1,0,0:0:0:0:
320,192,102014,1,0,0:0:0:55:LR_Drum Kick Wet Fast.wav
448,192,102014,1,0,0:0:0:0:
320,192,102203,1,0,0:0:0:55:LR_Drum Kick Wet Fast.wav
448,192,102203,1,0,0:0:0:0:
64,192,102297,1,0,0:0:0:30:snare.wav
192,192,102297,1,0,0:0:0:0:
64,192,102486,1,0,0:0:0:55:LR_Drum Kick Wet Fast.wav
448,192,102486,1,0,0:0:0:0:
320,192,102580,1,0,0:0:0:55:LR_Drum Kick Wet Fast.wav
192,192,102674,1,0,0:0:0:30:snare.wav
448,192,102674,1,0,0:0:0:0:
64,192,102863,1,0,0:0:0:55:LR_Drum Kick Wet Fast.wav
320,192,102863,1,0,0:0:0:0:
192,192,102957,1,0,0:0:0:55:LR_Drum Kick Wet Fast.wav
64,192,103052,1,0,0:0:0:30:snare.wav
448,192,103052,1,0,0:0:0:0:
192,192,103240,1,0,0:0:0:55:LR_Drum Kick Wet Fast.wav
320,192,103240,1,0,0:0:0:0:
64,192,103429,1,0,0:0:0:30:snare.wav
448,192,103429,1,0,0:0:0:0:
192,192,103523,1,0,0:0:0:55:LR_Drum Kick Wet Fast.wav
320,192,103523,1,0,0:0:0:0:
192,192,103712,1,0,0:0:0:55:LR_Drum Kick Wet Fast.wav
320,192,103712,1,0,0:0:0:0:
64,192,103806,1,0,0:0:0:30:snare.wav
448,192,103806,1,0,0:0:0:0:
320,192,103995,1,0,0:0:0:55:LR_Drum Kick Wet Fast.wav
448,192,103995,1,0,0:0:0:0:
192,192,104089,1,0,0:0:0:55:LR_Drum Kick Wet Fast.wav
64,192,104184,1,0,0:0:0:30:snare.wav
320,192,104184,1,0,0:0:0:0:
64,192,104372,1,0,0:0:0:55:LR_Drum Kick Wet Fast.wav
192,192,104372,1,0,0:0:0:0:
320,192,104467,1,0,0:0:0:55:LR_Drum Kick Wet Fast.wav
192,192,104561,1,0,0:0:0:30:snare.wav
448,192,104561,1,0,0:0:0:0:
64,192,104750,1,0,0:0:0:55:LR_Drum Kick Wet Fast.wav
320,192,104750,1,0,0:0:0:0:
192,192,104938,1,0,0:0:0:30:snare.wav
448,192,104938,1,0,0:0:0:0:
64,192,105033,1,0,0:0:0:55:LR_Drum Kick Wet Fast.wav
320,192,105033,1,0,0:0:0:0:
64,192,105222,1,0,0:0:0:55:LR_Drum Kick Wet Fast.wav
320,192,105222,1,0,0:0:0:0:
192,192,105316,1,0,0:0:0:30:snare.wav
448,192,105316,1,0,0:0:0:0:
320,192,105505,1,0,0:0:0:55:LR_Drum Kick Wet Fast.wav
448,192,105505,1,0,0:0:0:0:
64,192,105599,1,0,0:0:0:55:LR_Drum Kick Wet Fast.wav
192,192,105693,1,0,0:0:0:45:drums.wav
320,192,105693,1,0,0:0:0:0:
448,192,105788,1,0,0:0:0:45:drums.wav
64,192,105882,1,0,0:0:0:55:LR_Drum Kick Wet Fast.wav
192,192,105882,1,0,0:0:0:45:drums.wav
320,192,105976,1,0,0:0:0:45:drums.wav
64,192,106071,1,0,0:0:0:45:drums.wav
448,192,106071,1,0,0:0:0:0:
192,192,106165,1,0,0:0:0:45:drums.wav
320,192,106259,128,0,106448:0:0:0:55:LR_Drum Kick Wet Fast.wav
448,192,106259,1,0,0:0:0:55:cymbal.wav
64,192,106448,128,0,106637:0:0:0:30:snare.wav
192,192,106448,1,0,0:0:0:0:
448,192,106542,1,0,0:0:0:55:LR_Drum Kick Wet Fast.wav
320,192,106637,128,0,106825:0:0:0:0:
192,192,106731,1,0,0:0:0:55:LR_Drum Kick Wet Fast.wav
64,192,106825,128,0,107014:0:0:0:30:snare.wav
448,192,106825,1,0,0:0:0:0:
192,192,107014,128,0,107203:0:0:0:55:LR_Drum Kick Wet Fast.wav
320,192,107014,1,0,0:0:0:55:cymbal.wav
64,192,107203,1,0,0:0:0:30:snare.wav
448,192,107203,128,0,107391:0:0:0:0:
320,192,107297,1,0,0:0:0:55:LR_Drum Kick Wet Fast.wav
192,192,107391,128,0,107580:0:0:0:0:
64,192,107486,1,0,0:0:0:55:LR_Drum Kick Wet Fast.wav
320,192,107580,128,0,107769:0:0:0:30:snare.wav
448,192,107580,1,0,0:0:0:0:
64,192,107769,128,0,107957:0:0:0:55:LR_Drum Kick Wet Fast.wav
192,192,107769,1,0,0:0:0:55:cymbal.wav
320,192,107957,1,0,0:0:0:30:snare.wav
448,192,107957,128,0,108146:0:0:0:0:
192,192,108052,1,0,0:0:0:55:LR_Drum Kick Wet Fast.wav
64,192,108146,128,0,108335:0:0:0:0:
320,192,108240,1,0,0:0:0:55:LR_Drum Kick Wet Fast.wav
192,192,108335,1,0,0:0:0:30:snare.wav
448,192,108335,128,0,108523:0:0:0:0:
64,192,108523,1,0,0:0:0:55:LR_Drum Kick Wet Fast.wav
320,192,108523,128,0,108712:0:0:0:55:cymbal.wav
192,192,108712,128,0,108901:0:0:0:30:snare.wav
448,192,108712,1,0,0:0:0:0:
64,192,108806,1,0,0:0:0:55:LR_Drum Kick Wet Fast.wav
320,192,108901,1,0,0:0:0:0:
448,192,108995,1,0,0:0:0:55:LR_Drum Kick Wet Fast.wav
64,192,109089,1,0,0:0:0:45:drums.wav
192,192,109089,1,0,0:0:0:0:
320,192,109184,1,0,0:0:0:45:drums.wav
64,192,109278,1,0,0:0:0:55:LR_Drum Kick Wet Fast.wav
192,192,109278,1,0,0:0:0:55:cymbal.wav
448,192,109278,1,0,0:0:0:45:drums.wav
320,192,109372,1,0,0:0:0:0:
64,192,109467,1,0,0:0:0:0:
192,192,109561,1,0,0:0:0:55:LR_Drum Kick Wet Fast.wav
320,192,109561,1,0,0:0:0:55:cymbal.wav
448,192,109561,1,0,0:0:0:0:
64,192,109655,1,0,0:0:0:0:
448,192,109750,1,0,0:0:0:0:
64,192,109844,1,0,0:0:0:55:LR_Drum Kick Wet Fast.wav
192,192,109844,1,0,0:0:0:55:cymbal.wav
320,192,109844,1,0,0:0:0:0:
448,192,109938,1,0,0:0:0:0:
192,192,110033,1,0,0:0:0:0:
64,192,110127,1,0,0:0:0:55:LR_Drum Kick Wet Fast.wav
320,192,110127,1,0,0:0:0:55:cymbal.wav
448,192,110127,1,0,0:0:0:0:
192,192,110222,1,0,0:0:0:0:
320,192,110316,1,0,0:0:0:0:
64,192,110410,1,0,0:0:0:55:LR_Drum Kick Wet Fast.wav
192,192,110410,1,0,0:0:0:55:cymbal.wav
448,192,110410,1,0,0:0:0:0:
320,192,110505,1,0,0:0:0:0:
192,192,110599,1,0,0:0:0:0:
64,192,110693,1,0,0:0:0:55:LR_Drum Kick Wet Fast.wav
320,192,110693,1,0,0:0:0:55:cymbal.wav
448,192,110693,1,0,0:0:0:0:
192,192,110788,1,0,0:0:0:0:
448,192,110882,1,0,0:0:0:0:
64,192,110976,1,0,0:0:0:55:LR_Drum Kick Wet Fast.wav
192,192,110976,1,0,0:0:0:55:cymbal.wav
320,192,110976,1,0,0:0:0:0:
448,192,111071,1,0,0:0:0:0:
64,192,111165,1,0,0:0:0:0:
192,192,111259,1,0,0:0:0:55:LR_Drum Kick Wet Fast.wav
320,192,111259,1,0,0:0:0:55:cymbal.wav
448,192,111259,1,0,0:0:0:0:
64,192,111354,1,0,0:0:0:0:
320,192,111448,1,0,0:0:0:0:
64,192,111542,1,0,0:0:0:55:LR_Drum Kick Wet Fast.wav
192,192,111542,1,0,0:0:0:55:cymbal.wav
448,192,111542,1,0,0:0:0:0:
320,192,111637,1,0,0:0:0:0:
192,192,111731,1,0,0:0:0:0:
64,192,111825,1,0,0:0:0:55:LR_Drum Kick Wet Fast.wav
320,192,111825,1,0,0:0:0:55:cymbal.wav
448,192,111825,1,0,0:0:0:0:
192,192,111920,1,0,0:0:0:0:
320,192,112014,1,0,0:0:0:0:
64,192,112108,128,0,112486:0:0:0:55:LR_Drum Kick Wet Fast.wav
192,192,112108,128,0,112486:0:0:0:55:cymbal.wav
448,192,112108,1,0,0:0:0:0:
448,192,112486,1,0,0:0:0:45:drums.wav
320,192,112549,1,0,0:0:0:45:drums.wav
192,192,112611,1,0,0:0:0:45:drums.wav
64,192,112674,1,0,0:0:0:45:drums.wav
448,192,112674,1,0,0:0:0:0:
320,192,112769,1,0,0:0:0:45:drums.wav
64,192,112863,1,0,0:0:0:45:lowdrum.wav
192,192,112863,1,0,0:0:0:0:
320,192,112989,1,0,0:0:0:45:lowdrum.wav
448,192,112989,1,0,0:0:0:0:
64,192,113115,1,0,0:0:0:45:lowdrum.wav
192,192,113115,1,0,0:0:0:0:
448,192,113240,1,0,0:0:0:45:lowdrum.wav
320,192,113335,1,0,0:0:0:45:lowdrum.wav
64,192,113429,1,0,0:0:0:45:drums.wav
192,192,113429,1,0,0:0:0:0:
448,192,113492,1,0,0:0:0:45:drums.wav
320,192,113555,1,0,0:0:0:45:lowdrum.wav
192,192,113618,1,0,0:0:0:45:lowdrum.wav
64,192,113681,1,0,0:0:0:45:lowdrum.wav
192,192,113806,1,0,0:0:0:30:snare.wav
320,192,113806,1,0,0:0:0:55:cymbal.wav
448,192,113806,1,0,0:0:0:0:
64,192,113995,1,0,0:0:0:45:lowdrum.wav
192,192,114089,1,0,0:0:0:45:lowdrum.wav
320,192,114184,1,0,0:0:0:45:drums.wav
448,192,114184,1,0,0:0:0:0:
64,192,114278,128,0,114467:0:0:0:55:LR_Drum Kick Wet Fast.wav
192,192,114278,128,0,114467:0:0:0:45:sel_l.wav
320,192,114467,1,0,0:0:0:45:drums.wav
448,192,114467,1,0,0:0:0:0:
64,192,114561,128,0,114750:0:0:0:55:LR_Drum Kick Wet Fast.wav
192,192,114561,128,0,114750:0:0:0:55:cymbal.wav
320,192,114750,1,0,0:0:0:45:drums.wav
448,192,114750,1,0,0:0:0:0:
64,192,114844,128,0,114938:0:0:0:55:LR_Drum Kick Wet Fast.wav
192,192,114844,128,0,114938:0:0:0:45:sel_l.wav
320,192,115033,128,0,115127:0:0:0:55:LR_Drum Kick Wet Fast.wav
448,192,115033,128,0,115127:0:0:0:45:sel_l.wav
64,192,115222,128,0,115505:0:0:0:55:LR_Drum Kick Wet Fast.wav
448,192,115222,128,0,115505:0:0:0:45:sel_l.wav
