osu file format v14

[General]
AudioFilename: audio.mp3
AudioLeadIn: 0
PreviewTime: 38247
Countdown: 0
SampleSet: Soft
StackLeniency: 0.7
Mode: 3
LetterboxInBreaks: 0
SpecialStyle: 0
WidescreenStoryboard: 0

[Editor]
DistanceSpacing: 0.5
BeatDivisor: 4
GridSize: 32
TimelineZoom: 0.6000054

[Metadata]
Title:Sailing Force
TitleUnicode:Sailing Force
Artist:penoreri
ArtistUnicode:ぺのれり
Creator:Aras
Version:4K ADVANCED
Source:SOUND VOLTEX IV HEAVENLY HAVEN
Tags:Maxus Leonita Critical_Star MEGAtive Alisceasparku techno jazz 6th KAC Original Song Contest excellence award Mystérieux Rouge Ortlinde=NBLG=Valkyria
BeatmapID:1243439
BeatmapSetID:587211

[Difficulty]
HPDrainRate:7.5
CircleSize:4
OverallDifficulty:7.5
ApproachRate:5
SliderMultiplier:1.4
SliderTickRate:1

[Events]
//Background and Video events
0,0,"mononosky.jpg",0,0
//Break Periods
//Storyboard Layer 0 (Background)
//Storyboard Layer 1 (Fail)
//Storyboard Layer 2 (Pass)
//Storyboard Layer 3 (Foreground)
//Storyboard Sound Samples
Sample,10511,0,"sel_l.wav",45
Sample,12870,0,"drums.wav",45
Sample,13153,0,"drums.wav",45
Sample,13341,0,"drums.wav",45
Sample,13530,0,"drums.wav",45
Sample,13813,0,"drums.wav",45
Sample,14002,0,"drums.wav",45
Sample,14096,0,"LR_Drum Kick Wet Fast.wav",55
Sample,14096,0,"boom.wav",55
Sample,14285,0,"snare.wav",30
Sample,14568,0,"LR_Drum Kick Wet Fast.wav",55
Sample,14851,0,"LR_Drum Kick Wet Fast.wav",55
Sample,15039,0,"snare.wav",30
Sample,15794,0,"snare.wav",30
Sample,16171,0,"snare.wav",30
Sample,16360,0,"LR_Drum Kick Wet Fast.wav",55
Sample,16643,0,"LR_Drum Kick Wet Fast.wav",55
Sample,16926,0,"cymbal.wav",55
Sample,21360,0,"LR_Drum Kick Wet Fast.wav",55
Sample,22492,0,"LR_Drum Kick Wet Fast.wav",55
Sample,22587,0,"snare.wav",30
Sample,22775,0,"LR_Drum Kick Wet Fast.wav",55
Sample,22870,0,"LR_Drum Kick Wet Fast.wav",55
Sample,24851,0,"snare.wav",30
Sample,31454,0,"cymbal.wav",55
Sample,33530,0,"snare.wav",30
Sample,34190,0,"cymbal.wav",55
Sample,34473,0,"LR_Drum Kick Wet Fast.wav",55
Sample,34756,0,"cymbal.wav",55
Sample,35039,0,"cymbal.wav",55
Sample,38436,0,"snare.wav",30
Sample,38719,0,"LR_Drum Kick Wet Fast.wav",55
Sample,38813,0,"snare.wav",30
Sample,39190,0,"snare.wav",30
Sample,39473,0,"LR_Drum Kick Wet Fast.wav",55
Sample,39945,0,"snare.wav",30
Sample,40228,0,"LR_Drum Kick Wet Fast.wav",55
Sample,40322,0,"snare.wav",30
Sample,40983,0,"LR_Drum Kick Wet Fast.wav",55
Sample,42209,0,"snare.wav",30
Sample,44568,0,"LR_Drum Kick Wet Fast.wav",55
Sample,45134,0,"LR_Drum Kick Wet Fast.wav",55
Sample,45511,0,"LR_Drum Kick Wet Fast.wav",55
Sample,46266,0,"LR_Drum Kick Wet Fast.wav",55
Sample,46549,0,"LR_Drum Kick Wet Fast.wav",55
Sample,46643,0,"LR_Drum Kick Wet Fast.wav",55
Sample,47681,0,"LR_Drum Kick Wet Fast.wav",55
Sample,48247,0,"snare.wav",30
Sample,48436,0,"LR_Drum Kick Wet Fast.wav",55
Sample,48624,0,"snare.wav",30
Sample,48813,0,"cymbal.wav",55
Sample,49190,0,"cymbal.wav",55
Sample,49285,0,"LR_Drum Kick Wet Fast.wav",55
Sample,49379,0,"snare.wav",30
Sample,49756,0,"LR_Drum Kick Wet Fast.wav",55
Sample,50794,0,"LR_Drum Kick Wet Fast.wav",55
Sample,50888,0,"snare.wav",30
Sample,51266,0,"snare.wav",30
Sample,51549,0,"LR_Drum Kick Wet Fast.wav",55
Sample,52681,0,"LR_Drum Kick Wet Fast.wav",55
Sample,52775,0,"snare.wav",30
Sample,53058,0,"LR_Drum Kick Wet Fast.wav",55
Sample,53530,0,"snare.wav",30
Sample,53907,0,"snare.wav",30
Sample,54096,0,"LR_Drum Kick Wet Fast.wav",55
Sample,54285,0,"snare.wav",30
Sample,55228,0,"LR_Drum Kick Wet Fast.wav",55
Sample,55322,0,"LR_Drum Kick Wet Fast.wav",55
Sample,55794,0,"snare.wav",30
Sample,55983,0,"lowdrum.wav",45
Sample,56077,0,"lowdrum.wav",45
Sample,56266,0,"lowdrum.wav",45
Sample,56643,0,"LR_Drum Kick Wet Fast.wav",55
Sample,56832,0,"LR_Drum Kick Wet Fast.wav",55
Sample,57209,0,"LR_Drum Kick Wet Fast.wav",55
Sample,57587,0,"LR_Drum Kick Wet Fast.wav",55
Sample,58058,0,"snare.wav",30
Sample,58153,0,"LR_Drum Kick Wet Fast.wav",55
Sample,58341,0,"LR_Drum Kick Wet Fast.wav",55
Sample,58436,0,"snare.wav",30
Sample,59002,0,"drums.wav",45
Sample,59379,0,"drums.wav",45
Sample,59568,0,"sel_l.wav",45
Sample,60322,0,"sel_l.wav",45
Sample,60605,0,"LR_Drum Kick Wet Fast.wav",55
Sample,61077,0,"sel_l.wav",45
Sample,61832,0,"sel_l.wav",45
Sample,62115,0,"LR_Drum Kick Wet Fast.wav",55
Sample,62587,0,"sel_l.wav",45
Sample,62775,0,"snare.wav",30
Sample,63436,0,"LR_Drum Kick Wet Fast.wav",55
Sample,63624,0,"LR_Drum Kick Wet Fast.wav",55
Sample,65417,0,"cymbal.wav",55
Sample,66800,0,"lowdrum.wav",45
Sample,66863,0,"lowdrum.wav",45
Sample,66926,0,"lowdrum.wav",45
Sample,67021,0,"lowdrum.wav",45
Sample,67115,0,"lowdrum.wav",45
Sample,67304,0,"boom.wav",55
Sample,82304,0,"LR_Drum Kick Wet Fast.wav",55
Sample,82492,0,"LR_Drum Kick Wet Fast.wav",55
Sample,82681,0,"LR_Drum Kick Wet Fast.wav",55
Sample,83058,0,"LR_Drum Kick Wet Fast.wav",55
Sample,83719,0,"LR_Drum Kick Wet Fast.wav",55
Sample,83813,0,"LR_Drum Kick Wet Fast.wav",55
Sample,84002,0,"LR_Drum Kick Wet Fast.wav",55
Sample,84190,0,"LR_Drum Kick Wet Fast.wav",55
Sample,84568,0,"LR_Drum Kick Wet Fast.wav",55
Sample,85322,0,"LR_Drum Kick Wet Fast.wav",55
Sample,85511,0,"LR_Drum Kick Wet Fast.wav",55
Sample,85700,0,"LR_Drum Kick Wet Fast.wav",55
Sample,86077,0,"drums.wav",45
Sample,86124,0,"drums.wav",45
Sample,88719,0,"sel_l.wav",45
Sample,89096,0,"LR_Drum Kick Wet Fast.wav",55
Sample,89945,0,"snare.wav",30
Sample,90417,0,"LR_Drum Kick Wet Fast.wav",55
Sample,91454,0,"snare.wav",30
Sample,91643,0,"LR_Drum Kick Wet Fast.wav",55
Sample,91926,0,"LR_Drum Kick Wet Fast.wav",55
Sample,92115,0,"LR_Drum Kick Wet Fast.wav",55
Sample,92209,0,"snare.wav",30
Sample,92964,0,"sel_l.wav",45
Sample,94002,0,"LR_Drum Kick Wet Fast.wav",55
Sample,94096,0,"boom.wav",55
Sample,99251,0,"cymbal.wav",55
Sample,99251,0,"boom.wav",55
Sample,99534,0,"LR_Drum Kick Wet Fast.wav",55
Sample,99722,0,"LR_Drum Kick Wet Fast.wav",55
Sample,100100,0,"LR_Drum Kick Wet Fast.wav",55
Sample,100477,0,"LR_Drum Kick Wet Fast.wav",55
Sample,101043,0,"LR_Drum Kick Wet Fast.wav",55
Sample,101232,0,"LR_Drum Kick Wet Fast.wav",55
Sample,101892,0,"LR_Drum Kick Wet Fast.wav",55
Sample,102081,0,"snare.wav",30
Sample,102269,0,"LR_Drum Kick Wet Fast.wav",55
Sample,102458,0,"snare.wav",30
Sample,102552,0,"LR_Drum Kick Wet Fast.wav",55
Sample,102741,0,"LR_Drum Kick Wet Fast.wav",55
Sample,103213,0,"snare.wav",30
Sample,103401,0,"LR_Drum Kick Wet Fast.wav",55
Sample,104911,0,"drums.wav",45
Sample,105288,0,"cymbal.wav",55
Sample,105571,0,"LR_Drum Kick Wet Fast.wav",55
Sample,105760,0,"LR_Drum Kick Wet Fast.wav",55
Sample,106326,0,"LR_Drum Kick Wet Fast.wav",55
Sample,106515,0,"LR_Drum Kick Wet Fast.wav",55
Sample,107081,0,"LR_Drum Kick Wet Fast.wav",55
Sample,107269,0,"LR_Drum Kick Wet Fast.wav",55
Sample,107835,0,"LR_Drum Kick Wet Fast.wav",55
Sample,108024,0,"drums.wav",45
Sample,108024,0,"LR_Drum Kick Wet Fast.wav",55
Sample,108213,0,"drums.wav",45
Sample,108307,0,"cymbal.wav",55
Sample,111578,0,"drums.wav",45
Sample,111640,0,"drums.wav",45
Sample,112710,0,"lowdrum.wav",45
Sample,112773,0,"lowdrum.wav",45

[TimingPoints]
2021,377.358490566038,4,2,1,40,1,0
38247,-100,4,2,1,40,0,1
59379,-100,4,2,1,40,0,0
94096,458.015267175573,4,2,1,40,1,0
94096,-82.3899371069182,4,2,1,40,0,0
94554,441.176470588235,4,2,1,40,1,0
94554,-85.5345911949686,4,2,1,40,0,0
94995,491.803278688525,4,2,1,40,1,0
94995,-76.7295597484276,4,2,1,40,0,0
95486,545.454545454546,4,2,1,40,1,0
95486,-69.1823899371069,4,2,1,40,0,0
96031,625,4,2,1,40,1,0
96031,-60.377358490566,4,2,1,40,0,0
96656,821.917808219178,4,2,1,40,1,0
96656,-45.9119496855346,4,2,1,40,0,0
97683,392.156862745098,4,2,1,40,1,0
97683,-96.2264150943396,4,2,1,40,0,0
99251,377.358490566038,4,2,1,40,1,0
99251,-100,4,2,1,40,0,0

[HitObjects]
64,192,2021,5,0,0:0:0:55:LR_Drum Kick Wet Fast.wav
192,192,2021,1,0,0:0:0:70:cymbal.wav
320,192,2209,1,0,0:0:0:0:
192,192,2304,1,0,0:0:0:0:
64,192,2398,1,0,0:0:0:0:
448,192,2492,128,0,2681:0:0:0:0:
192,192,2681,1,0,0:0:0:0:
320,192,2775,128,0,2964:0:0:0:0:
64,192,3058,1,0,0:0:0:0:
64,192,3247,128,0,3436:0:0:0:0:
448,192,3436,1,0,0:0:0:0:
192,192,3530,128,0,3719:0:0:0:0:
448,192,3719,1,0,0:0:0:0:
320,192,3813,128,0,4096:0:0:0:0:
64,192,4096,1,0,0:0:0:0:
192,192,4285,1,0,0:0:0:55:LR_Drum Kick Wet Fast.wav
448,192,4285,128,0,4568:0:0:0:55:cymbal.wav
64,192,4568,1,0,0:0:0:30:snare.wav
320,192,4662,1,0,0:0:0:30:snare.wav
192,192,4662,1,0,0:0:0:0:
64,192,4851,1,0,0:0:0:55:LR_Drum Kick Wet Fast.wav
448,192,4851,128,0,5983:0:0:0:55:cymbal.wav
320,192,5228,1,0,0:0:0:0:
192,192,5322,1,0,0:0:0:0:
64,192,5417,1,0,0:0:0:0:
320,192,5511,128,0,5700:0:0:0:0:
64,192,5700,1,0,0:0:0:0:
320,192,5794,128,0,5983:0:0:0:0:
192,192,5983,128,0,6171:0:0:0:55:LR_Drum Kick Wet Fast.wav
64,192,5983,1,0,0:0:0:0:
448,192,6171,1,0,0:0:0:30:snare.wav
320,192,6171,128,0,6549:0:0:0:0:
64,192,6360,1,0,0:0:0:55:LR_Drum Kick Wet Fast.wav
192,192,6454,1,0,0:0:0:55:LR_Drum Kick Wet Fast.wav
64,192,6549,1,0,0:0:0:55:LR_Drum Kick Wet Fast.wav
448,192,6549,1,0,0:0:0:0:
192,192,6643,1,0,0:0:0:0:
320,192,6737,1,0,0:0:0:0:
448,192,6832,1,0,0:0:0:55:LR_Drum Kick Wet Fast.wav
64,192,6832,1,0,0:0:0:0:
320,192,6926,1,0,0:0:0:0:
192,192,7021,1,0,0:0:0:0:
64,192,7115,1,0,0:0:0:55:LR_Drum Kick Wet Fast.wav
448,192,7115,1,0,0:0:0:0:
320,192,7209,1,0,0:0:0:0:
192,192,7304,1,0,0:0:0:0:
448,192,7398,1,0,0:0:0:55:LR_Drum Kick Wet Fast.wav
64,192,7398,1,0,0:0:0:0:
192,192,7492,1,0,0:0:0:0:
320,192,7587,1,0,0:0:0:0:
448,192,7681,1,0,0:0:0:55:LR_Drum Kick Wet Fast.wav
192,192,7681,1,0,0:0:0:0:
64,192,7775,1,0,0:0:0:0:
320,192,7870,1,0,0:0:0:55:LR_Drum Kick Wet Fast.wav
192,192,7964,1,0,0:0:0:0:
320,192,8247,1,0,0:0:0:55:LR_Drum Kick Wet Fast.wav
448,192,8247,128,0,9379:0:0:0:55:cymbal.wav
64,192,8247,128,0,8624:0:0:0:55:boom.wav
64,192,8813,1,0,0:0:0:55:LR_Drum Kick Wet Fast.wav
64,192,9190,1,0,0:0:0:55:LR_Drum Kick Wet Fast.wav
320,192,9379,1,0,0:0:0:0:
192,192,9568,1,0,0:0:0:55:LR_Drum Kick Wet Fast.wav
64,192,9568,1,0,0:0:0:0:
448,192,9662,1,0,0:0:0:0:
64,192,9851,128,0,10134:0:0:0:0:
192,192,9945,1,0,0:0:0:55:LR_Drum Kick Wet Fast.wav
320,192,10134,128,0,10322:0:0:0:0:
192,192,10322,128,0,10605:0:0:0:55:LR_Drum Kick Wet Fast.wav
448,192,10605,1,0,0:0:0:0:
320,192,10700,1,0,0:0:0:30:snare.wav
64,192,10700,1,0,0:0:0:0:
192,192,10888,1,0,0:0:0:45:lowdrum.wav
320,192,10983,1,0,0:0:0:45:lowdrum.wav
448,192,11077,1,0,0:0:0:55:LR_Drum Kick Wet Fast.wav
64,192,11077,128,0,11454:0:0:0:0:
320,192,11171,1,0,0:0:0:0:
192,192,11266,1,0,0:0:0:0:
448,192,11360,1,0,0:0:0:30:snare.wav
320,192,11454,1,0,0:0:0:30:snare.wav
64,192,11643,1,0,0:0:0:55:LR_Drum Kick Wet Fast.wav
448,192,11643,128,0,12021:0:0:0:0:
192,192,11737,1,0,0:0:0:0:
320,192,11832,1,0,0:0:0:0:
64,192,11926,1,0,0:0:0:30:snare.wav
192,192,12021,1,0,0:0:0:30:snare.wav
448,192,12209,1,0,0:0:0:55:LR_Drum Kick Wet Fast.wav
64,192,12209,128,0,12587:0:0:0:0:
192,192,12304,1,0,0:0:0:0:
320,192,12398,1,0,0:0:0:30:snare.wav
192,192,12492,1,0,0:0:0:30:snare.wav
448,192,12587,128,0,12775:0:0:0:30:snare.wav
320,192,12775,1,0,0:0:0:55:LR_Drum Kick Wet Fast.wav
64,192,12775,1,0,0:0:0:45:drums.wav
192,192,12964,1,0,0:0:0:45:drums.wav
64,192,12964,1,0,0:0:0:0:
320,192,13058,1,0,0:0:0:45:drums.wav
448,192,13058,1,0,0:0:0:0:
192,192,13247,1,0,0:0:0:45:drums.wav
448,192,13247,1,0,0:0:0:0:
64,192,13436,1,0,0:0:0:45:drums.wav
448,192,13436,1,0,0:0:0:0:
64,192,13624,1,0,0:0:0:45:drums.wav
192,192,13624,1,0,0:0:0:0:
320,192,13719,1,0,0:0:0:45:drums.wav
448,192,13719,1,0,0:0:0:55:LR_Drum Kick Wet Fast.wav
320,192,13907,1,0,0:0:0:45:drums.wav
64,192,13907,128,0,14096:0:0:0:0:
192,192,14096,1,0,0:0:0:45:drums.wav
448,192,14096,128,0,14379:0:0:0:55:cymbal.wav
192,192,14379,128,0,14568:0:0:0:0:
64,192,14662,128,0,15134:0:0:0:30:snare.wav
320,192,14662,128,0,15039:0:0:0:0:
448,192,15134,1,0,0:0:0:55:LR_Drum Kick Wet Fast.wav
192,192,15228,1,0,0:0:0:0:
320,192,15322,1,0,0:0:0:55:LR_Drum Kick Wet Fast.wav
64,192,15417,1,0,0:0:0:30:snare.wav
192,192,15511,1,0,0:0:0:0:
320,192,15605,1,0,0:0:0:55:LR_Drum Kick Wet Fast.wav
448,192,15605,128,0,15700:0:0:0:0:
64,192,15700,128,0,15794:0:0:0:0:
192,192,15888,128,0,15983:0:0:0:0:
320,192,16077,128,0,16171:0:0:0:55:LR_Drum Kick Wet Fast.wav
64,192,16266,128,0,16454:0:0:0:0:
448,192,16454,128,0,16549:0:0:0:0:
192,192,16549,128,0,16832:0:0:0:30:snare.wav
320,192,16549,1,0,0:0:0:0:
448,192,16832,1,0,0:0:0:0:
320,192,16926,1,0,0:0:0:55:LR_Drum Kick Wet Fast.wav
192,192,17021,1,0,0:0:0:0:
64,192,17115,1,0,0:0:0:0:
448,192,17209,1,0,0:0:0:0:
320,192,17304,1,0,0:0:0:30:snare.wav
192,192,17398,1,0,0:0:0:0:
320,192,17492,1,0,0:0:0:55:LR_Drum Kick Wet Fast.wav
448,192,17587,1,0,0:0:0:55:LR_Drum Kick Wet Fast.wav
64,192,17681,1,0,0:0:0:30:snare.wav
320,192,17775,1,0,0:0:0:0:
192,192,17870,1,0,0:0:0:55:LR_Drum Kick Wet Fast.wav
448,192,17870,1,0,0:0:0:0:
64,192,17964,1,0,0:0:0:0:
320,192,18058,1,0,0:0:0:30:snare.wav
192,192,18153,1,0,0:0:0:55:LR_Drum Kick Wet Fast.wav
320,192,18247,1,0,0:0:0:0:
448,192,18341,1,0,0:0:0:55:LR_Drum Kick Wet Fast.wav
64,192,18436,1,0,0:0:0:30:snare.wav
192,192,18530,1,0,0:0:0:0:
448,192,18624,1,0,0:0:0:55:LR_Drum Kick Wet Fast.wav
320,192,18719,1,0,0:0:0:0:
192,192,18813,1,0,0:0:0:30:snare.wav
64,192,18813,1,0,0:0:0:0:
448,192,18907,1,0,0:0:0:55:LR_Drum Kick Wet Fast.wav
320,192,19002,1,0,0:0:0:0:
64,192,19096,1,0,0:0:0:30:snare.wav
192,192,19096,1,0,0:0:0:0:
320,192,19190,1,0,0:0:0:55:LR_Drum Kick Wet Fast.wav
192,192,19285,1,0,0:0:0:0:
64,192,19379,1,0,0:0:0:30:snare.wav
448,192,19379,1,0,0:0:0:0:
320,192,19473,1,0,0:0:0:55:LR_Drum Kick Wet Fast.wav
192,192,19473,1,0,0:0:0:55:cymbal.wav
320,192,19662,1,0,0:0:0:55:cymbal.wav
192,192,19662,1,0,0:0:0:55:LR_Drum Kick Wet Fast.wav
448,192,19851,128,0,20134:0:0:0:55:LR_Drum Kick Wet Fast.wav
64,192,19851,128,0,20134:0:0:0:55:cymbal.wav
192,192,19851,1,0,0:0:0:0:
320,192,20039,1,0,0:0:0:30:snare.wav
192,192,20134,128,0,20417:0:0:0:55:LR_Drum Kick Wet Fast.wav
320,192,20417,128,0,22021:0:0:0:55:LR_Drum Kick Wet Fast.wav
192,192,20700,1,0,0:0:0:30:snare.wav
64,192,20700,1,0,0:0:0:55:cymbal.wav
448,192,21077,1,0,0:0:0:30:snare.wav
64,192,21266,1,0,0:0:0:55:LR_Drum Kick Wet Fast.wav
448,192,21454,1,0,0:0:0:30:snare.wav
192,192,21643,1,0,0:0:0:55:LR_Drum Kick Wet Fast.wav
448,192,21832,1,0,0:0:0:30:snare.wav
64,192,21926,1,0,0:0:0:70:LR_Drum Kick Wet Fast.wav
64,192,22115,1,0,0:0:0:55:LR_Drum Kick Wet Fast.wav
192,192,22209,1,0,0:0:0:30:snare.wav
448,192,22209,128,0,22398:0:0:0:0:
320,192,22398,128,0,22681:0:0:0:55:LR_Drum Kick Wet Fast.wav
64,192,22681,128,0,22964:0:0:0:0:
192,192,22964,1,0,0:0:0:30:snare.wav
448,192,22964,128,0,23153:0:0:0:0:
64,192,23153,1,0,0:0:0:55:LR_Drum Kick Wet Fast.wav
192,192,23247,1,0,0:0:0:0:
320,192,23341,1,0,0:0:0:30:snare.wav
192,192,23436,1,0,0:0:0:30:snare.wav
448,192,23530,1,0,0:0:0:55:LR_Drum Kick Wet Fast.wav
64,192,23530,1,0,0:0:0:0:
320,192,23624,1,0,0:0:0:0:
192,192,23719,1,0,0:0:0:30:snare.wav
320,192,23813,1,0,0:0:0:30:snare.wav
448,192,23907,1,0,0:0:0:55:LR_Drum Kick Wet Fast.wav
64,192,23907,1,0,0:0:0:0:
192,192,24002,1,0,0:0:0:0:
320,192,24096,1,0,0:0:0:30:snare.wav
192,192,24190,1,0,0:0:0:30:snare.wav
64,192,24285,1,0,0:0:0:55:LR_Drum Kick Wet Fast.wav
448,192,24285,1,0,0:0:0:0:
320,192,24379,1,0,0:0:0:0:
192,192,24473,1,0,0:0:0:30:snare.wav
64,192,24568,1,0,0:0:0:30:snare.wav
448,192,24662,1,0,0:0:0:55:LR_Drum Kick Wet Fast.wav
320,192,24662,1,0,0:0:0:0:
64,192,24945,1,0,0:0:0:30:snare.wav
320,192,25039,1,0,0:0:0:55:LR_Drum Kick Wet Fast.wav
192,192,25134,1,0,0:0:0:0:
448,192,25228,1,0,0:0:0:30:snare.wav
320,192,25322,1,0,0:0:0:30:snare.wav
192,192,25417,1,0,0:0:0:55:LR_Drum Kick Wet Fast.wav
64,192,25417,128,0,25794:0:0:0:0:
320,192,25794,1,0,0:0:0:55:cymbal.wav
448,192,25794,1,0,0:0:0:55:LR_Drum Kick Wet Fast.wav
192,192,25794,1,0,0:0:0:55:boom.wav
64,192,26171,1,0,0:0:0:55:LR_Drum Kick Wet Fast.wav
192,192,26171,1,0,0:0:0:0:
64,192,26360,1,0,0:0:0:55:LR_Drum Kick Wet Fast.wav
192,192,26360,1,0,0:0:0:0:
320,192,26549,1,0,0:0:0:30:snare.wav
448,192,26549,1,0,0:0:0:0:
192,192,26643,1,0,0:0:0:55:LR_Drum Kick Wet Fast.wav
64,192,26643,128,0,26926:0:0:0:0:
448,192,26926,128,0,27304:0:0:0:55:LR_Drum Kick Wet Fast.wav
320,192,26926,1,0,0:0:0:0:
64,192,27209,1,0,0:0:0:55:LR_Drum Kick Wet Fast.wav
320,192,27304,1,0,0:0:0:30:snare.wav
192,192,27304,1,0,0:0:0:0:
64,192,27492,1,0,0:0:0:55:LR_Drum Kick Wet Fast.wav
448,192,27492,1,0,0:0:0:0:
320,192,27681,1,0,0:0:0:55:LR_Drum Kick Wet Fast.wav
448,192,27681,1,0,0:0:0:0:
448,192,27870,1,0,0:0:0:55:LR_Drum Kick Wet Fast.wav
320,192,27870,1,0,0:0:0:0:
192,192,28058,1,0,0:0:0:30:snare.wav
64,192,28058,1,0,0:0:0:0:
320,192,28153,1,0,0:0:0:55:LR_Drum Kick Wet Fast.wav
448,192,28153,128,0,28436:0:0:0:0:
64,192,28436,128,0,28813:0:0:0:55:LR_Drum Kick Wet Fast.wav
192,192,28436,1,0,0:0:0:0:
320,192,28719,1,0,0:0:0:55:LR_Drum Kick Wet Fast.wav
192,192,28813,1,0,0:0:0:30:snare.wav
448,192,28813,1,0,0:0:0:0:
320,192,29002,1,0,0:0:0:55:LR_Drum Kick Wet Fast.wav
64,192,29002,1,0,0:0:0:0:
192,192,29190,1,0,0:0:0:55:LR_Drum Kick Wet Fast.wav
64,192,29190,1,0,0:0:0:0:
192,192,29379,1,0,0:0:0:55:LR_Drum Kick Wet Fast.wav
64,192,29379,1,0,0:0:0:0:
448,192,29568,1,0,0:0:0:30:snare.wav
320,192,29568,1,0,0:0:0:0:
64,192,29662,128,0,29945:0:0:0:55:LR_Drum Kick Wet Fast.wav
192,192,29662,1,0,0:0:0:0:
320,192,29945,1,0,0:0:0:55:LR_Drum Kick Wet Fast.wav
448,192,29945,128,0,30322:0:0:0:0:
64,192,30228,1,0,0:0:0:55:LR_Drum Kick Wet Fast.wav
192,192,30322,1,0,0:0:0:30:snare.wav
320,192,30322,1,0,0:0:0:0:
448,192,30511,1,0,0:0:0:55:LR_Drum Kick Wet Fast.wav
64,192,30511,1,0,0:0:0:0:
448,192,30700,1,0,0:0:0:55:LR_Drum Kick Wet Fast.wav
320,192,30700,1,0,0:0:0:0:
320,192,30888,1,0,0:0:0:55:LR_Drum Kick Wet Fast.wav
448,192,30888,1,0,0:0:0:0:
64,192,31077,1,0,0:0:0:30:snare.wav
192,192,31077,1,0,0:0:0:0:
448,192,31171,128,0,31454:0:0:0:55:LR_Drum Kick Wet Fast.wav
320,192,31171,1,0,0:0:0:0:
64,192,31454,1,0,0:0:0:55:LR_Drum Kick Wet Fast.wav
192,192,31549,1,0,0:0:0:55:LR_Drum Kick Wet Fast.wav
320,192,31643,1,0,0:0:0:0:
448,192,31737,1,0,0:0:0:55:LR_Drum Kick Wet Fast.wav
64,192,31832,1,0,0:0:0:0:
192,192,31926,1,0,0:0:0:55:LR_Drum Kick Wet Fast.wav
320,192,32021,1,0,0:0:0:30:snare.wav
448,192,32115,1,0,0:0:0:0:
192,192,32209,1,0,0:0:0:55:LR_Drum Kick Wet Fast.wav
64,192,32209,1,0,0:0:0:0:
64,192,32398,1,0,0:0:0:55:LR_Drum Kick Wet Fast.wav
320,192,32398,1,0,0:0:0:55:cymbal.wav
448,192,32398,1,0,0:0:0:55:boom.wav
192,192,32681,1,0,0:0:0:45:lowdrum.wav
320,192,32775,1,0,0:0:0:45:lowdrum.wav
192,192,32870,1,0,0:0:0:45:lowdrum.wav
64,192,32964,1,0,0:0:0:55:LR_Drum Kick Wet Fast.wav
448,192,33058,1,0,0:0:0:0:
192,192,33247,1,0,0:0:0:55:LR_Drum Kick Wet Fast.wav
448,192,33436,1,0,0:0:0:0:
320,192,33530,1,0,0:0:0:55:LR_Drum Kick Wet Fast.wav
192,192,33624,1,0,0:0:0:0:
64,192,33719,1,0,0:0:0:55:LR_Drum Kick Wet Fast.wav
448,192,33719,1,0,0:0:0:0:
448,192,33907,1,0,0:0:0:55:LR_Drum Kick Wet Fast.wav
64,192,33907,1,0,0:0:0:55:cymbal.wav
192,192,34002,1,0,0:0:0:0:
320,192,34096,1,0,0:0:0:30:snare.wav
448,192,34190,1,0,0:0:0:55:LR_Drum Kick Wet Fast.wav
64,192,34379,1,0,0:0:0:30:snare.wav
320,192,34379,1,0,0:0:0:0:
192,192,34568,1,0,0:0:0:0:
448,192,34568,1,0,0:0:0:0:
320,192,34756,1,0,0:0:0:55:LR_Drum Kick Wet Fast.wav
192,192,34851,1,0,0:0:0:0:
448,192,35039,1,0,0:0:0:55:LR_Drum Kick Wet Fast.wav
320,192,35134,1,0,0:0:0:0:
192,192,35228,1,0,0:0:0:55:LR_Drum Kick Wet Fast.wav
64,192,35228,1,0,0:0:0:30:snare.wav
320,192,35322,1,0,0:0:0:55:LR_Drum Kick Wet Fast.wav
448,192,35322,1,0,0:0:0:30:snare.wav
64,192,35511,1,0,0:0:0:45:lowdrum.wav
192,192,35605,1,0,0:0:0:45:lowdrum.wav
320,192,35794,1,0,0:0:0:55:LR_Drum Kick Wet Fast.wav
448,192,35794,1,0,0:0:0:30:snare.wav
192,192,35888,1,0,0:0:0:55:LR_Drum Kick Wet Fast.wav
64,192,35888,1,0,0:0:0:30:snare.wav
448,192,36077,1,0,0:0:0:45:lowdrum.wav
320,192,36171,1,0,0:0:0:45:lowdrum.wav
64,192,36360,1,0,0:0:0:55:LR_Drum Kick Wet Fast.wav
192,192,36360,1,0,0:0:0:55:cymbal.wav
448,192,36486,1,0,0:0:0:45:lowdrum.wav
320,192,36486,1,0,0:0:0:0:
192,192,36612,1,0,0:0:0:45:lowdrum.wav
448,192,36737,1,0,0:0:0:55:LR_Drum Kick Wet Fast.wav
64,192,36737,128,0,37492:0:0:0:55:cymbal.wav
320,192,37492,1,0,0:0:0:0:
192,192,37587,1,0,0:0:0:0:
320,192,37775,1,0,0:0:0:0:
448,192,37775,128,0,38058:0:0:0:0:
192,192,37964,1,0,0:0:0:55:LR_Drum Kick Wet Fast.wav
320,192,38058,1,0,0:0:0:55:boom.wav
64,192,38058,128,0,38247:0:0:0:0:
448,192,38247,1,0,0:0:0:55:cymbal.wav
192,192,38247,128,0,38907:0:0:0:55:LR_Drum Kick Wet Fast.wav
320,192,38907,1,0,0:0:0:0:
448,192,39002,128,0,39285:0:0:0:55:LR_Drum Kick Wet Fast.wav
64,192,39002,1,0,0:0:0:0:
192,192,39285,1,0,0:0:0:55:LR_Drum Kick Wet Fast.wav
320,192,39285,128,0,39568:0:0:0:0:
448,192,39568,1,0,0:0:0:30:snare.wav
64,192,39568,128,0,39756:0:0:0:0:
192,192,39756,1,0,0:0:0:55:LR_Drum Kick Wet Fast.wav
448,192,39756,128,0,40134:0:0:0:0:
64,192,40134,128,0,40511:0:0:0:0:
192,192,40511,1,0,0:0:0:55:LR_Drum Kick Wet Fast.wav
320,192,40605,1,0,0:0:0:55:LR_Drum Kick Wet Fast.wav
448,192,40700,1,0,0:0:0:30:snare.wav
64,192,40700,1,0,0:0:0:0:
192,192,40794,128,0,41077:0:0:0:55:LR_Drum Kick Wet Fast.wav
320,192,41077,1,0,0:0:0:30:snare.wav
448,192,41077,128,0,41266:0:0:0:0:
192,192,41266,1,0,0:0:0:55:LR_Drum Kick Wet Fast.wav
64,192,41266,128,0,41454:0:0:0:0:
448,192,41454,1,0,0:0:0:30:snare.wav
320,192,41549,1,0,0:0:0:0:
192,192,41643,1,0,0:0:0:0:
320,192,41737,1,0,0:0:0:55:LR_Drum Kick Wet Fast.wav
448,192,41832,1,0,0:0:0:30:snare.wav
64,192,41926,1,0,0:0:0:0:
320,192,42021,1,0,0:0:0:55:LR_Drum Kick Wet Fast.wav
192,192,42115,1,0,0:0:0:0:
192,192,42304,1,0,0:0:0:55:LR_Drum Kick Wet Fast.wav
448,192,42492,1,0,0:0:0:55:LR_Drum Kick Wet Fast.wav
320,192,42587,1,0,0:0:0:30:snare.wav
192,192,42681,1,0,0:0:0:0:
448,192,42775,1,0,0:0:0:55:LR_Drum Kick Wet Fast.wav
64,192,42775,1,0,0:0:0:0:
192,192,42870,1,0,0:0:0:0:
320,192,42964,1,0,0:0:0:30:snare.wav
448,192,43058,1,0,0:0:0:0:
64,192,43153,1,0,0:0:0:55:LR_Drum Kick Wet Fast.wav
192,192,43247,1,0,0:0:0:55:LR_Drum Kick Wet Fast.wav
320,192,43341,1,0,0:0:0:30:snare.wav
448,192,43436,1,0,0:0:0:0:
64,192,43530,1,0,0:0:0:55:LR_Drum Kick Wet Fast.wav
320,192,43624,1,0,0:0:0:45:lowdrum.wav
192,192,43719,1,0,0:0:0:30:snare.wav
64,192,43813,1,0,0:0:0:45:lowdrum.wav
448,192,43907,1,0,0:0:0:0:
320,192,44002,1,0,0:0:0:45:lowdrum.wav
64,192,44096,1,0,0:0:0:30:snare.wav
192,192,44190,1,0,0:0:0:0:
320,192,44285,1,0,0:0:0:55:LR_Drum Kick Wet Fast.wav
448,192,44285,128,0,44662:0:0:0:55:cymbal.wav
64,192,44473,1,0,0:0:0:30:snare.wav
320,192,44662,1,0,0:0:0:0:
192,192,44756,1,0,0:0:0:55:LR_Drum Kick Wet Fast.wav
448,192,44851,1,0,0:0:0:30:snare.wav
64,192,44851,128,0,45228:0:0:0:55:cymbal.wav
320,192,45228,1,0,0:0:0:30:snare.wav
192,192,45228,1,0,0:0:0:0:
448,192,45417,1,0,0:0:0:55:LR_Drum Kick Wet Fast.wav
64,192,45417,1,0,0:0:0:0:
448,192,45605,1,0,0:0:0:30:snare.wav
320,192,45605,1,0,0:0:0:0:
192,192,45794,1,0,0:0:0:55:LR_Drum Kick Wet Fast.wav
64,192,45794,128,0,46077:0:0:0:0:
448,192,45983,1,0,0:0:0:30:snare.wav
192,192,46077,1,0,0:0:0:55:LR_Drum Kick Wet Fast.wav
320,192,46077,128,0,46360:0:0:0:0:
64,192,46360,1,0,0:0:0:30:snare.wav
448,192,46360,128,0,46737:0:0:0:55:cymbal.wav
64,192,46737,1,0,0:0:0:30:snare.wav
192,192,46832,1,0,0:0:0:0:
448,192,46926,1,0,0:0:0:55:LR_Drum Kick Wet Fast.wav
320,192,47021,1,0,0:0:0:55:LR_Drum Kick Wet Fast.wav
64,192,47115,1,0,0:0:0:30:snare.wav
192,192,47209,1,0,0:0:0:0:
320,192,47304,1,0,0:0:0:55:LR_Drum Kick Wet Fast.wav
448,192,47304,1,0,0:0:0:0:
64,192,47492,128,0,47775:0:0:0:30:snare.wav
448,192,47587,128,0,47775:0:0:0:0:
192,192,47775,1,0,0:0:0:55:LR_Drum Kick Wet Fast.wav
320,192,47870,1,0,0:0:0:30:snare.wav
192,192,47964,1,0,0:0:0:0:
64,192,48058,1,0,0:0:0:55:LR_Drum Kick Wet Fast.wav
448,192,48058,1,0,0:0:0:0:
320,192,48153,1,0,0:0:0:55:LR_Drum Kick Wet Fast.wav
192,192,48341,1,0,0:0:0:0:
192,192,48530,1,0,0:0:0:55:LR_Drum Kick Wet Fast.wav
448,192,48719,1,0,0:0:0:0:
64,192,48813,1,0,0:0:0:55:LR_Drum Kick Wet Fast.wav
192,192,48907,1,0,0:0:0:55:LR_Drum Kick Wet Fast.wav
448,192,49002,1,0,0:0:0:30:snare.wav
320,192,49096,1,0,0:0:0:0:
64,192,49190,1,0,0:0:0:55:LR_Drum Kick Wet Fast.wav
192,192,49473,1,0,0:0:0:0:
448,192,49568,1,0,0:0:0:55:LR_Drum Kick Wet Fast.wav
320,192,49568,1,0,0:0:0:55:cymbal.wav
192,192,49662,1,0,0:0:0:55:LR_Drum Kick Wet Fast.wav
64,192,49662,1,0,0:0:0:0:
64,192,49851,1,0,0:0:0:55:LR_Drum Kick Wet Fast.wav
448,192,49851,1,0,0:0:0:55:cymbal.wav
320,192,50039,1,0,0:0:0:30:snare.wav
192,192,50039,1,0,0:0:0:55:LR_Drum Kick Wet Fast.wav
64,192,50134,1,0,0:0:0:30:snare.wav
448,192,50134,1,0,0:0:0:55:boom.wav
320,192,50322,1,0,0:0:0:55:cymbal.wav
192,192,50322,128,0,50511:0:0:0:55:LR_Drum Kick Wet Fast.wav
448,192,50511,128,0,50983:0:0:0:30:snare.wav
64,192,50605,128,0,50983:0:0:0:0:
320,192,50983,1,0,0:0:0:0:
192,192,51077,1,0,0:0:0:55:LR_Drum Kick Wet Fast.wav
448,192,51360,1,0,0:0:0:55:LR_Drum Kick Wet Fast.wav
64,192,51360,1,0,0:0:0:0:
448,192,51643,1,0,0:0:0:30:snare.wav
192,192,51643,1,0,0:0:0:0:
320,192,51832,1,0,0:0:0:55:LR_Drum Kick Wet Fast.wav
64,192,51926,1,0,0:0:0:0:
192,192,52021,1,0,0:0:0:30:snare.wav
448,192,52209,1,0,0:0:0:0:
192,192,52304,1,0,0:0:0:55:LR_Drum Kick Wet Fast.wav
320,192,52398,1,0,0:0:0:30:snare.wav
192,192,52492,1,0,0:0:0:0:
64,192,52587,1,0,0:0:0:55:LR_Drum Kick Wet Fast.wav
448,192,52587,128,0,52870:0:0:0:0:
192,192,52870,128,0,53153:0:0:0:55:LR_Drum Kick Wet Fast.wav
64,192,52870,1,0,0:0:0:0:
320,192,53153,128,0,53341:0:0:0:30:snare.wav
448,192,53341,1,0,0:0:0:55:LR_Drum Kick Wet Fast.wav
64,192,53341,128,0,53624:0:0:0:0:
320,192,53624,1,0,0:0:0:0:
448,192,53624,1,0,0:0:0:0:
192,192,53813,1,0,0:0:0:55:LR_Drum Kick Wet Fast.wav
64,192,53813,1,0,0:0:0:0:
448,192,54002,1,0,0:0:0:0:
320,192,54002,1,0,0:0:0:0:
320,192,54190,1,0,0:0:0:0:
192,192,54190,1,0,0:0:0:0:
448,192,54379,1,0,0:0:0:55:LR_Drum Kick Wet Fast.wav
64,192,54379,1,0,0:0:0:0:
192,192,54568,1,0,0:0:0:55:LR_Drum Kick Wet Fast.wav
320,192,54662,1,0,0:0:0:30:snare.wav
448,192,54756,1,0,0:0:0:0:
320,192,54851,1,0,0:0:0:55:LR_Drum Kick Wet Fast.wav
64,192,54851,1,0,0:0:0:0:
192,192,54945,1,0,0:0:0:0:
448,192,55039,1,0,0:0:0:30:snare.wav
64,192,55134,1,0,0:0:0:0:
448,192,55417,1,0,0:0:0:30:snare.wav
320,192,55417,1,0,0:0:0:0:
64,192,55605,1,0,0:0:0:55:LR_Drum Kick Wet Fast.wav
192,192,55605,1,0,0:0:0:0:
320,192,55700,1,0,0:0:0:0:
448,192,55700,1,0,0:0:0:0:
192,192,55888,128,0,56171:0:0:0:30:snare.wav
320,192,56171,128,0,56360:0:0:0:45:lowdrum.wav
192,192,56360,1,0,0:0:0:55:LR_Drum Kick Wet Fast.wav
64,192,56360,128,0,56737:0:0:0:55:cymbal.wav
448,192,56549,128,0,56737:0:0:0:30:snare.wav
192,192,56926,1,0,0:0:0:30:snare.wav
448,192,56926,1,0,0:0:0:0:
320,192,57115,1,0,0:0:0:55:LR_Drum Kick Wet Fast.wav
448,192,57304,1,0,0:0:0:30:snare.wav
64,192,57304,1,0,0:0:0:0:
192,192,57492,1,0,0:0:0:55:LR_Drum Kick Wet Fast.wav
64,192,57681,1,0,0:0:0:30:snare.wav
320,192,57681,1,0,0:0:0:0:
192,192,57870,1,0,0:0:0:55:LR_Drum Kick Wet Fast.wav
448,192,57870,128,0,58247:0:0:0:0:
320,192,58247,1,0,0:0:0:0:
64,192,58247,128,0,58624:0:0:0:0:
448,192,58624,1,0,0:0:0:55:LR_Drum Kick Wet Fast.wav
320,192,58719,1,0,0:0:0:45:drums.wav
192,192,58813,1,0,0:0:0:45:drums.wav
320,192,58907,1,0,0:0:0:45:drums.wav
192,192,59002,1,0,0:0:0:55:LR_Drum Kick Wet Fast.wav
64,192,59096,1,0,0:0:0:45:drums.wav
448,192,59190,1,0,0:0:0:45:drums.wav
320,192,59285,1,0,0:0:0:45:drums.wav
192,192,59379,1,0,0:0:0:55:LR_Drum Kick Wet Fast.wav
64,192,59379,128,0,59945:0:0:0:55:cymbal.wav
448,192,59756,1,0,0:0:0:30:snare.wav
320,192,59945,128,0,60134:0:0:0:45:sel_l.wav
192,192,60134,128,0,60417:0:0:0:55:LR_Drum Kick Wet Fast.wav
448,192,60417,128,0,60700:0:0:0:55:LR_Drum Kick Wet Fast.wav
64,192,60511,1,0,0:0:0:30:snare.wav
192,192,60700,128,0,60888:0:0:0:45:sel_l.wav
320,192,60888,128,0,61454:0:0:0:55:LR_Drum Kick Wet Fast.wav
64,192,61266,1,0,0:0:0:30:snare.wav
192,192,61454,128,0,61643:0:0:0:45:sel_l.wav
320,192,61643,128,0,61926:0:0:0:55:LR_Drum Kick Wet Fast.wav
64,192,61926,128,0,62209:0:0:0:55:LR_Drum Kick Wet Fast.wav
448,192,62021,1,0,0:0:0:30:snare.wav
320,192,62209,128,0,62398:0:0:0:45:sel_l.wav
192,192,62398,128,0,62964:0:0:0:55:LR_Drum Kick Wet Fast.wav
448,192,62964,1,0,0:0:0:45:sel_l.wav
320,192,63027,1,0,0:0:0:0:
192,192,63090,1,0,0:0:0:0:
64,192,63153,1,0,0:0:0:55:LR_Drum Kick Wet Fast.wav
448,192,63215,1,0,0:0:0:0:
320,192,63278,1,0,0:0:0:0:
192,192,63341,1,0,0:0:0:45:sel_l.wav
64,192,63404,1,0,0:0:0:0:
320,192,63467,1,0,0:0:0:0:
448,192,63530,1,0,0:0:0:30:snare.wav
320,192,63593,1,0,0:0:0:0:
192,192,63656,1,0,0:0:0:0:
64,192,63719,1,0,0:0:0:45:sel_l.wav
448,192,63782,1,0,0:0:0:0:
320,192,63844,1,0,0:0:0:0:
192,192,63907,1,0,0:0:0:55:LR_Drum Kick Wet Fast.wav
64,192,63907,128,0,64190:0:0:0:55:cymbal.wav
448,192,64096,1,0,0:0:0:30:snare.wav
192,192,64190,1,0,0:0:0:55:LR_Drum Kick Wet Fast.wav
320,192,64190,128,0,64473:0:0:0:0:
64,192,64379,1,0,0:0:0:55:LR_Drum Kick Wet Fast.wav
448,192,64473,1,0,0:0:0:30:snare.wav
192,192,64473,128,0,64756:0:0:0:55:cymbal.wav
448,192,64756,1,0,0:0:0:45:drums.wav
320,192,64851,1,0,0:0:0:45:drums.wav
64,192,64945,1,0,0:0:0:45:drums.wav
192,192,65039,1,0,0:0:0:45:drums.wav
448,192,65134,1,0,0:0:0:45:drums.wav
320,192,65228,1,0,0:0:0:45:drums.wav
192,192,65322,1,0,0:0:0:45:drums.wav
64,192,65417,1,0,0:0:0:55:LR_Drum Kick Wet Fast.wav
448,192,65417,1,0,0:0:0:45:drums.wav
448,192,65700,1,0,0:0:0:55:LR_Drum Kick Wet Fast.wav
64,192,65983,1,0,0:0:0:55:LR_Drum Kick Wet Fast.wav
320,192,65983,1,0,0:0:0:0:
192,192,66171,1,0,0:0:0:30:snare.wav
448,192,66171,128,0,66926:0:0:0:55:LR_Drum Kick Wet Fast.wav
64,192,66360,1,0,0:0:0:0:
320,192,66454,1,0,0:0:0:55:LR_Drum Kick Wet Fast.wav
64,192,66549,1,0,0:0:0:0:
192,192,66643,1,0,0:0:0:0:
320,192,66737,1,0,0:0:0:45:lowdrum.wav
192,192,66832,1,0,0:0:0:0:
64,192,66926,1,0,0:0:0:55:LR_Drum Kick Wet Fast.wav
448,192,67304,1,0,0:0:0:55:cymbal.wav
64,192,67304,128,0,68436:0:0:0:55:LR_Drum Kick Wet Fast.wav
320,192,67398,1,0,0:0:0:0:
192,192,67492,1,0,0:0:0:0:
320,192,67587,1,0,0:0:0:0:
448,192,67681,1,0,0:0:0:0:
192,192,67775,1,0,0:0:0:0:
320,192,67870,1,0,0:0:0:0:
448,192,67964,1,0,0:0:0:0:
192,192,68058,1,0,0:0:0:0:
448,192,68153,1,0,0:0:0:0:
320,192,68247,1,0,0:0:0:0:
192,192,68341,1,0,0:0:0:0:
448,192,68436,1,0,0:0:0:0:
192,192,68624,1,0,0:0:0:0:
320,192,68813,1,0,0:0:0:0:
64,192,69002,1,0,0:0:0:0:
448,192,69190,1,0,0:0:0:0:
192,192,69379,1,0,0:0:0:0:
320,192,69568,1,0,0:0:0:0:
448,192,69756,1,0,0:0:0:0:
64,192,69945,1,0,0:0:0:0:
192,192,70134,1,0,0:0:0:0:
448,192,70322,1,0,0:0:0:0:
192,192,70511,1,0,0:0:0:0:
320,192,70700,1,0,0:0:0:0:
448,192,70888,1,0,0:0:0:0:
192,192,71077,1,0,0:0:0:0:
64,192,71077,1,0,0:0:0:0:
320,192,71266,1,0,0:0:0:0:
448,192,71454,1,0,0:0:0:0:
64,192,71454,1,0,0:0:0:0:
320,192,71643,1,0,0:0:0:0:
192,192,71832,1,0,0:0:0:0:
64,192,72021,1,0,0:0:0:0:
192,192,72209,1,0,0:0:0:0:
320,192,72398,1,0,0:0:0:0:
64,192,72587,1,0,0:0:0:0:
448,192,72775,1,0,0:0:0:0:
320,192,72964,1,0,0:0:0:0:
192,192,73153,1,0,0:0:0:0:
320,192,73341,1,0,0:0:0:0:
192,192,73530,1,0,0:0:0:0:
64,192,73719,1,0,0:0:0:0:
448,192,73907,1,0,0:0:0:0:
320,192,74096,1,0,0:0:0:0:
192,192,74285,1,0,0:0:0:0:
320,192,74473,1,0,0:0:0:0:
64,192,74662,1,0,0:0:0:0:
448,192,74851,1,0,0:0:0:0:
192,192,75039,1,0,0:0:0:0:
320,192,75228,1,0,0:0:0:0:
192,192,75417,1,0,0:0:0:0:
64,192,75605,1,0,0:0:0:0:
448,192,75794,1,0,0:0:0:0:
192,192,75983,1,0,0:0:0:0:
320,192,76171,1,0,0:0:0:0:
448,192,76360,1,0,0:0:0:0:
64,192,76549,1,0,0:0:0:0:
320,192,76737,1,0,0:0:0:0:
192,192,76926,1,0,0:0:0:0:
448,192,77115,1,0,0:0:0:0:
320,192,77304,1,0,0:0:0:0:
192,192,77492,1,0,0:0:0:0:
320,192,77681,1,0,0:0:0:0:
448,192,77870,1,0,0:0:0:0:
192,192,78058,1,0,0:0:0:0:
320,192,78247,1,0,0:0:0:0:
64,192,78436,1,0,0:0:0:0:
448,192,78624,1,0,0:0:0:0:
192,192,78813,1,0,0:0:0:0:
320,192,79002,1,0,0:0:0:0:
448,192,79002,1,0,0:0:0:0:
320,192,79285,1,0,0:0:0:0:
64,192,79285,1,0,0:0:0:0:
64,192,79568,1,0,0:0:0:0:
448,192,79568,1,0,0:0:0:0:
192,192,79945,1,0,0:0:0:0:
320,192,79945,1,0,0:0:0:0:
192,192,80134,1,0,0:0:0:0:
448,192,80134,1,0,0:0:0:0:
320,192,80322,1,0,0:0:0:0:
64,192,80322,1,0,0:0:0:0:
448,192,80511,1,0,0:0:0:55:LR_Drum Kick Wet Fast.wav
192,192,80511,1,0,0:0:0:0:
64,192,80511,1,0,0:0:0:0:
320,192,80605,1,0,0:0:0:0:
64,192,80700,1,0,0:0:0:55:LR_Drum Kick Wet Fast.wav
192,192,80794,1,0,0:0:0:55:LR_Drum Kick Wet Fast.wav
448,192,80888,1,0,0:0:0:45:sel_l.wav
320,192,80983,1,0,0:0:0:55:LR_Drum Kick Wet Fast.wav
64,192,81077,1,0,0:0:0:0:
192,192,81171,1,0,0:0:0:55:LR_Drum Kick Wet Fast.wav
320,192,81266,1,0,0:0:0:30:snare.wav
448,192,81266,128,0,81454:0:0:0:0:
64,192,81454,128,0,81643:0:0:0:0:
192,192,81549,1,0,0:0:0:55:LR_Drum Kick Wet Fast.wav
320,192,81643,128,0,81832:0:0:0:45:sel_l.wav
192,192,81832,128,0,82021:0:0:0:55:LR_Drum Kick Wet Fast.wav
448,192,81832,1,0,0:0:0:0:
448,192,82021,1,0,0:0:0:55:LR_Drum Kick Wet Fast.wav
64,192,82021,1,0,0:0:0:0:
320,192,82083,1,0,0:0:0:0:
192,192,82146,1,0,0:0:0:0:
64,192,82209,1,0,0:0:0:55:LR_Drum Kick Wet Fast.wav
320,192,82335,1,0,0:0:0:0:
448,192,82398,1,0,0:0:0:45:sel_l.wav
64,192,82461,1,0,0:0:0:0:
192,192,82524,1,0,0:0:0:0:
320,192,82587,128,0,82775:0:0:0:0:
448,192,82775,1,0,0:0:0:30:snare.wav
64,192,82775,1,0,0:0:0:0:
192,192,82838,1,0,0:0:0:0:
320,192,82901,1,0,0:0:0:0:
448,192,82964,1,0,0:0:0:0:
64,192,83027,1,0,0:0:0:0:
192,192,83090,1,0,0:0:0:0:
320,192,83153,1,0,0:0:0:45:sel_l.wav
448,192,83215,1,0,0:0:0:0:
320,192,83278,1,0,0:0:0:0:
192,192,83341,1,0,0:0:0:55:LR_Drum Kick Wet Fast.wav
64,192,83404,1,0,0:0:0:0:
448,192,83467,1,0,0:0:0:0:
320,192,83530,1,0,0:0:0:55:LR_Drum Kick Wet Fast.wav
192,192,83782,1,0,0:0:0:0:
320,192,83844,1,0,0:0:0:0:
448,192,83907,1,0,0:0:0:45:sel_l.wav
64,192,84096,1,0,0:0:0:0:
192,192,84159,1,0,0:0:0:0:
320,192,84222,1,0,0:0:0:0:
448,192,84285,1,0,0:0:0:30:snare.wav
64,192,84285,1,0,0:0:0:0:
320,192,84473,1,0,0:0:0:0:
192,192,84536,1,0,0:0:0:0:
64,192,84599,1,0,0:0:0:0:
448,192,84662,1,0,0:0:0:45:sel_l.wav
320,192,84756,1,0,0:0:0:0:
64,192,84851,1,0,0:0:0:55:LR_Drum Kick Wet Fast.wav
192,192,84945,1,0,0:0:0:0:
448,192,85039,1,0,0:0:0:55:LR_Drum Kick Wet Fast.wav
320,192,85102,1,0,0:0:0:0:
192,192,85165,1,0,0:0:0:0:
64,192,85228,1,0,0:0:0:55:LR_Drum Kick Wet Fast.wav
448,192,85291,1,0,0:0:0:0:
320,192,85354,1,0,0:0:0:0:
192,192,85417,1,0,0:0:0:45:sel_l.wav
448,192,85480,1,0,0:0:0:0:
320,192,85543,1,0,0:0:0:0:
192,192,85605,1,0,0:0:0:0:
320,192,85668,1,0,0:0:0:0:
192,192,85731,1,0,0:0:0:0:
64,192,85794,1,0,0:0:0:30:snare.wav
448,192,85794,128,0,86077:0:0:0:55:cymbal.wav
64,192,86077,128,0,86360:0:0:0:55:LR_Drum Kick Wet Fast.wav
192,192,86171,1,0,0:0:0:45:drums.wav
320,192,86266,1,0,0:0:0:45:drums.wav
448,192,86360,128,0,86549:0:0:0:45:lowdrum.wav
320,192,86549,1,0,0:0:0:55:LR_Drum Kick Wet Fast.wav
64,192,86549,1,0,0:0:0:55:cymbal.wav
192,192,86737,1,0,0:0:0:45:sel_l.wav
320,192,86832,1,0,0:0:0:45:sel_l.wav
64,192,86926,1,0,0:0:0:30:snare.wav
448,192,86926,1,0,0:0:0:0:
320,192,87115,1,0,0:0:0:45:sel_l.wav
192,192,87209,1,0,0:0:0:45:sel_l.wav
64,192,87304,1,0,0:0:0:55:LR_Drum Kick Wet Fast.wav
448,192,87304,1,0,0:0:0:0:
192,192,87492,1,0,0:0:0:45:sel_l.wav
448,192,87587,1,0,0:0:0:55:LR_Drum Kick Wet Fast.wav
320,192,87681,1,0,0:0:0:30:snare.wav
64,192,87681,128,0,87870:0:0:0:0:
192,192,87870,1,0,0:0:0:55:LR_Drum Kick Wet Fast.wav
448,192,87870,128,0,88247:0:0:0:55:cymbal.wav
64,192,88247,1,0,0:0:0:55:LR_Drum Kick Wet Fast.wav
192,192,88310,1,0,0:0:0:0:
320,192,88373,1,0,0:0:0:0:
448,192,88436,1,0,0:0:0:30:snare.wav
64,192,88436,1,0,0:0:0:0:
192,192,88624,1,0,0:0:0:45:sel_l.wav
448,192,88687,1,0,0:0:0:0:
320,192,88750,1,0,0:0:0:0:
192,192,88813,1,0,0:0:0:55:LR_Drum Kick Wet Fast.wav
448,192,88876,1,0,0:0:0:0:
320,192,88939,1,0,0:0:0:0:
64,192,89002,1,0,0:0:0:45:sel_l.wav
192,192,89065,1,0,0:0:0:0:
320,192,89127,1,0,0:0:0:0:
448,192,89190,1,0,0:0:0:30:snare.wav
320,192,89253,1,0,0:0:0:0:
192,192,89316,1,0,0:0:0:0:
64,192,89379,1,0,0:0:0:55:LR_Drum Kick Wet Fast.wav
448,192,89442,1,0,0:0:0:0:
320,192,89505,1,0,0:0:0:0:
64,192,89568,1,0,0:0:0:55:LR_Drum Kick Wet Fast.wav
192,192,89568,128,0,89851:0:0:0:0:
320,192,89851,1,0,0:0:0:30:snare.wav
448,192,89851,128,0,90134:0:0:0:0:
320,192,90134,1,0,0:0:0:55:LR_Drum Kick Wet Fast.wav
64,192,90134,128,0,90605:0:0:0:0:
192,192,90605,1,0,0:0:0:70:LR_Drum Kick Wet Fast.wav
448,192,90700,1,0,0:0:0:30:snare.wav
320,192,90794,1,0,0:0:0:0:
64,192,90888,1,0,0:0:0:55:LR_Drum Kick Wet Fast.wav
192,192,90983,1,0,0:0:0:0:
320,192,91077,128,0,91171:0:0:0:55:LR_Drum Kick Wet Fast.wav
448,192,91171,128,0,91266:0:0:0:0:
64,192,91360,128,0,91454:0:0:0:30:snare.wav
192,192,91549,128,0,91643:0:0:0:0:
320,192,91737,128,0,92021:0:0:0:0:
64,192,92021,128,0,92304:0:0:0:0:
448,192,92304,1,0,0:0:0:0:
192,192,92398,1,0,0:0:0:55:LR_Drum Kick Wet Fast.wav
320,192,92492,1,0,0:0:0:0:
448,192,92587,1,0,0:0:0:55:LR_Drum Kick Wet Fast.wav
64,192,92587,1,0,0:0:0:0:
192,192,92681,1,0,0:0:0:0:
320,192,92775,1,0,0:0:0:30:snare.wav
448,192,92870,128,0,93058:0:0:0:55:LR_Drum Kick Wet Fast.wav
64,192,92870,1,0,0:0:0:55:cymbal.wav
192,192,93058,1,0,0:0:0:30:snare.wav
448,192,93153,128,0,94096:0:0:0:55:LR_Drum Kick Wet Fast.wav
64,192,93153,1,0,0:0:0:0:
192,192,93341,1,0,0:0:0:55:LR_Drum Kick Wet Fast.wav
320,192,93341,1,0,0:0:0:0:
64,192,93530,1,0,0:0:0:30:snare.wav
320,192,93624,1,0,0:0:0:55:LR_Drum Kick Wet Fast.wav
64,192,93813,1,0,0:0:0:30:snare.wav
320,192,93907,1,0,0:0:0:55:LR_Drum Kick Wet Fast.wav
192,192,94096,1,0,0:0:0:55:LR_Drum Kick Wet Fast.wav
64,192,94096,1,0,0:0:0:55:cymbal.wav
320,192,94554,128,0,94995:0:0:0:0:
64,192,94995,1,0,0:0:0:0:
448,192,94995,128,0,95486:0:0:0:0:
192,192,95486,128,0,96031:0:0:0:0:
320,192,96031,1,0,0:0:0:0:
448,192,96031,128,0,96656:0:0:0:0:
64,192,96656,1,0,0:0:0:0:
192,192,96758,1,0,0:0:0:0:
320,192,96861,1,0,0:0:0:0:
64,192,97066,1,0,0:0:0:0:
448,192,97272,1,0,0:0:0:0:
320,192,97477,1,0,0:0:0:0:
192,192,97683,1,0,0:0:0:0:
64,192,97683,1,0,0:0:0:0:
320,192,97879,1,0,0:0:0:45:drums.wav
448,192,97879,1,0,0:0:0:0:
192,192,98075,1,0,0:0:0:45:drums.wav
64,192,98075,1,0,0:0:0:0:
320,192,98271,1,0,0:0:0:45:drums.wav
448,192,98271,1,0,0:0:0:0:
192,192,98467,1,0,0:0:0:45:drums.wav
64,192,98467,1,0,0:0:0:0:
320,192,98565,1,0,0:0:0:45:drums.wav
448,192,98565,1,0,0:0:0:0:
192,192,98663,1,0,0:0:0:45:drums.wav
64,192,98663,1,0,0:0:0:0:
448,192,98761,1,0,0:0:0:45:drums.wav
320,192,98761,1,0,0:0:0:0:
192,192,98859,1,0,0:0:0:45:drums.wav
64,192,98859,1,0,0:0:0:0:
448,192,98957,1,0,0:0:0:45:drums.wav
320,192,98957,1,0,0:0:0:0:
192,192,99055,1,0,0:0:0:45:drums.wav
64,192,99055,1,0,0:0:0:0:
320,192,99153,1,0,0:0:0:45:drums.wav
64,192,99251,1,0,0:0:0:45:drums.wav
448,192,99251,1,0,0:0:0:55:LR_Drum Kick Wet Fast.wav
448,192,99439,128,0,101326:0:0:0:30:snare.wav
192,192,99439,1,0,0:0:0:0:
320,192,99628,1,0,0:0:0:0:
64,192,99817,1,0,0:0:0:30:snare.wav
320,192,100005,1,0,0:0:0:55:LR_Drum Kick Wet Fast.wav
192,192,100194,1,0,0:0:0:30:snare.wav
64,192,100383,1,0,0:0:0:55:LR_Drum Kick Wet Fast.wav
320,192,100571,1,0,0:0:0:30:snare.wav
64,192,100760,1,0,0:0:0:55:LR_Drum Kick Wet Fast.wav
192,192,100949,1,0,0:0:0:30:snare.wav
320,192,101137,1,0,0:0:0:0:
64,192,101326,1,0,0:0:0:30:snare.wav
192,192,101420,1,0,0:0:0:0:
320,192,101515,1,0,0:0:0:55:LR_Drum Kick Wet Fast.wav
192,192,101609,1,0,0:0:0:55:LR_Drum Kick Wet Fast.wav
64,192,101703,1,0,0:0:0:30:snare.wav
320,192,101703,1,0,0:0:0:0:
448,192,101798,1,0,0:0:0:0:
192,192,101986,1,0,0:0:0:55:LR_Drum Kick Wet Fast.wav
192,192,102175,128,0,102458:0:0:0:0:
64,192,102647,128,0,102835:0:0:0:0:
448,192,102835,128,0,102930:0:0:0:30:snare.wav
192,192,103024,128,0,103118:0:0:0:55:LR_Drum Kick Wet Fast.wav
320,192,103118,128,0,103213:0:0:0:55:LR_Drum Kick Wet Fast.wav
448,192,103307,128,0,103496:0:0:0:0:
192,192,103496,128,0,103590:0:0:0:55:LR_Drum Kick Wet Fast.wav
320,192,103590,128,0,103684:0:0:0:30:snare.wav
192,192,103684,128,0,103779:0:0:0:0:
64,192,103779,128,0,103967:0:0:0:55:LR_Drum Kick Wet Fast.wav
448,192,103967,128,0,104062:0:0:0:30:snare.wav
192,192,104062,128,0,104156:0:0:0:55:LR_Drum Kick Wet Fast.wav
320,192,104156,128,0,104251:0:0:0:0:
64,192,104251,128,0,104345:0:0:0:55:LR_Drum Kick Wet Fast.wav
448,192,104345,128,0,104439:0:0:0:30:snare.wav
192,192,104439,128,0,104534:0:0:0:0:
320,192,104534,128,0,104628:0:0:0:55:LR_Drum Kick Wet Fast.wav
64,192,104628,128,0,104722:0:0:0:55:LR_Drum Kick Wet Fast.wav
448,192,104722,1,0,0:0:0:45:drums.wav
320,192,104817,1,0,0:0:0:45:drums.wav
192,192,104911,1,0,0:0:0:55:LR_Drum Kick Wet Fast.wav
64,192,105005,1,0,0:0:0:45:drums.wav
448,192,105100,1,0,0:0:0:45:drums.wav
320,192,105194,1,0,0:0:0:45:drums.wav
64,192,105288,1,0,0:0:0:45:drums.wav
192,192,105288,1,0,0:0:0:55:LR_Drum Kick Wet Fast.wav
64,192,105477,1,0,0:0:0:30:snare.wav
192,192,105477,1,0,0:0:0:0:
192,192,105666,1,0,0:0:0:0:
64,192,105666,1,0,0:0:0:0:
192,192,105854,1,0,0:0:0:30:snare.wav
64,192,105854,1,0,0:0:0:0:
320,192,106043,1,0,0:0:0:55:LR_Drum Kick Wet Fast.wav
448,192,106043,1,0,0:0:0:0:
448,192,106232,1,0,0:0:0:30:snare.wav
320,192,106232,1,0,0:0:0:0:
320,192,106420,1,0,0:0:0:0:
448,192,106420,1,0,0:0:0:0:
320,192,106609,1,0,0:0:0:30:snare.wav
448,192,106609,1,0,0:0:0:0:
320,192,106798,1,0,0:0:0:55:LR_Drum Kick Wet Fast.wav
192,192,106798,1,0,0:0:0:0:
192,192,106986,1,0,0:0:0:30:snare.wav
320,192,106986,1,0,0:0:0:0:
320,192,107175,1,0,0:0:0:0:
192,192,107175,1,0,0:0:0:0:
192,192,107364,1,0,0:0:0:30:snare.wav
320,192,107364,1,0,0:0:0:0:
64,192,107552,1,0,0:0:0:55:LR_Drum Kick Wet Fast.wav
448,192,107552,1,0,0:0:0:0:
64,192,107741,1,0,0:0:0:30:snare.wav
448,192,107741,1,0,0:0:0:0:
64,192,107930,1,0,0:0:0:0:
448,192,107930,1,0,0:0:0:0:
448,192,108118,1,0,0:0:0:45:drums.wav
64,192,108118,1,0,0:0:0:0:
320,192,108307,1,0,0:0:0:45:drums.wav
448,192,108307,1,0,0:0:0:55:LR_Drum Kick Wet Fast.wav
64,192,108401,1,0,0:0:0:0:
320,192,108496,1,0,0:0:0:0:
64,192,108590,1,0,0:0:0:55:LR_Drum Kick Wet Fast.wav
448,192,108590,1,0,0:0:0:0:
192,192,108684,1,0,0:0:0:0:
320,192,108779,1,0,0:0:0:0:
192,192,108873,1,0,0:0:0:55:LR_Drum Kick Wet Fast.wav
64,192,108873,1,0,0:0:0:0:
448,192,108967,1,0,0:0:0:0:
192,192,109062,1,0,0:0:0:0:
64,192,109156,1,0,0:0:0:55:LR_Drum Kick Wet Fast.wav
448,192,109156,1,0,0:0:0:0:
320,192,109251,1,0,0:0:0:0:
192,192,109345,1,0,0:0:0:0:
320,192,109439,1,0,0:0:0:55:LR_Drum Kick Wet Fast.wav
448,192,109439,1,0,0:0:0:0:
64,192,109534,1,0,0:0:0:0:
320,192,109628,1,0,0:0:0:0:
64,192,109722,1,0,0:0:0:55:LR_Drum Kick Wet Fast.wav
448,192,109722,1,0,0:0:0:0:
192,192,109817,1,0,0:0:0:0:
320,192,109911,1,0,0:0:0:0:
192,192,110005,1,0,0:0:0:55:LR_Drum Kick Wet Fast.wav
64,192,110005,1,0,0:0:0:0:
448,192,110100,1,0,0:0:0:0:
192,192,110194,1,0,0:0:0:0:
64,192,110288,1,0,0:0:0:55:LR_Drum Kick Wet Fast.wav
448,192,110288,1,0,0:0:0:0:
320,192,110383,1,0,0:0:0:0:
192,192,110477,1,0,0:0:0:0:
448,192,110571,1,0,0:0:0:55:LR_Drum Kick Wet Fast.wav
320,192,110571,1,0,0:0:0:0:
64,192,110666,1,0,0:0:0:0:
320,192,110760,1,0,0:0:0:0:
448,192,110854,1,0,0:0:0:55:LR_Drum Kick Wet Fast.wav
64,192,110854,1,0,0:0:0:0:
192,192,110949,1,0,0:0:0:0:
320,192,111043,1,0,0:0:0:0:
192,192,111137,1,0,0:0:0:55:LR_Drum Kick Wet Fast.wav
64,192,111137,128,0,112835:0:0:0:0:
448,192,111515,1,0,0:0:0:45:drums.wav
192,192,111609,1,0,0:0:0:0:
448,192,111703,1,0,0:0:0:45:drums.wav
192,192,111798,1,0,0:0:0:45:drums.wav
320,192,111892,1,0,0:0:0:45:lowdrum.wav
448,192,111986,1,0,0:0:0:45:lowdrum.wav
192,192,112081,1,0,0:0:0:0:
320,192,112175,1,0,0:0:0:45:lowdrum.wav
448,192,112269,1,0,0:0:0:45:lowdrum.wav
320,192,112364,1,0,0:0:0:45:lowdrum.wav
192,192,112458,1,0,0:0:0:45:drums.wav
448,192,112552,1,0,0:0:0:45:drums.wav
320,192,112647,1,0,0:0:0:45:lowdrum.wav
192,192,112741,1,0,0:0:0:0:
448,192,112835,1,0,0:0:0:45:lowdrum.wav
320,192,113024,1,0,0:0:0:45:drums.wav
192,192,113118,1,0,0:0:0:45:drums.wav
320,192,113213,1,0,0:0:0:45:drums.wav
448,192,113213,1,0,0:0:0:0:
192,192,113307,1,0,0:0:0:55:LR_Drum Kick Wet Fast.wav
64,192,113307,1,0,0:0:0:55:cymbal.wav
448,192,113496,1,0,0:0:0:45:drums.wav
320,192,113496,1,0,0:0:0:0:
192,192,113590,1,0,0:0:0:55:cymbal.wav
64,192,113590,1,0,0:0:0:55:LR_Drum Kick Wet Fast.wav
448,192,113779,1,0,0:0:0:45:drums.wav
320,192,113779,1,0,0:0:0:0:
192,192,113873,1,0,0:0:0:55:cymbal.wav
64,192,113873,1,0,0:0:0:55:LR_Drum Kick Wet Fast.wav
192,192,114062,1,0,0:0:0:55:cymbal.wav
320,192,114062,1,0,0:0:0:55:LR_Drum Kick Wet Fast.wav
320,192,114251,1,0,0:0:0:55:cymbal.wav
448,192,114251,1,0,0:0:0:55:LR_Drum Kick Wet Fast.wav
64,192,114251,1,0,0:0:0:0:
