osu file format v14

[General]
AudioFilename: audio.mp3
AudioLeadIn: 0
PreviewTime: 99352
Countdown: 0
SampleSet: Soft
StackLeniency: 0.2
Mode: 0
LetterboxInBreaks: 0
WidescreenStoryboard: 1

[Editor]
DistanceSpacing: 0.8
BeatDivisor: 3
GridSize: 8
TimelineZoom: 2.899998

[Metadata]
Title:Reverenced Flower
TitleUnicode:Reverenced Flower
Artist:penoreri
ArtistUnicode:ぺのれり
Creator:R3m
Version:EXHAUST
Source:SOUND VOLTEX EXCEED GEAR
Tags:hey lululu lu^3 Jemzuu UberFazz NeroXx Flask Cynplytholowazy Night Mare Luna Cynp-zy electronic instrumental video game GRAVITY WARS コナステ INFINITEコース グレイスからの挑戦状!! III sdvx eg
BeatmapID:3558111
BeatmapSetID:1570037

[Difficulty]
HPDrainRate:4.8
CircleSize:3.6
OverallDifficulty:8.5
ApproachRate:9.3
SliderMultiplier:1.8
SliderTickRate:1

[Events]
//Background and Video events
0,0,"bg (1).jpg",0,0
//Break Periods
//Storyboard Layer 0 (Background)
//Storyboard Layer 1 (Fail)
//Storyboard Layer 2 (Pass)
//Storyboard Layer 3 (Foreground)
//Storyboard Layer 4 (Overlay)
//Storyboard Sound Samples

[TimingPoints]
1217,384.615384615385,4,2,1,60,1,0
1505,-66.6666666666667,4,2,1,60,0,0
1793,-71.4285714285714,4,2,1,60,0,0
2082,-76.9230769230769,4,2,1,60,0,0
2370,-83.3333333333333,4,2,1,60,0,0
2755,-100,4,2,1,60,0,0
3043,-83.3333333333333,4,2,1,60,0,0
3332,-86.9565217391304,4,2,1,60,0,0
3620,-90.9090909090909,4,2,1,60,0,0
3909,-95.2380952380952,4,2,1,60,0,0
4293,-100,4,2,1,60,0,0
6024,-105.263157894737,4,2,1,60,0,0
6313,-111.111111111111,4,2,1,60,0,0
6601,-117.647058823529,4,2,1,60,0,0
6890,-125,4,2,1,60,0,0
7355,-100,4,2,1,60,0,0
7659,-90.9090909090909,4,2,1,60,0,0
7947,-83.3333333333333,4,2,1,60,0,0
8236,-76.9230769230769,4,2,1,60,0,0
9582,-74.0740740740741,4,2,1,60,0,0
9870,-71.4285714285714,4,2,1,60,0,0
10447,-76.9230769230769,4,2,1,60,0,0
15832,-57.1428571428571,4,2,1,60,0,0
16601,-588.235294117647,4,2,1,60,0,0
18043,-588.235294117647,4,2,1,5,0,0
18140,-285.714285714284,4,2,1,60,0,0
19582,-285.714285714284,4,2,1,5,0,0
19678,-285.714285714284,4,2,20,70,0,0
19774,-285.714285714284,4,2,1,70,0,0
24293,389.61038961039,4,2,1,80,1,0
24422,-100,4,2,1,60,0,0
25072,394.736842105263,4,2,1,70,1,0
25466,-100,4,2,1,75,0,0
25664,-100,4,2,1,80,0,0
25861,292.682926829268,4,2,20,70,1,0
25861,-83.3333333333333,4,2,20,70,0,0
25934,-83.3333333333333,4,2,1,60,0,0
26080,-83.3333333333333,4,2,1,5,0,0
26153,-83.3333333333333,4,2,1,60,0,0
30982,-90.9090909090909,4,2,1,60,0,0
31421,-100,4,2,1,60,0,0
31860,-111.111111111111,4,2,1,60,0,0
32300,-100,4,2,1,60,0,0
34202,-100,4,2,1,30,0,0
34348,-100,4,2,1,35,0,0
34495,-100,4,2,1,40,0,0
34568,-100,4,2,1,45,0,0
34641,-100,4,2,1,50,0,0
34714,-100,4,2,1,55,0,0
34787,-100,4,2,1,60,0,0
34860,-100,4,2,1,65,0,0
34934,-100,4,2,1,70,0,0
35007,-100,4,2,1,75,0,0
35080,-100,4,2,1,80,0,0
35153,-100,4,2,1,85,0,0
35226,-76.9230769230769,4,2,2,90,0,0
35300,-76.9230769230769,4,2,1,60,0,0
35665,-76.9230769230769,4,2,1,70,0,0
36031,-76.9230769230769,4,2,1,5,0,0
36104,-90.9090909090909,4,2,1,70,0,0
36543,-90.9090909090909,4,2,1,70,0,0
36690,-76.9230769230769,4,2,1,70,0,0
36909,-76.9230769230769,4,2,1,5,0,0
36982,-76.9230769230769,4,2,1,60,0,0
37568,297.029702970297,4,2,1,90,1,0
37568,-95.2380952380951,4,2,1,90,0,0
37865,-105.263157894737,4,2,1,40,0,0
38162,-133.333333333333,4,2,1,50,0,0
38459,-181.818181818182,4,2,1,60,0,0
38756,-181.818181818182,4,2,1,65,0,0
39053,-181.818181818182,4,2,1,70,0,0
39350,-181.818181818182,4,2,1,75,0,0
39449,-181.818181818182,4,2,1,78,0,0
39548,-181.818181818182,4,2,1,83,0,0
39647,-181.818181818182,4,2,1,86,0,0
39746,-181.818181818182,4,2,1,89,0,0
39845,-181.818181818182,4,2,1,93,0,0
39944,-666.666666666671,4,2,1,95,0,0
41033,-666.666666666671,4,2,1,5,0,0
41132,-666.666666666671,4,2,2,60,0,0
41206,-666.666666666671,4,2,1,60,0,0
42320,-400.000000000002,4,2,1,60,0,0
42716,-400.000000000002,4,2,1,5,0,0
42815,-400.000000000002,4,2,1,60,0,0
43607,-400.000000000002,4,2,1,5,0,0
43706,-400.000000000002,4,2,1,60,0,0
45092,-400.000000000002,4,2,1,5,0,0
45191,-400.000000000002,4,2,1,60,0,0
45884,-400.000000000002,4,2,1,5,0,0
45983,-400.000000000002,4,2,1,60,0,0
47072,-100,4,2,1,60,0,0
47667,-111.111111111111,4,2,1,60,0,0
48261,-125,4,2,1,60,0,0
48855,-166.666666666667,4,2,1,60,0,0
50637,-111.111111111111,4,2,1,60,0,0
51825,-133.333333333333,4,2,1,60,0,0
52419,-153.846153846153,4,2,1,60,0,0
53013,-181.818181818181,4,2,1,60,0,0
54201,-222.222222222221,4,2,1,60,0,0
56478,-133.333333333333,4,2,1,60,0,0
56528,-133.333333333333,4,2,1,5,0,0
56577,-133.333333333333,4,2,1,60,0,0
57171,-181.818181818181,4,2,1,60,0,0
58954,-100,4,2,1,60,0,0
60736,-333.333333333333,4,2,1,60,0,0
61107,-333.333333333333,4,2,1,5,0,0
61181,-83.3333333333333,4,2,1,60,0,0
61553,-83.3333333333333,4,2,1,5,0,0
61627,-100,4,2,1,60,0,0
65488,-333.333333333333,4,2,1,60,0,0
65860,-333.333333333333,4,2,1,5,0,0
65934,-83.3333333333333,4,2,1,60,0,0
66157,-83.3333333333333,4,2,1,5,0,0
66231,-83.3333333333333,4,2,1,60,0,0
69127,-83.3333333333333,4,2,1,5,0,0
69201,-83.3333333333333,4,2,1,60,0,0
70017,-83.3333333333333,4,2,1,5,0,0
70092,-83.3333333333333,4,2,1,60,0,0
70909,-83.3333333333333,4,2,1,5,0,0
70983,-83.3333333333333,4,2,1,60,0,0
71577,-66.6666666666667,4,2,1,60,0,0
71800,-83.3333333333333,4,2,1,5,0,0
71874,-83.3333333333333,4,2,1,60,0,0
72023,-66.6666666666667,4,2,1,60,0,0
73211,-133.333333333333,4,2,1,60,0,0
73805,-153.846153846153,4,2,1,60,0,0
74399,-181.818181818181,4,2,1,60,0,0
76181,-222.222222222221,4,2,1,60,0,0
76775,-285.714285714282,4,2,1,60,0,0
77369,-181.818181818181,4,2,1,60,0,0
77568,-133.333333333333,4,2,1,60,0,0
77766,-105.263157894737,4,2,1,60,0,0
79746,-200,4,2,1,60,0,0
82716,-133.333333333333,4,2,1,60,0,0
85637,-133.333333333333,4,2,1,5,0,0
85686,-133.333333333333,4,2,1,60,0,0
86973,-133.333333333333,4,2,1,5,0,0
87023,-133.333333333333,4,2,1,60,0,0
87122,-133.333333333333,4,2,1,5,0,0
87171,-133.333333333333,4,2,1,60,0,0
87270,-133.333333333333,4,2,1,5,0,0
87320,-133.333333333333,4,2,1,60,0,0
87419,-133.333333333333,4,2,1,5,0,0
87468,-133.333333333333,4,2,1,60,0,0
88013,-133.333333333333,4,2,1,5,0,0
88063,-133.333333333333,4,2,1,60,0,0
92617,-133.333333333333,4,2,1,5,0,0
92716,-133.333333333333,4,2,1,60,0,0
92766,-133.333333333333,4,2,1,5,0,0
92815,-133.333333333333,4,2,1,60,0,0
93211,-133.333333333333,4,2,1,5,0,0
93310,-133.333333333333,4,2,1,60,0,0
93360,-133.333333333333,4,2,1,5,0,0
93409,-133.333333333333,4,2,1,60,0,0
93805,-133.333333333333,4,2,1,5,0,0
93904,-133.333333333333,4,2,1,60,0,0
93954,-133.333333333333,4,2,1,5,0,0
94003,-133.333333333333,4,2,1,60,0,0
94449,-133.333333333333,4,2,1,5,0,0
94498,-133.333333333333,4,2,1,60,0,0
94548,-133.333333333333,4,2,1,5,0,0
94597,-133.333333333333,4,2,1,60,0,0
95043,-133.333333333333,4,2,1,5,0,0
95092,-100,4,2,1,60,0,0
95142,-100,4,2,1,5,0,0
95191,-100,4,2,1,60,0,0
95686,-100,4,2,1,5,0,0
95785,309.278350515464,4,2,20,75,1,0
95862,-100,4,2,1,60,0,0
97022,291.26213592233,4,2,1,60,1,0
98187,-100,4,2,1,30,0,0
98259,-100,4,2,1,35,0,0
98332,-100,4,2,1,40,0,0
98405,-100,4,2,1,45,0,0
98478,-100,4,2,1,50,0,0
98551,-100,4,2,1,54,0,0
98623,-100,4,2,1,58,0,0
98696,-100,4,2,1,62,0,0
98769,-100,4,2,1,68,0,0
98842,-100,4,2,1,72,0,0
98915,-100,4,2,1,76,0,0
98988,-100,4,2,1,78,0,0
99060,-100,4,2,1,83,0,0
99133,-100,4,2,1,86,0,0
99206,-100,4,2,1,89,0,0
99279,-100,4,2,1,93,0,0
99352,287.081339712919,4,2,2,95,1,1
99352,-76.9230769230769,4,2,2,95,0,1
99423,-76.9230769230769,4,2,5,95,0,1
100926,-76.9230769230769,4,2,5,80,0,1
104519,-66.6666666666667,4,2,5,80,0,1
105093,-76.9230769230769,4,2,5,80,0,1
105667,-66.6666666666667,4,2,5,80,0,1
109112,-100,4,2,5,80,0,1
109686,-83.3333333333333,4,2,5,80,0,1
115428,291.26213592233,4,2,2,60,1,1
115500,-100,4,2,5,60,0,1
115787,-100,4,2,5,5,0,1
115859,-100,4,2,5,80,0,1
115930,-100,4,2,5,5,0,1
116002,-100,4,2,5,80,0,1
116074,-100,4,2,5,5,0,1
116146,-100,4,2,5,80,0,1
116672,-100,4,2,5,5,0,1
116763,-100,4,2,5,70,0,1
116768,-100,4,2,5,70,0,1
116863,-100,4,2,5,5,0,1
116959,-100,4,2,5,60,0,1
117055,-100,4,2,5,5,0,1
117151,-100,4,2,5,50,0,1
117246,-100,4,2,5,5,0,1
117342,-100,4,2,5,45,0,1
117438,-100,4,2,5,5,0,1
117533,-100,4,2,5,40,0,1
117661,-100,4,2,5,5,0,1
117758,287.081339712919,4,2,1,60,1,0
118906,-83.3333333333333,4,2,1,60,0,0
126083,-83.3333333333333,4,2,1,70,0,0
126624,-83.3333333333333,4,2,2,80,0,0
126657,-133.333333333333,4,2,2,80,0,0
126729,-133.333333333333,4,2,1,70,0,0
127088,-83.3333333333333,4,2,1,70,0,0
129384,-111.111111111111,4,2,1,70,0,0
130389,-142.857142857143,4,2,1,70,0,0
131537,-111.111111111111,4,2,1,70,0,0
132686,-90.9090909090908,4,2,1,70,0,0
133403,-90.9090909090908,4,2,1,60,0,0
133475,-90.9090909090908,4,2,1,65,0,0
133547,-90.9090909090908,4,2,1,75,0,0
133619,-90.9090909090908,4,2,1,80,0,0
133691,-90.9090909090908,4,2,1,85,0,0
133762,-90.9090909090908,4,2,1,93,0,0
133801,-90.9090909090908,4,2,1,70,0,0
133834,-76.9230769230769,4,2,1,75,0,0
134265,-76.9230769230769,4,2,1,84,0,0
134695,-76.9230769230769,4,2,1,90,0,0
134982,292.682926829268,4,2,1,70,1,0
135567,-100,4,2,1,80,0,0
135860,-100,4,2,1,90,0,0
136130,-100,4,2,1,70,0,0
137274,-100,4,2,2,70,0,0
137323,-133.333333333333,4,2,2,70,0,0
137396,-133.333333333333,4,2,1,70,0,0
138494,-1000,4,2,1,70,0,0
139372,-1000,4,2,33,45,0,0

[Colours]
Combo1 : 10,129,216
Combo2 : 252,107,82
Combo3 : 253,173,85
Combo4 : 120,228,252

[HitObjects]
313,195,1217,6,0,L|297:121,1,45,4|0,0:3|0:0,0:0:0:0:
252,91,1409,1,2,0:0:0:0:
252,91,1505,2,0,P|307:71|341:86,1,67.5000025749208
340,0,1697,1,2,0:0:0:0:
340,0,1793,2,0,P|384:37|388:74,1,62.9999980773926
466,25,1986,1,2,0:0:0:0:
466,25,2082,2,0,P|455:81|425:103,1,58.4999973220826
512,140,2274,1,2,0:0:0:0:
512,140,2370,2,0,P|457:159|422:147,1,53.9999983520508
436,230,2563,2,0,P|392:191|388:154,1,53.9999983520508,2|0,0:0|0:0,0:0:0:0:
303,151,2755,6,0,L|312:194,1,45,2|0,0:0|0:0,0:0:0:0:
240,232,2947,1,2,0:0:0:0:
240,232,3043,2,0,P|233:257|216:278,1,53.9999983520508
207,353,3236,1,2,0:0:0:0:
207,353,3332,2,0,P|181:359|154:355,1,51.7500009870529
85,384,3524,1,2,0:0:0:0:
85,384,3620,2,0,P|66:365|56:340,1,49.5000015106202
1,290,3813,1,2,0:0:0:0:
1,290,3909,2,0,P|7:264|24:243,1,47.2499985580445
40,170,4101,2,0,P|65:163|92:167,1,47.2499985580445,2|0,0:0|0:0,0:0:0:0:
170,172,4293,6,0,L|160:128,1,45,2|0,0:0|0:0,0:0:0:0:
144,49,4486,2,0,L|134:5,2,45,2|0|0,0:0|0:0|0:0,0:0:0:0:
222,75,4774,2,0,L|255:44,2,45,2|0|0,0:0|0:0|0:0,0:0:0:0:
81,103,5063,2,0,L|38:88,2,45,2|0|0,0:0|0:0|0:0,0:0:0:0:
160,128,5351,2,0,L|170:172,2,45,2|0|0,0:0|0:0|0:0,0:0:0:0:
144,49,5640,1,2,0:0:0:0:
141,32,5736,1,0,0:0:0:0:
222,75,5832,6,0,L|266:65,1,45,2|0,0:0|0:0,0:0:0:0:
340,20,6024,2,0,L|350:64,2,42.7499988584519,2|0|0,0:0|0:0|0:0,0:0:0:0:
421,103,6313,2,0,L|387:133,2,40.4999987640381,2|0|0,0:0|0:0|0:0,0:0:0:0:
387,211,6601,2,0,L|343:197,2,38.2500007295609,2|0|0,0:0|0:0|0:0,0:0:0:0:
281,238,6890,2,0,L|270:194,2,36,2|0|0,0:0|0:0|0:0,0:0:0:0:
202,171,7178,1,2,0:0:0:0:
2,278,7370,6,0,P|22:294|48:301,1,45,2|0,0:0|0:0,0:0:0:0:
57,376,7563,1,2,0:0:0:0:
57,376,7659,2,0,P|81:366|100:347,1,49.5000015106202
172,373,7851,1,2,0:0:0:0:
172,373,7947,2,0,P|175:347|169:319,1,53.9999983520508
224,266,8140,1,2,0:0:0:0:
224,266,8236,2,0,P|202:248|173:240,1,58.4999973220826
157,164,8428,1,2,0:0:0:0:
157,164,8524,2,0,P|130:174|109:194,1,58.4999973220826
109,277,8717,1,2,0:0:0:0:
109,277,8813,1,2,0:0:0:0:
31,233,8909,6,0,B|19:178|19:178|22:172|22:172|9:108|9:108,1,116.999994644165,2|0,0:0|0:0,0:0:0:0:
43,41,9197,5,2,0:0:0:0:
59,56,9293,2,0,P|91:67|123:62,1,58.4999973220826
256,0,9486,1,2,0:0:0:0:
234,2,9582,2,0,P|204:19|188:48,1,60.7500002317429
186,205,9774,1,2,0:0:0:0:
190,183,9870,2,0,P|183:149|163:123,1,62.9999980773926
109,277,10063,1,2,0:0:0:0:
336,252,10255,5,2,0:0:0:0:
359,248,10351,1,2,0:0:0:0:
413,190,10447,2,0,P|437:230|437:255,1,58.4999973220826,2|0,0:3|0:0,0:0:0:0:
511,259,10640,2,0,P|501:285|480:306,1,58.4999973220826,2|0,0:0|0:0,0:0:0:0:
264,214,10831,2,0,P|255:259|263:283,1,58.4999973220826,2|0,0:0|0:0,0:0:0:0:
194,312,11024,2,0,P|214:334|240:346,1,58.4999973220826,2|0,0:0|0:0,0:0:0:0:
412,189,11217,6,0,P|430:211|438:240,1,58.4999973220826,2|0,0:3|0:0,0:0:0:0:
264,214,11409,2,0,P|255:259|263:283,1,58.4999973220826,0|0,0:3|0:0,0:0:0:0:
479,305,11601,2,0,P|500:285|512:259,1,58.4999973220826,2|0,0:0|0:0,0:0:0:0:
241,345,11793,2,0,P|214:334|195:313,1,58.4999973220826,2|0,0:0|0:0,0:0:0:0:
333,157,11986,6,0,L|322:96,6,38.9999982147218,2|0|0|2|0|0|2,0:3|0:0|0:0|0:0|0:0|0:0|0:0,0:0:0:0:
112,283,12563,2,0,L|101:344,6,38.9999982147218,2|0|0|2|0|0|2,0:0|0:0|0:0|0:0|0:0|0:0|0:0,0:0:0:0:
70,138,13140,5,2,0:0:0:0:
93,171,13236,1,0,0:0:0:0:
130,188,13332,1,2,0:0:0:0:
171,185,13428,1,2,0:0:0:0:
204,161,13524,2,0,P|223:106|139:38,2,175.499991966248,2|2|2,0:0|0:0|0:0,0:0:0:0:
155,261,14293,2,0,P|136:316|220:384,1,175.499991966248,2|0,0:0|0:0,0:0:0:0:
289,384,14678,2,0,P|307:358|311:322,1,58.4999973220826,2|0,0:0|0:0,0:0:0:0:
361,275,14870,2,0,P|347:246|318:224,1,58.4999973220826,2|0,0:0|0:0,0:0:0:0:
216,90,15063,6,0,B|229:176|229:176|233:183|233:183|245:264,2,175.499991966248,2|2|2,0:0|0:0|0:0,0:0:0:0:
506,75,15832,6,0,B|475:116|415:103|415:103|410:121|410:121|341:96|289:164,2,236.250002253056,2|2|2,0:0|0:0|0:0,0:0:0:0:
444,319,16601,6,0,P|397:351|342:344,1,114.750000700378,6|0,0:3|0:0,0:0:0:0:
289,271,18140,6,0,P|342:187|456:229,1,236.249992790222,10|0,1:1|0:0,0:0:0:0:
463,239,19678,5,12,1:2:0:0:
469,207,19774,1,8,1:2:0:0:
475,175,19870,1,8,1:2:0:0:
482,144,19967,1,8,1:2:0:0:
424,72,20159,5,8,1:2:0:0:
341,100,20351,5,8,1:2:0:0:
284,35,20543,5,8,1:2:0:0:
216,96,20736,5,8,1:2:0:0:
223,130,20832,1,8,1:2:0:0:
125,153,21024,5,8,1:2:0:0:
118,119,21120,1,8,1:2:0:0:
141,237,21313,5,8,1:2:0:0:
194,225,21409,1,8,1:2:0:0:
249,213,21505,1,8,1:2:0:0:
220,349,21697,5,8,1:2:0:0:
353,322,21890,5,8,1:2:0:0:
342,271,21986,1,8,1:2:0:0:
332,220,22082,1,8,1:2:0:0:
321,171,22178,1,8,1:2:0:0:
480,141,22370,5,8,1:2:0:0:
491,190,22466,1,8,1:2:0:0:
501,241,22562,1,8,1:2:0:0:
512,292,22658,1,8,1:2:0:0:
418,231,22851,5,8,1:2:0:0:
353,322,23043,5,8,1:2:0:0:
318,329,23139,1,8,1:2:0:0:
198,239,23332,5,8,1:2:0:0:
232,232,23428,1,8,1:2:0:0:
220,349,23620,5,8,1:2:0:0:
332,220,23813,5,8,1:2:0:0:
338,249,23909,1,8,1:2:0:0:
220,349,24101,5,8,1:2:0:0:
213,314,24197,1,8,1:2:0:0:
128,106,24422,5,8,1:2:0:0:
211,153,24552,5,8,1:2:0:0:
281,81,24682,5,8,1:2:0:0:
366,130,24812,5,8,1:2:0:0:
435,59,24942,5,8,1:2:0:0:
512,124,25072,5,8,1:2:0:0:
508,144,25170,1,8,1:2:0:0:
503,167,25269,1,8,1:2:0:0:
499,189,25368,1,8,1:2:0:0:
495,211,25466,1,8,1:2:0:0:
491,232,25565,1,8,1:2:0:0:
487,254,25664,1,8,1:2:0:0:
483,276,25762,1,8,1:2:0:0:
480,298,25861,6,0,B|411:283|411:283|391:264|391:264|322:246,1,161.999995056153,6|0,3:2|0:0,0:0:0:0:
278,188,26153,2,0,P|249:252|265:290,1,107.999996704102,2|0,3:2|0:0,0:0:0:0:
352,336,26446,1,2,3:2:0:0:
388,177,26592,1,0,0:0:0:0:
348,358,26739,1,2,3:2:0:0:
229,250,26885,2,0,L|161:237,1,53.9999983520508,0|0,0:2|0:0,0:0:0:0:
84,384,27031,6,0,B|116:354|116:354|101:259,1,107.999996704102,2|0,3:2|0:2,0:0:0:0:
115,119,27324,2,0,B|83:149|83:149|98:244,1,107.999996704102,2|2,3:2|0:2,0:0:0:0:
234,347,27617,1,2,3:2:0:0:
267,171,27763,1,0,0:0:0:0:
232,366,27909,1,2,3:2:0:0:
359,173,28056,2,0,L|348:106,1,53.9999983520508,2|0,0:0|0:0,0:0:0:0:
240,41,28202,6,0,P|183:29|133:61,1,107.999996704102,2|2,3:2|0:0,0:0:0:0:
318,247,28495,2,0,P|375:259|425:227,1,107.999996704102,2|2,3:2|0:0,0:0:0:0:
198,123,28787,5,2,3:2:0:0:
218,241,28934,1,2,0:0:0:0:
98,263,29080,1,2,3:2:0:0:
78,142,29226,1,2,0:0:0:0:
187,136,29373,5,2,3:2:0:0:
204,231,29520,1,2,0:0:0:0:
107,249,29666,1,2,3:2:0:0:
91,151,29812,1,2,0:0:0:0:
218,241,29958,6,0,P|255:261|282:260,1,53.9999983520508,2|0,3:2|0:0,0:0:0:0:
290,332,30104,2,0,P|325:309|338:286,1,53.9999983520508,2|0,0:0|0:0,0:0:0:0:
466,146,30251,6,0,P|453:186|434:204,1,53.9999983520508,2|0,3:2|0:0,0:0:0:0:
479,261,30397,2,0,P|438:270|412:262,1,53.9999983520508,2|0,0:0|0:0,0:0:0:0:
335,161,30543,6,0,L|361:231,1,53.9999983520508,6|0,3:1|0:0,0:0:0:0:
397,338,30690,1,2,0:2:0:0:
397,338,30836,1,2,3:2:0:0:
218,241,30982,6,0,L|245:170,1,49.5000015106202,2|0,0:2|0:0,0:0:0:0:
273,91,31129,1,2,3:2:0:0:
273,91,31275,1,2,0:2:0:0:
122,180,31421,6,0,L|140:226,1,45,2|0,3:2|0:0,0:0:0:0:
172,307,31568,1,2,0:2:0:0:
172,307,31714,1,2,3:2:0:0:
27,239,31860,6,0,L|45:192,1,40.4999987640381,2|0,0:2|0:0,0:0:0:0:
69,116,32007,1,2,3:2:0:0:
69,116,32153,1,2,0:2:0:0:
172,307,32300,6,0,P|209:312|248:295,1,45,2|0,3:2|0:0,0:0:0:0:
266,370,32446,2,0,P|288:340|293:298,1,45,2|0,0:0|0:0,0:0:0:0:
367,320,32592,1,2,3:2:0:0:
374,299,32665,1,0,0:0:0:0:
375,276,32739,1,2,0:0:0:0:
372,253,32812,1,0,0:0:0:0:
365,231,32885,6,0,P|339:203|297:192,3,45,2|0|2|0,3:2|0:0|0:0|0:0,0:0:0:0:
172,307,33178,2,0,P|209:312|248:295,3,45,2|0|2|0,3:2|0:0|0:0|0:0,0:0:0:0:
332,121,33470,2,0,P|296:131|267:162,3,45,2|0|2|0,3:2|0:0|0:2|0:0,0:0:0:0:
266,370,33763,2,0,P|288:340|293:298,3,45,2|0|2|0,3:2|0:0|0:0|0:0,0:0:0:0:
197,229,34056,1,2,3:2:0:0:
108,293,34202,5,8,3:3:0:0:
100,271,34275,1,8,3:3:0:0:
93,250,34348,1,8,3:3:0:0:
86,228,34421,1,8,3:3:0:0:
97,209,34495,1,8,3:3:0:0:
108,189,34568,1,8,3:3:0:0:
120,170,34641,1,8,3:3:0:0:
113,149,34714,1,8,3:3:0:0:
106,128,34787,1,8,3:3:0:0:
99,107,34860,1,8,3:3:0:0:
92,84,34934,2,0,L|77:40,1,45,8|8,3:3|3:3,0:0:0:0:
0,68,35080,2,0,L|16:116,1,45,8|8,3:3|3:3,0:0:0:0:
192,101,35226,6,0,B|235:131|278:118|299:90|299:90|322:56|375:35|430:91,1,233.999989288331,4|2,3:2|0:0,0:0:0:0:
479,143,35714,6,0,L|494:96,1,38.9999982147218,0|0,3:0|3:0,0:0:0:0:
487,153,35812,2,0,B|506:187|506:187|478:289|478:289|439:302,1,175.499991966248,4|0,1:2|0:0,0:0:0:0:
412,307,36104,6,0,P|357:251|245:290,1,198.000006042481,2|2,0:0|0:0,0:0:0:0:
191,353,36592,6,0,L|206:400,1,33.0000010070801,0|0,3:0|3:0,0:0:0:0:
177,347,36690,2,0,B|143:327|143:327|116:224|116:224|144:193,1,175.499991966248,4|0,1:2|0:0,0:0:0:0:
128,126,36982,2,0,P|189:148|199:167,1,58.4999973220826,2|0,0:0|0:0,0:0:0:0:
254,254,37129,2,0,P|242:190|254:172,1,58.4999973220826,2|0,0:0|0:0,0:0:0:0:
262,120,37275,1,2,0:0:0:0:
289,100,37348,1,2,0:0:0:0:
317,92,37421,1,2,0:0:0:0:
346,92,37495,1,2,0:0:0:0:
377,104,37568,6,0,L|438:92,2,62.9999980773926,8|0|0,1:1|0:0|0:0,0:0:0:0:
427,179,37865,2,0,L|474:211,2,56.9999984779358,10|8|8,0:1|0:1|0:1,0:0:0:0:
409,267,38162,2,0,L|419:322,2,45.0000017166138,10|8|8,0:1|0:1|0:1,0:0:0:0:
334,316,38459,2,0,L|301:363,2,33.0000010070801,10|8|8,0:1|0:1|0:1,0:0:0:0:
243,308,38756,5,10,0:1:0:0:
229,295,38855,5,8,0:1:0:0:
213,287,38954,5,8,0:1:0:0:
150,340,39053,5,10,0:1:0:0:
128,354,39152,5,8,0:1:0:0:
101,361,39251,5,8,0:1:0:0:
22,338,39350,5,10,0:1:0:0:
40,301,39449,5,8,0:1:0:0:
43,260,39548,5,8,0:1:0:0:
108,190,39647,5,10,0:1:0:0:
55,166,39746,5,8,0:1:0:0:
35,110,39845,5,8,0:1:0:0:
129,4,39944,6,0,L|120:101,1,98.9999969787599,4|0,1:2|0:0,0:0:0:0:
108,190,41132,5,8,0:3:0:0:
117,200,41231,1,0,0:0:0:0:
136,214,41330,1,0,0:0:0:0:
158,222,41429,1,2,0:0:0:0:
195,222,41528,1,0,0:0:0:0:
227,209,41627,1,0,0:0:0:0:
247,177,41726,1,2,0:0:0:0:
261,136,41825,1,0,0:0:0:0:
292,100,41924,1,0,0:0:0:0:
337,85,42023,1,2,0:0:0:0:
383,94,42122,1,0,0:0:0:0:
419,124,42221,1,0,0:0:0:0:
436,176,42320,6,0,P|428:218|409:244,1,75,2|2,0:0|0:0,0:0:0:0:
351,309,42914,6,0,P|389:330|448:321,1,105,2|0,0:0|0:0,0:0:0:0:
512,274,43706,5,2,0:0:0:0:
368,182,43904,5,2,0:0:0:0:
277,327,44102,5,2,0:0:0:0:
246,349,44201,1,0,0:0:0:0:
209,358,44300,1,2,0:0:0:0:
171,352,44399,1,2,0:0:0:0:
137,334,44498,1,2,0:0:0:0:
115,303,44597,1,2,0:0:0:0:
109,265,44696,6,0,L|41:243,1,60,6|0,0:1|0:0,0:0:0:0:
248,183,45191,1,0,0:0:0:0:
271,176,45290,2,0,B|310:163|310:163|312:159|312:159|360:144,1,90,2|0,0:0|0:0,0:0:0:0:
439,53,45983,5,2,0:0:0:0:
428,77,46082,1,2,0:0:0:0:
422,112,46181,1,2,0:0:0:0:
429,150,46280,1,2,0:0:0:0:
447,185,46379,1,2,0:0:0:0:
469,218,46478,1,2,0:0:0:0:
497,254,46577,1,2,0:0:0:0:
504,303,46676,1,2,0:0:0:0:
489,353,46775,1,2,0:0:0:0:
443,384,46874,1,2,0:0:0:0:
387,377,46973,1,2,0:0:0:0:
342,336,47072,6,0,P|323:319|288:309,1,60,6|0,0:1|0:0,0:0:0:0:
275,232,47270,2,0,P|250:239|224:265,1,60,2|0,0:0|0:0,0:0:0:0:
151,238,47468,2,0,P|145:262|154:298,1,60,2|0,0:0|0:0,0:0:0:0:
354,236,47667,6,0,P|352:210|334:178,1,53.9999983520508,2|0,0:0|0:0,0:0:0:0:
383,125,47865,2,0,P|360:113|323:112,1,53.9999983520508,2|0,0:0|0:0,0:0:0:0:
302,43,48063,2,0,P|280:56|261:88,1,53.9999983520508,2|0,0:0|0:0,0:0:0:0:
151,238,48261,6,0,L|163:286,1,48,6|0,0:1|0:0,0:0:0:0:
59,141,48459,2,0,L|11:127,1,48,2|0,0:0|0:0,0:0:0:0:
189,109,48657,2,0,L|224:74,1,48,2|0,0:0|0:0,0:0:0:0:
77,216,48855,6,0,L|41:250,1,35.9999989013672,2|0,0:0|0:0,0:0:0:0:
208,185,49053,2,0,L|242:194,1,35.9999989013672,2|0,0:0|0:0,0:0:0:0:
115,89,49251,2,0,L|106:54,1,35.9999989013672,2|2,0:0|0:0,0:0:0:0:
151,238,49449,5,2,0:1:0:0:
156,256,49548,1,0,0:0:0:0:
161,274,49647,1,0,0:0:0:0:
166,292,49746,1,0,0:0:0:0:
171,310,49845,1,2,0:0:0:0:
176,328,49944,1,2,0:0:0:0:
181,346,50043,5,2,0:0:0:0:
217,323,50142,1,0,0:0:0:0:
259,316,50241,1,0,0:0:0:0:
300,329,50340,1,2,0:0:0:0:
339,345,50439,1,2,0:0:0:0:
382,345,50538,1,2,0:0:0:0:
420,326,50637,2,0,P|438:304|446:276,1,53.9999983520508,6|0,0:1|0:0,0:0:0:0:
503,229,50835,1,0,0:0:0:0:
503,229,50934,2,0,P|492:202|472:181,1,53.9999983520508,2|0,0:0|0:0,0:0:0:0:
460,109,51132,1,0,0:0:0:0:
460,109,51231,2,0,P|431:104|403:111,1,53.9999983520508,2|2,0:0|0:0,0:0:0:0:
334,86,51429,1,2,0:0:0:0:
334,86,51528,2,0,P|316:108|308:135,1,53.9999983520508,2|0,0:0|0:0,0:0:0:0:
251,183,51726,1,2,0:0:0:0:
251,183,51825,6,0,L|261:255,2,45.0000017166138,2|0|0,0:3|0:0|0:0,0:0:0:0:
234,52,52122,2,0,L|224:-20,2,45.0000017166138,2|0|0,0:0|0:0|0:0,0:0:0:0:
169,169,52419,6,0,L|139:235,2,38.9999982147218,2|0|0,0:3|0:0|0:0,0:0:0:0:
162,91,52716,2,0,L|119:32,2,38.9999982147218,2|0|0,0:0|0:0|0:0,0:0:0:0:
95,135,53013,6,0,L|48:140,5,33.0000010070801,2|0|2|0|2|0,0:3|0:0|0:0|0:0|0:0|0:0,0:0:0:0:
237,118,53607,2,0,L|269:114,5,33.0000010070801,2|0|2|2|0|2,0:0|0:0|0:0|0:0|0:0|0:0,0:0:0:0:
162,91,54201,6,0,L|157:44,4,26.9999991760254,6|0|2|2|0,0:1|0:0|0:0|0:0|0:0,0:0:0:0:
258,252,54696,5,2,0:0:0:0:
262,225,54795,2,0,L|267:178,4,26.9999991760254,2|2|2|2|0,0:0|0:0|0:0|0:0|0:0,0:0:0:0:
95,135,55290,5,2,0:0:0:0:
62,99,55389,2,0,L|57:52,4,26.9999991760254,6|2|2|2|0,0:1|0:0|0:0|0:0|0:0,0:0:0:0:
292,82,55884,5,2,0:0:0:0:
353,33,55983,2,0,L|358:-14,4,26.9999991760254,2|2|2|2|0,0:0|0:0|0:0|0:0|0:0,0:0:0:0:
455,271,56478,5,2,0:0:0:0:
397,325,56577,2,0,B|370:287|370:287|387:222|387:222|393:216|393:216|413:138,1,180.000006866455,6|0,0:1|0:0,0:0:0:0:
450,0,57072,5,2,0:0:0:0:
509,70,57171,2,0,P|456:91|361:15,1,165.000005035401,2|0,0:0|0:0,0:0:0:0:
256,192,57766,12,0,58879,0:0:0:0:
179,301,58954,5,6,3:2:0:0:
152,102,59102,1,2,3:2:0:0:
104,258,59251,6,0,B|88:268|88:268|-22:249,1,90,2|2,0:0|0:0,0:0:0:0:
240,239,59548,2,0,B|258:244|258:244|359:197,1,90,2|2,0:0|0:0,0:0:0:0:
150,86,59845,5,6,3:2:0:0:
177,285,59993,1,2,3:2:0:0:
225,129,60142,6,0,B|241:119|241:119|351:138,1,90,2|2,0:2|0:2,0:0:0:0:
89,148,60439,2,0,B|70:142|70:142|-30:189,1,90,2|2,0:2|0:2,0:0:0:0:
179,301,60736,6,0,L|187:358,1,53.9999983520508,6|0,3:2|0:0,0:0:0:0:
240,239,61181,6,0,B|322:226|322:226|365:249|365:249|462:236,1,215.999993408203,6|0,3:2|0:0,0:0:0:0:
402,80,61627,6,0,P|381:127|387:169,1,90,6|2,3:2|0:0,0:0:0:0:
512,295,61924,2,0,P|481:253|442:237,1,90,2|2,3:2|0:0,0:0:0:0:
270,282,62221,2,0,P|321:276|354:250,1,90,2|2,3:2|0:0,0:0:0:0:
303,113,62518,1,2,3:2:0:0:
178,202,62667,5,2,3:2:0:0:
166,219,62741,1,0,3:0:0:0:
154,238,62815,1,2,3:2:0:0:
142,255,62890,1,0,3:0:0:0:
132,274,62964,1,2,3:2:0:0:
121,291,63038,1,0,3:0:0:0:
135,307,63112,1,2,3:2:0:0:
150,322,63186,1,0,3:0:0:0:
165,338,63261,1,2,3:2:0:0:
179,353,63335,1,0,3:0:0:0:
194,368,63409,1,2,3:2:0:0:
351,253,63558,1,2,3:2:0:0:
204,76,63706,5,6,3:2:0:0:
230,282,63855,1,2,3:2:0:0:
311,112,64003,6,0,B|357:84|398:112,1,90,2|2,0:0|0:0,0:0:0:0:
112,141,64300,2,0,B|61:127|29:165,1,90,2|2,0:0|0:0,0:0:0:0:
240,384,64597,5,6,3:2:0:0:
214,178,64746,1,2,3:2:0:0:
133,348,64894,6,0,B|87:376|46:348,1,90,2|2,0:0|0:0,0:0:0:0:
332,319,65191,2,0,B|383:333|415:295,1,90,2|2,0:0|0:0,0:0:0:0:
211,154,65488,2,0,L|202:95,1,53.9999983520508,6|0,3:2|0:0,0:0:0:0:
148,218,65934,6,0,P|200:245|290:191,1,161.999995056153,6|0,3:2|0:0,0:0:0:0:
318,209,66231,2,0,P|336:173|337:150,1,53.9999983520508,2|0,3:2|0:0,0:0:0:0:
193,47,66379,6,0,B|212:165,1,107.999996704102,8|2,3:2|0:0,0:0:0:0:
236,281,66676,1,2,3:2:0:0:
236,281,66751,1,0,3:0:0:0:
236,281,66825,1,2,3:2:0:0:
124,140,66973,1,10,0:0:0:0:
0,262,67122,6,0,B|20:282|20:282|126:263|126:263|146:231,1,161.999995056153,2|2,3:2|0:0,0:0:0:0:
150,220,67419,1,2,3:2:0:0:
291,83,67568,2,0,B|300:133|300:133|304:135|304:135|313:188,1,107.999996704102,10|0,0:0|0:0,0:0:0:0:
343,324,67865,1,2,3:2:0:0:
343,324,67939,1,2,3:2:0:0:
343,324,68013,1,2,3:2:0:0:
428,258,68162,6,0,P|367:230|344:236,1,53.9999983520508,10|0,3:2|0:0,0:0:0:0:
267,251,68310,2,0,P|224:302|224:326,1,53.9999983520508,2|0,0:0|0:0,0:0:0:0:
160,350,68459,5,6,3:2:0:0:
150,220,68607,1,2,0:0:0:0:
162,371,68756,1,10,0:0:0:0:
68,296,68904,6,0,B|19:229|19:229|55:146,1,161.999995056153,6|0,3:2|0:0,0:0:0:0:
68,125,69201,1,10,3:2:0:0:
244,150,69350,5,6,3:2:0:0:
272,163,69424,1,0,3:0:0:0:
303,162,69498,1,2,3:2:0:0:
333,152,69572,1,0,3:0:0:0:
354,127,69647,2,0,P|360:104|354:69,1,53.9999983520508,10|0,3:2|0:0,0:0:0:0:
191,79,69795,6,0,B|154:123|154:123|164:189|164:189|169:194|169:194|184:282,1,215.999993408203,6|10,3:2|3:2,0:0:0:0:
321,340,70241,5,6,3:2:0:0:
186,293,70389,1,2,3:2:0:0:
79,384,70538,1,10,3:2:0:0:
273,253,70686,6,0,P|328:239|413:315,1,161.999995056153,6|0,3:2|0:0,0:0:0:0:
420,325,70983,1,10,3:2:0:0:
186,293,71132,5,6,3:2:0:0:
178,254,71206,1,0,3:0:0:0:
171,216,71280,1,2,3:2:0:0:
164,177,71355,1,0,3:0:0:0:
157,137,71429,2,0,L|145:79,1,53.9999983520508,10|0,3:2|0:0,0:0:0:0:
285,0,71577,6,8,B|322:23|322:23|343:146|343:146|314:183,1,202.500007724762,14|8,3:2|0:0,0:0:0:0:
306,192,71874,1,10,3:2:0:0:
337,330,72023,6,0,B|376:361|416:345|416:345|425:357|425:357|462:336|514:364,2,180.000006866455,6|2|2,3:2|3:2|3:2,0:0:0:0:
171,216,72617,2,0,B|129:238|92:217|92:217|83:229|83:229|42:217|4:244,2,180.000006866455,2|0|0,3:2|0:0|0:0,0:0:0:0:
346,69,73211,6,0,P|354:91|356:120,2,45.0000017166138,6|0|2,3:2|0:0|0:0,0:0:0:0:
426,156,73508,2,0,P|410:173|386:190,2,45.0000017166138,0|2|0,0:0|0:0|0:0,0:0:0:0:
248,110,73805,6,0,P|240:132|238:161,2,38.9999982147218,2|0|2,0:0|0:0|0:0,0:0:0:0:
168,197,74102,2,0,P|183:214|207:231,2,38.9999982147218,0|2|0,0:0|0:0|0:0,0:0:0:0:
390,264,74399,6,0,P|366:259|340:247,2,33.0000010070801,2|0|2,0:0|0:0|0:0,0:0:0:0:
290,291,74696,2,0,P|281:269|281:239,2,33.0000010070801,0|2|0,0:0|0:0|0:0,0:0:0:0:
178,352,74993,6,0,P|179:368|184:384,2,33.0000010070801,2|0|2,0:0|0:0|0:0,0:0:0:0:
256,361,75290,2,0,P|271:366|287:369,2,33.0000010070801,0|2|0,0:0|0:0|0:0,0:0:0:0:
192,258,75587,6,0,L|184:214,5,33.0000010070801,2|0|2|0|2|0,0:0|0:0|0:0|0:0|0:0|0:0,0:0:0:0:
118,273,76181,2,0,L|110:229,5,26.9999991760254,2|0|2|0|2|0,0:0|0:0|0:0|0:0|0:0|0:0,0:0:0:0:
5,356,76775,6,0,L|-1:380,5,20.9999993591309,2|2|2|2|2|2,0:0|0:0|0:0|0:0|0:0|0:0,0:0:0:0:
84,375,77369,2,0,P|89:348|87:333,1,33.0000010070801,2|2,0:0|0:0,0:0:0:0:
155,285,77568,2,0,P|129:265|114:260,1,45.0000017166138,2|2,0:0|0:0,0:0:0:0:
96,162,77766,2,0,P|61:175|47:188,1,56.9999984779358,2|2,0:0|0:0,0:0:0:0:
22,283,77964,5,6,0:1:0:0:
144,364,78409,5,2,0:0:0:0:
149,383,78558,1,2,0:0:0:0:
212,238,79152,5,2,0:0:0:0:
226,229,79251,1,0,0:0:0:0:
246,222,79350,1,0,0:0:0:0:
272,219,79449,1,2,0:0:0:0:
300,221,79548,1,2,0:0:0:0:
329,230,79647,1,2,0:0:0:0:
354,252,79746,2,0,P|368:282|371:330,1,60,2|0,0:0|0:0,0:0:0:0:
459,292,80043,5,0,0:0:0:0:
447,258,80142,1,2,0:0:0:0:
442,212,80241,1,2,0:0:0:0:
467,162,80340,1,2,0:0:0:0:
356,77,80785,5,2,0:0:0:0:
376,157,80934,1,2,0:0:0:0:
258,51,81528,5,2,0:0:0:0:
247,63,81627,1,2,0:0:0:0:
230,76,81726,1,2,0:0:0:0:
206,87,81825,1,0,0:0:0:0:
179,94,81924,1,2,0:0:0:0:
149,94,82023,1,2,0:0:0:0:
118,81,82122,2,0,P|92:55|80:3,1,90,2|0,0:0|0:0,0:0:0:0:
31,112,82518,5,2,0:0:0:0:
39,164,82617,1,2,0:0:0:0:
11,238,82716,6,0,P|53:244|82:230,2,45.0000017166138,2|0|0,0:0|0:0|0:0,0:0:0:0:
172,171,83013,2,0,P|145:204|143:236,2,45.0000017166138,2|0|0,0:0|0:0|0:0,0:0:0:0:
149,343,83310,5,2,0:0:0:0:
118,317,83508,5,2,0:0:0:0:
154,303,83706,5,2,0:0:0:0:
388,302,83904,6,0,P|346:296|317:310,2,45.0000017166138,2|0|0,0:0|0:0|0:0,0:0:0:0:
227,369,84201,2,0,P|253:335|255:303,2,45.0000017166138,2|0|0,0:0|0:0|0:0,0:0:0:0:
250,197,84498,5,2,0:0:0:0:
281,223,84696,5,2,0:0:0:0:
245,237,84894,5,2,0:0:0:0:
437,199,85092,5,2,0:0:0:0:
448,181,85191,1,2,0:0:0:0:
458,153,85290,1,2,0:0:0:0:
462,128,85389,1,2,0:0:0:0:
456,94,85488,1,0,0:0:0:0:
441,56,85587,2,0,L|360:69,1,45.0000017166138,2|2,0:0|0:0,0:0:0:0:
310,103,85785,5,2,0:0:0:0:
271,121,85884,1,2,0:0:0:0:
219,125,85983,1,2,0:0:0:0:
173,97,86082,1,0,0:0:0:0:
148,64,86181,1,2,0:0:0:0:
141,33,86280,6,0,P|116:18|82:15,2,45.0000017166138,2|2|2,0:0|0:0|0:0,0:0:0:0:
61,88,86577,2,0,P|35:102|15:130,2,45.0000017166138,2|2|0,0:0|0:0|0:0,0:0:0:0:
68,184,86874,2,0,P|67:224|87:267,1,67.5000025749208,2|2,0:0|0:0,0:0:0:0:
294,218,87171,2,0,P|294:177|274:134,1,67.5000025749208,2|2,0:0|0:0,0:0:0:0:
197,339,87468,5,2,0:0:0:0:
241,358,87568,1,0,0:0:0:0:
288,366,87667,1,0,0:0:0:0:
335,362,87766,1,2,0:0:0:0:
380,346,87865,1,2,0:0:0:0:
418,312,87964,2,0,L|407:255,1,45.0000017166138,2|2,0:0|0:0,0:0:0:0:
294,218,88162,5,0,0:0:0:0:
250,199,88262,1,2,0:0:0:0:
203,191,88361,1,2,0:0:0:0:
156,195,88460,1,2,0:0:0:0:
111,211,88559,1,2,0:0:0:0:
73,245,88657,2,0,L|86:316,1,45.0000017166138,2|0,0:0|0:0,0:0:0:0:
42,97,88954,5,2,0:0:0:0:
46,68,89053,2,0,L|55:2,1,45.0000017166138,0|2,0:0|0:0,0:0:0:0:
132,112,89251,5,2,0:0:0:0:
140,63,89350,2,0,L|149:-3,1,45.0000017166138,0|2,0:0|0:0,0:0:0:0:
222,127,89548,5,2,0:0:0:0:
234,47,89647,2,0,L|243:-19,1,45.0000017166138,0|2,0:0|0:0,0:0:0:0:
343,119,89845,6,0,P|396:139|464:103,1,135.000005149842,2|2,0:0|0:0,0:0:0:0:
462,105,90439,5,2,0:0:0:0:
414,215,90637,5,2,0:0:0:0:
343,119,90835,5,2,0:0:0:0:
359,284,91033,6,0,P|413:302|423:300,2,45.0000017166138,2|0|0,0:0|0:0|0:0,0:0:0:0:
279,299,91330,2,0,P|308:347|317:352,2,45.0000017166138,2|0|0,0:0|0:0|0:0,0:0:0:0:
193,204,91627,6,0,P|186:182|173:164,2,45.0000017166138,2|0|0,0:0|0:0|0:0,0:0:0:0:
113,218,91924,2,0,P|94:205|72:199,2,45.0000017166138,2|0|0,0:0|0:0|0:0,0:0:0:0:
26,366,92221,5,2,0:0:0:0:
18,345,92716,5,2,0:0:0:0:
26,366,92815,1,2,0:0:0:0:
113,218,93310,5,2,0:0:0:0:
85,289,93409,1,2,0:0:0:0:
19,129,93904,5,2,0:0:0:0:
33,167,94003,1,2,0:0:0:0:
193,61,94498,5,2,0:0:0:0:
215,136,94597,2,0,B|235:170|235:170|381:153,1,180.000006866455,2|0,0:0|0:0,0:0:0:0:
505,135,95092,5,2,0:0:0:0:
455,199,95191,2,0,B|419:236|419:236|317:251|317:251|310:249|310:249|222:259|222:259|171:231,1,300,2|0,0:0|0:0,0:0:0:0:
111,186,95785,6,0,P|100:210|100:249,3,45,6|0|2|0,1:3|0:0|0:0|0:0,0:0:0:0:
5,278,96094,2,0,P|25:286|47:290,3,45,2|0|2|2,0:0|0:0|0:0|0:0,0:0:0:0:
98,384,96403,2,0,P|106:362|110:340,3,45,2|2|2|2,0:0|0:0|0:0|0:0,0:0:0:0:
203,291,96712,2,0,P|182:281|160:277,3,45,2|2|2|2,0:0|0:0|0:0|0:0,0:0:0:0:
111,186,97022,5,6,1:2:0:0:
341,378,97313,5,2,0:0:0:0:
353,289,97604,5,2,0:0:0:0:
370,174,97895,5,2,0:0:0:0:
384,30,98187,5,8,3:0:0:0:
368,31,98259,1,8,3:0:0:0:
353,34,98332,1,8,3:0:0:0:
338,37,98405,1,8,3:0:0:0:
306,69,98478,5,8,3:0:0:0:
291,67,98551,1,8,3:0:0:0:
275,64,98624,1,8,3:0:0:0:
260,62,98696,1,8,3:0:0:0:
216,27,98769,5,8,3:0:0:0:
230,53,98842,1,8,3:0:0:0:
234,81,98915,1,8,3:0:0:0:
227,111,98988,1,8,3:0:0:0:
249,145,99060,5,8,3:0:0:0:
233,170,99133,1,8,3:0:0:0:
210,188,99206,1,8,3:0:0:0:
182,196,99279,1,8,3:0:0:0:
133,192,99352,6,0,B|167:236|167:236|142:355|142:355|80:387,1,233.999989288331,4|0,3:1|3:0,0:0:0:0:
62,275,99782,1,8,0:1:0:0:
249,299,99926,2,0,B|308:307|308:307|315:303|315:303|390:313,1,116.999994644165,2|8,3:2|0:1,0:0:0:0:
156,107,100213,2,0,B|97:115|97:115|90:111|90:111|15:121,1,116.999994644165,0|8,3:0|0:1,0:0:0:0:
156,289,100500,5,0,3:0:0:0:
247,181,100643,1,8,0:1:0:0:
271,165,100715,1,0,0:0:0:0:
298,160,100787,1,2,3:2:0:0:
326,161,100859,1,0,0:0:0:0:
349,174,100930,1,8,0:1:0:0:
366,197,101002,1,0,0:0:0:0:
373,223,101074,1,2,3:2:0:0:
268,70,101218,5,8,0:1:0:0:
252,41,101290,1,0,0:0:0:0:
229,21,101362,1,2,3:2:0:0:
202,7,101434,1,0,0:0:0:0:
173,7,101505,1,8,0:1:0:0:
146,19,101577,1,0,0:0:0:0:
125,37,101648,6,0,B|96:88|95:88|95:88|106:145|106:145|123:174|123:174|141:262,1,233.999989288331,4|0,3:1|3:0,0:0:0:0:
163,384,102079,1,8,0:1:0:0:
13,372,102222,2,0,P|39:294|78:276,1,116.999994644165,2|8,3:2|0:1,0:0:0:0:
217,248,102509,2,0,P|271:266|299:316,1,116.999994644165,0|8,3:0|0:1,0:0:0:0:
158,363,102796,5,2,3:2:0:0:
132,227,102940,1,8,0:1:0:0:
127,203,103012,1,2,0:0:0:0:
122,179,103084,1,2,3:2:0:0:
117,156,103155,1,2,3:2:0:0:
112,132,103227,1,8,0:1:0:0:
107,108,103299,1,0,0:0:0:0:
102,85,103371,1,2,3:2:0:0:
271,0,103514,5,8,0:1:0:0:
264,29,103586,1,0,0:0:0:0:
258,61,103658,1,2,3:2:0:0:
251,92,103730,1,2,3:3:0:0:
245,122,103801,1,10,3:1:0:0:
238,153,103873,1,2,3:3:0:0:
232,184,103945,6,0,P|272:165|317:165,1,58.4999973220826,6|0,3:1|0:0,0:0:0:0:
350,114,104088,1,8,0:1:0:0:
350,114,104160,1,0,0:0:0:0:
350,114,104232,2,0,P|386:139|408:178,1,58.4999973220826,2|0,3:0|3:0,0:0:0:0:
480,139,104375,1,8,0:1:0:0:
480,139,104447,1,0,0:0:0:0:
480,139,104519,2,0,B|490:188|447:220|447:220|457:230|457:230|422:266|434:329,2,202.500007724762,2|2|8,3:0|3:0|3:1,0:0:0:0:
315,190,105093,6,0,P|271:179|227:189,1,58.4999973220826,6|0,3:1|0:0,0:0:0:0:
185,146,105236,1,8,0:1:0:0:
185,146,105308,1,0,0:0:0:0:
185,146,105380,2,0,P|154:177|141:220,1,58.4999973220826,2|0,3:0|3:0,0:0:0:0:
64,197,105523,1,8,0:1:0:0:
64,197,105595,1,0,0:0:0:0:
64,197,105667,2,0,B|64:247|113:269|113:269|105:281|105:281|147:309|148:373,2,202.500007724762,2|2|8,3:0|3:0|3:1,0:0:0:0:
133,74,106241,6,0,P|177:54|255:93,1,135.000005149842,6|8,3:1|0:1,0:0:0:0:
315,190,106529,1,2,3:2:0:0:
315,190,106600,1,0,3:0:0:0:
315,190,106672,1,8,3:1:0:0:
223,268,106816,6,0,P|179:288|101:249,1,135.000005149842,2|8,3:3|0:1,0:0:0:0:
58,158,107104,1,0,3:0:0:0:
58,158,107175,1,0,3:0:0:0:
58,158,107247,1,8,0:1:0:0:
133,74,107390,5,2,3:3:0:0:
133,74,107462,1,0,0:0:0:0:
133,74,107533,2,0,P|172:64|217:83,1,67.5000025749208,8|0,0:1|0:0,0:0:0:0:
239,3,107677,1,2,3:3:0:0:
239,3,107749,1,0,0:0:0:0:
239,3,107820,2,0,P|265:32|272:80,1,67.5000025749208,8|0,0:1|0:0,0:0:0:0:
353,61,107964,2,0,P|340:99|301:128,1,67.5000025749208,2|0,3:0|0:0,0:0:0:0:
358,188,108107,2,0,P|318:197|273:178,1,67.5000025749208,10|0,0:1|0:0,0:0:0:0:
251,255,108251,2,0,P|222:225|216:176,1,67.5000025749208,2|0,3:0|3:0,0:0:0:0:
139,197,108395,2,0,P|150:157|188:128,1,67.5000025749208,10|0,3:1|3:0,0:0:0:0:
245,129,108538,5,6,3:1:0:0:
160,279,108682,1,8,0:1:0:0:
8,260,108825,1,0,3:0:0:0:
8,260,108897,1,0,3:0:0:0:
8,260,108969,1,8,0:1:0:0:
47,119,109112,6,0,L|29:19,2,60,2|2|8,3:3|0:3|0:1,0:0:0:0:
139,197,109399,2,0,L|121:297,2,60,2|2|8,3:3|0:3|0:1,0:0:0:0:
260,118,109686,6,0,B|326:71|326:71|421:96,1,161.999995056153,4|0,3:3|0:0,0:0:0:0:
349,176,109974,1,2,3:3:0:0:
349,176,110045,1,0,3:0:0:0:
349,176,110117,2,0,L|363:256,1,53.9999983520508,8|0,0:1|0:0,0:0:0:0:
291,351,110261,1,2,3:0:0:0:
291,351,110332,1,0,0:0:0:0:
291,351,110404,2,0,L|332:316,1,53.9999983520508,8|0,0:1|0:0,0:0:0:0:
472,313,110548,1,2,3:0:0:0:
472,313,110619,1,0,3:0:0:0:
472,313,110691,2,0,L|421:294,1,53.9999983520508,8|2,0:1|0:0,0:0:0:0:
221,224,110835,6,0,B|168:199|168:199|120:294|190:350,1,215.999993408203,6|2,3:1|3:0,0:0:0:0:
199,358,111194,1,0,0:0:0:0:
199,358,111265,1,8,0:1:0:0:
93,156,111409,6,0,P|157:111|231:135,2,161.999995056153,2|2|10,3:0|0:3|0:1,0:0:0:0:
12,176,111983,1,2,3:0:0:0:
12,176,112055,1,0,0:0:0:0:
12,176,112127,2,0,P|29:212|67:238,1,53.9999983520508,8|0,0:1|0:0,0:0:0:0:
76,301,112271,1,2,3:0:0:0:
76,301,112342,1,0,3:0:0:0:
76,301,112414,2,0,P|115:304|157:284,1,53.9999983520508,8|0,0:1|0:0,0:0:0:0:
216,308,112558,1,2,3:0:0:0:
216,308,112629,1,0,0:0:0:0:
216,308,112701,2,0,P|238:274|242:228,1,53.9999983520508,8|0,0:1|0:0,0:0:0:0:
292,190,112845,1,2,3:0:0:0:
292,190,112916,1,0,3:0:0:0:
292,190,112988,2,0,P|274:153|236:127,1,53.9999983520508,8|0,0:1|0:0,0:0:0:0:
143,123,113131,6,0,B|150:180|150:180|146:187|146:187|156:259,1,107.999996704102,6|8,3:1|0:1,0:0:0:0:
170,376,113418,1,0,3:0:0:0:
170,376,113490,1,0,3:0:0:0:
170,376,113562,1,10,0:1:0:0:
63,239,113706,6,0,B|56:182|56:182|60:175|60:175|50:103,1,107.999996704102,2|8,3:0|0:1,0:0:0:0:
40,0,113993,1,0,3:0:0:0:
40,0,114065,1,0,3:0:0:0:
40,0,114137,1,10,0:1:0:0:
143,123,114280,6,0,P|194:134|242:110,1,107.999996704102,6|8,3:1|0:1,0:0:0:0:
336,0,114567,1,0,3:0:0:0:
336,0,114639,1,0,3:0:0:0:
336,0,114710,1,10,0:1:0:0:
380,167,114854,1,2,3:0:0:0:
467,105,114997,5,8,0:1:0:0:
481,133,115069,1,0,3:0:0:0:
486,165,115140,1,0,3:0:0:0:
481,197,115212,1,0,3:0:0:0:
467,226,115284,1,10,0:1:0:0:
444,249,115357,1,0,3:0:0:0:
405,265,115428,6,0,P|337:260|276:156,1,180,4|8,3:2|0:1,0:0:0:0:
39,357,115864,2,0,P|105:373|195:293,1,180,6|8,3:0|0:1,0:0:0:0:
68,159,116301,5,0,3:0:0:0:
74,184,116374,1,0,3:0:0:0:
81,210,116447,1,0,3:0:0:0:
88,236,116520,1,0,3:0:0:0:
95,262,116593,5,6,3:1:0:0:
250,113,116787,5,2,0:3:0:0:
301,322,116981,5,2,0:3:0:0:
155,169,117175,5,2,0:3:0:0:
299,211,117369,5,2,0:3:0:0:
190,315,117563,5,2,0:3:0:0:
373,274,117758,6,0,P|403:210|381:153,1,135,6|0,3:2|0:0,0:0:0:0:
414,78,118045,2,0,P|369:72|318:104,1,90,2|2,3:2|0:0,0:0:0:0:
299,211,118332,5,2,3:2:0:0:
251,69,118475,1,2,0:0:0:0:
306,228,118619,1,2,3:2:0:0:
164,202,118762,2,0,L|120:193,1,45,2|0,0:0|0:0,0:0:0:0:
80,120,118906,6,0,B|48:146|48:146|27:258,1,107.999996704102,2|2,3:2|0:0,0:0:0:0:
50,365,119193,2,0,B|81:338|81:338|102:226,1,107.999996704102,2|2,3:2|0:0,0:0:0:0:
170,116,119480,5,2,3:2:0:0:
206,282,119624,1,2,0:0:0:0:
166,97,119767,1,2,3:2:0:0:
306,228,119911,2,0,L|359:217,1,53.9999983520508,2|0,0:0|0:0,0:0:0:0:
447,154,120054,6,0,P|470:201|457:253,1,107.999996704102,2|2,3:2|0:0,0:0:0:0:
205,282,120341,2,0,P|182:234|195:183,1,107.999996704102,2|2,3:2|0:2,0:0:0:0:
296,13,120628,5,2,3:2:0:0:
310,142,120772,1,2,0:2:0:0:
211,88,120915,5,2,3:2:0:0:
395,67,121059,1,2,0:0:0:0:
223,101,121202,5,2,3:2:0:0:
383,54,121346,1,2,0:2:0:0:
236,111,121490,5,2,3:2:0:0:
370,44,121634,1,2,0:2:0:0:
310,142,121777,6,0,P|316:187|337:208,1,53.9999983520508,2|0,3:2|0:0,0:0:0:0:
275,256,121920,2,0,P|318:273|346:265,1,53.9999983520508,2|0,0:2|0:0,0:0:0:0:
512,195,122064,6,0,P|497:217|475:231,1,53.9999983520508,2|0,3:2|0:0,0:0:0:0:
479,309,122207,2,0,P|452:307|428:294,1,53.9999983520508,2|0,0:2|0:0,0:0:0:0:
410,159,122351,6,0,L|397:211,1,53.9999983520508,6|0,3:1|0:0,0:0:0:0:
362,342,122494,1,2,0:2:0:0:
362,342,122638,1,2,3:2:0:0:
310,142,122781,6,0,L|297:194,1,53.9999983520508,2|0,0:2|0:0,0:0:0:0:
269,298,122925,1,2,3:2:0:0:
269,298,123069,1,2,0:2:0:0:
213,120,123212,6,0,L|200:172,1,53.9999983520508,2|0,3:2|0:0,0:0:0:0:
176,254,123356,1,2,0:2:0:0:
176,254,123499,1,2,3:2:0:0:
114,95,123643,6,0,L|101:147,1,53.9999983520508,2|0,0:2|0:0,0:0:0:0:
83,219,123786,1,2,3:2:0:0:
83,219,123930,1,2,0:2:0:0:
202,334,124073,6,0,P|165:339|126:322,1,53.9999983520508,2|0,3:2|0:0,0:0:0:0:
81,367,124217,2,0,P|59:337|54:295,1,53.9999983520508,2|0,0:2|0:0,0:0:0:0:
9,261,124360,1,2,3:2:0:0:
1,240,124432,1,0,0:2:0:0:
0,217,124504,1,2,0:2:0:0:
3,194,124576,1,0,0:2:0:0:
10,172,124647,6,0,P|36:144|78:133,3,53.9999983520508,2|0|2|0,3:2|0:2|0:2|0:2,0:0:0:0:
214,84,124935,2,0,P|175:85|140:111,3,53.9999983520508,2|0|2|0,3:2|0:2|0:2|0:2,0:0:0:0:
62,10,125222,6,0,L|92:89,3,53.9999983520508,2|2|2|2,3:2|0:2|0:2|0:2,0:0:0:0:
144,225,125509,2,0,L|113:145,3,53.9999983520508,2|2|2|2,3:2|0:2|0:2|0:2,0:0:0:0:
214,84,125796,1,2,3:2:0:0:
338,186,125939,6,0,L|331:241,1,53.9999983520508,0|0,3:2|3:2,0:0:0:0:
323,323,126083,1,10,0:2:0:0:
424,174,126226,6,0,L|417:229,1,53.9999983520508,2|0,3:2|3:2,0:0:0:0:
402,352,126370,1,10,3:2:0:0:
510,162,126513,6,0,L|503:217,1,53.9999983520508,2|0,3:2|3:2,0:0:0:0:
481,381,126657,2,0,L|486:338,2,33.7500012874604,8|0|8,3:3|0:0|3:3,0:0:0:0:
338,186,126944,5,12,3:0:0:0:
338,186,127016,1,0,0:0:0:0:
338,186,127088,2,0,P|288:203|282:209,2,53.9999983520508,2|0|8,0:2|0:0|3:2,0:0:0:0:
214,180,127303,2,0,P|214:232|218:240,2,53.9999983520508,2|0|0,0:2|0:0|0:0,0:0:0:0:
169,297,127518,2,0,P|219:312|227:311,2,53.9999983520508,2|0|0,3:2|0:0|0:0,0:0:0:0:
266,375,127734,2,0,P|296:331|297:323,2,53.9999983520508,2|8|0,0:2|3:2|0:0,0:0:0:0:
370,306,127949,2,0,P|338:263|330:259,1,53.9999983520508,2|0,0:2|0:3,0:0:0:0:
332,182,128092,6,0,L|349:88,1,53.9999983520508,2|0,3:2|0:0,0:0:0:0:
343,51,128236,2,0,P|393:68|399:74,2,53.9999983520508,2|0|8,0:2|0:0|3:2,0:0:0:0:
467,45,128451,2,0,P|466:97|462:105,2,53.9999983520508,2|0|0,0:2|0:0|0:0,0:0:0:0:
512,162,128666,2,0,P|461:177|453:176,2,53.9999983520508,2|0|0,3:2|0:0|0:0,0:0:0:0:
415,240,128882,2,0,P|384:196|383:188,2,53.9999983520508,2|8|0,0:2|3:2|0:0,0:0:0:0:
311,171,129097,2,0,P|342:128|350:124,1,53.9999983520508,2|0,0:2|0:3,0:0:0:0:
124,326,129384,6,0,L|133:391,2,40.4999987640381,2|0|8,0:2|0:0|0:2,0:0:0:0:
53,288,129600,2,0,L|-6:316,2,40.4999987640381,2|0|0,0:2|0:0|0:0,0:0:0:0:
67,208,129815,2,0,L|21:160,2,40.4999987640381,2|0|0,3:2|0:0|0:0,0:0:0:0:
146,197,130030,2,0,L|176:139,2,40.4999987640381,2|8|0,0:2|0:0|0:0,0:0:0:0:
182,269,130245,2,0,L|246:280,1,40.4999987640381,2|0,0:2|0:0,0:0:0:0:
283,333,130389,6,0,L|290:379,1,31.4999990386963,2|0,3:2|0:0,0:0:0:0:
359,322,130533,2,0,L|366:368,2,31.4999990386963,2|0|8,0:2|0:0|3:2,0:0:0:0:
435,311,130748,2,0,L|442:357,2,31.4999990386963,2|0|0,0:2|0:0|0:0,0:0:0:0:
494,236,130963,2,0,L|498:204,2,31.4999990386963,2|0|0,3:2|0:0|0:0,0:0:0:0:
418,225,131178,2,0,L|422:193,2,31.4999990386963,2|8|0,0:2|3:2|0:0,0:0:0:0:
342,214,131394,2,0,L|349:168,1,31.4999990386963,2|0,0:2|0:0,0:0:0:0:
349,104,131537,6,0,P|324:106|298:120,1,40.4999987640381,2|0,3:2|0:0,0:0:0:0:
244,70,131681,2,0,P|233:92|232:122,2,40.4999987640381,2|0|8,0:2|0:0|3:2,0:0:0:0:
162,143,131896,2,0,P|176:163|201:179,2,40.4999987640381,2|0|0,0:2|0:0|0:0,0:0:0:0:
184,250,132112,2,0,P|209:248|235:234,2,40.4999987640381,2|0|2,3:2|0:0|0:0,0:0:0:0:
288,289,132327,5,0,0:0:0:0:
292,307,132399,1,10,3:2:0:0:
296,325,132470,1,0,0:0:0:0:
300,344,132542,1,2,0:2:0:0:
304,362,132614,1,0,0:0:0:0:
308,380,132686,1,2,3:2:0:0:
184,250,132829,6,0,P|163:237|138:232,2,49.5000015106202,2|0|10,0:0|0:0|3:2,0:0:0:0:
363,208,133045,2,0,P|376:187|396:172,2,49.5000015106202,0|2|0,0:0|0:0|0:0,0:0:0:0:
288,289,133260,2,0,L|269:194,1,49.5000015106202,2|0,3:2|0:0,0:0:0:0:
353,103,133403,5,10,3:2:0:0:
316,85,133475,1,0,3:0:0:0:
278,73,133547,1,8,3:0:0:0:
239,76,133619,1,8,3:0:0:0:
202,92,133691,1,8,3:0:0:0:
172,117,133762,1,8,3:0:0:0:
150,147,133834,2,0,L|134:83,1,58.4999973220826,10|0,3:2|0:0,0:0:0:0:
66,210,133978,5,2,3:2:0:0:
94,240,134049,1,2,3:2:0:0:
138,254,134121,1,2,3:2:0:0:
184,250,134193,1,2,3:2:0:0:
221,221,134265,2,0,L|237:285,1,58.4999973220826,10|0,3:2|0:0,0:0:0:0:
313,179,134408,5,2,3:2:0:0:
349,161,134479,1,2,3:2:0:0:
395,163,134551,1,2,3:2:0:0:
437,183,134623,1,2,3:2:0:0:
461,224,134695,2,0,L|445:312,1,58.4999973220826,10|0,3:2|0:0,0:0:0:0:
486,119,134839,2,0,L|502:31,1,58.4999973220826,0|0,3:0|3:0,0:0:0:0:
369,253,134982,5,10,3:2:0:0:
346,273,135079,5,2,3:2:0:0:
321,286,135177,5,2,3:2:0:0:
221,221,135274,5,10,3:2:0:0:
187,198,135372,5,2,3:2:0:0:
144,187,135469,5,2,3:2:0:0:
38,207,135567,5,10,3:2:0:0:
35,153,135664,5,2,3:2:0:0:
11,106,135762,5,2,3:2:0:0:
98,42,135860,5,10,3:2:0:0:
168,73,135957,5,2,3:2:0:0:
240,57,136055,5,2,3:2:0:0:
295,2,136152,5,6,3:2:0:0:
393,68,137323,6,0,L|406:13,2,45.0000017166138,10|0|0,0:3|0:0|0:0,0:0:0:0:
440,144,137616,2,0,L|494:157,2,45.0000017166138,2|0|0,0:0|0:0|0:0,0:0:0:0:
364,192,137908,2,0,L|349:246,2,45.0000017166138,2|0|2,0:0|0:0|0:0,0:0:0:0:
316,115,138201,2,0,L|261:100,2,45.0000017166138,0|2|2,0:0|0:0|0:0,0:0:0:0:
393,68,138494,6,0,L|406:13,1,54,6|8,3:2|0:0,0:0:0:0:
