osu file format v14

[General]
AudioFilename: audio.mp3
AudioLeadIn: 0
PreviewTime: 82439
Countdown: 0
SampleSet: Normal
StackLeniency: 0.2
Mode: 0
LetterboxInBreaks: 0
WidescreenStoryboard: 0

[Editor]
Bookmarks: 65530,82985,91712,109166
DistanceSpacing: 1
BeatDivisor: 4
GridSize: 4
TimelineZoom: 4.399998

[Metadata]
Title:Preserved Valkyria
TitleUnicode:Preserved Valkyria
Artist:penoreri
ArtistUnicode:penoreri
Creator:san undertal
Version:Superstitious Liberation
Source:SOUND VOLTEX III GRAVITY WARS
Tags:sdvx 3 kac konami ortlinde nblg valkyria nemsys benami
BeatmapID:1803508
BeatmapSetID:862184

[Difficulty]
HPDrainRate:5.8
CircleSize:4.2
OverallDifficulty:9.3
ApproachRate:10
SliderMultiplier:2
SliderTickRate:1

[Events]
//Background and Video events
0,0,"top diff.jpg",0,0
//Break Periods
//Storyboard Layer 0 (Background)
//Storyboard Layer 1 (Fail)
//Storyboard Layer 2 (Pass)
//Storyboard Layer 3 (Foreground)
//Storyboard Sound Samples

[TimingPoints]
1374,387.096774193548,4,1,34,100,1,0
1761,-100,4,1,18,100,0,0
2051,-100,4,1,18,5,0,0
2148,-100,4,1,17,100,0,0
2438,-100,4,1,15,100,0,0
3019,-100,4,1,15,5,0,0
3115,-100,4,1,16,100,0,0
3503,-100,4,1,12,100,0,0
3696,-100,4,1,13,100,0,0
3986,-100,4,1,15,100,0,0
4277,-100,4,1,11,100,0,0
4664,-100,4,1,9,100,0,0
4761,-100,4,1,9,100,0,0
4857,-100,4,1,10,100,0,0
4954,-100,4,1,13,100,0,0
5051,-100,4,1,12,100,0,0
5341,-100,4,1,12,5,0,0
5438,-100,4,1,5,100,0,0
5632,-100,4,1,15,100,0,0
5825,-100,4,1,11,100,0,0
6019,-100,4,1,11,50,0,0
6115,-100,4,1,2,100,0,0
6212,-100,4,1,5,100,0,0
6309,-100,4,1,6,100,0,0
6406,-100,4,1,30,100,0,0
6503,-100,4,1,8,100,0,0
6599,-100,4,1,9,100,0,0
6696,-100,4,1,10,100,0,0
6793,-100,4,1,11,100,0,0
7083,-100,4,1,11,5,0,0
7180,-200,4,1,10,100,0,0
7470,-200,4,1,10,5,0,0
7567,-100,4,1,9,100,0,0
7761,-100,4,1,6,100,0,0
7954,-100,4,1,10,100,0,0
8148,-100,4,1,6,100,0,0
8244,-100,4,1,10,100,0,0
8341,-100,4,1,11,100,0,0
8438,-100,4,1,4,100,0,0
8535,-90.9090909090909,4,1,6,100,0,0
8632,-90.9090909090909,4,1,11,100,0,0
8728,-90.9090909090909,4,1,12,100,0,0
8825,-90.9090909090909,4,1,6,100,0,0
8922,-83.3333333333333,4,1,9,100,0,0
9019,-83.3333333333333,4,1,12,100,0,0
9115,-83.3333333333333,4,1,13,100,0,0
9212,-83.3333333333333,4,1,6,100,0,0
9309,-76.9230769230769,4,1,9,100,0,0
9406,-76.9230769230769,4,1,13,100,0,0
9503,-76.9230769230769,4,1,15,100,0,0
9599,-76.9230769230769,4,1,8,100,0,0
9696,-71.4285714285714,4,1,9,100,0,0
9793,-71.4285714285714,4,1,15,100,0,0
9890,-71.4285714285714,4,1,16,100,0,0
9986,-71.4285714285714,4,1,9,100,0,0
10083,-68.9655172413793,4,1,17,100,0,0
10180,-68.9655172413793,4,1,10,100,0,0
10277,-66.6666666666667,4,1,18,100,0,0
10373,-66.6666666666667,4,1,11,100,0,0
10470,-64.5161290322581,4,1,19,100,0,0
10567,-64.5161290322581,4,1,12,100,0,0
10664,-200,4,1,20,100,0,0
10793,-200,4,1,19,100,0,0
10922,-200,4,1,22,100,0,0
11051,-200,4,1,18,100,0,0
11180,-200,4,1,17,100,0,0
11309,-200,4,1,20,100,0,0
11438,-200,4,1,16,100,0,0
11567,-200,4,1,15,100,0,0
11696,-200,4,1,18,100,0,0
11825,-200,4,1,13,100,0,0
11954,-200,4,1,12,100,0,0
12083,-200,4,1,16,100,0,0
12212,-200,4,1,12,100,0,0
12406,-100,4,1,5,100,0,0
12503,-100,4,1,6,100,0,0
12599,-100,4,1,30,100,0,0
12696,-100,4,1,8,100,0,0
12793,-100,4,1,9,100,0,0
12890,-100,4,1,12,100,0,0
12986,-100,4,1,11,100,0,0
13180,-100,4,1,11,5,0,0
13373,-151.515151515152,4,1,10,100,0,0
13567,-151.515151515152,4,1,10,5,0,0
13761,-83.3333333333333,4,1,9,100,0,0
13857,-83.3333333333333,4,1,30,100,0,0
13954,-83.3333333333333,4,1,11,100,0,0
14051,-83.3333333333333,4,1,30,100,0,0
14148,-83.3333333333333,4,1,10,100,0,0
14244,-83.3333333333333,4,1,30,100,0,0
14341,-83.3333333333333,4,1,8,100,0,0
14438,-83.3333333333333,4,1,30,100,0,0
14535,-83.3333333333333,4,1,9,100,0,0
14728,-83.3333333333333,4,1,9,100,0,0
14825,-83.3333333333333,4,1,10,100,0,0
14922,-83.3333333333333,4,1,11,100,0,0
15019,-83.3333333333333,4,1,9,100,0,0
15115,-83.3333333333333,4,1,11,100,0,0
15212,-83.3333333333333,4,1,13,100,0,0
15309,-83.3333333333333,4,1,12,100,0,0
15406,-83.3333333333333,4,1,11,100,0,0
15503,-83.3333333333333,4,1,10,100,0,0
15599,-83.3333333333333,4,1,11,100,0,0
15696,-83.3333333333333,4,1,10,100,0,0
15793,-83.3333333333333,4,1,8,100,0,0
15890,-83.3333333333333,4,1,5,100,0,0
15986,-83.3333333333333,4,1,4,100,0,0
16083,-83.3333333333333,4,1,3,100,0,0
16180,-83.3333333333333,4,1,4,100,0,0
16277,-83.3333333333333,4,1,6,100,0,0
16373,-83.3333333333333,4,1,9,100,0,0
16470,-83.3333333333333,4,1,10,100,0,0
16567,-83.3333333333333,4,1,11,100,0,0
16664,-83.3333333333333,4,1,13,100,0,0
16761,-83.3333333333333,4,1,15,100,0,0
16857,-83.3333333333333,4,1,17,100,0,0
17051,-83.3333333333333,4,1,11,100,0,0
17148,-83.3333333333333,4,1,18,100,0,0
17244,-83.3333333333333,4,1,17,100,0,0
17341,-83.3333333333333,4,1,15,100,0,0
17438,-83.3333333333333,4,1,12,100,0,0
17535,-83.3333333333333,4,1,20,100,0,0
17632,-83.3333333333333,4,1,19,100,0,0
17728,-83.3333333333333,4,1,18,100,0,0
17825,-83.3333333333333,4,1,17,100,0,0
17922,-83.3333333333333,4,1,15,100,0,0
18019,-83.3333333333333,4,1,12,100,0,0
18115,-83.3333333333333,4,1,11,100,0,0
18212,-83.3333333333333,4,1,10,100,0,0
18309,-83.3333333333333,4,1,8,100,0,0
18406,-83.3333333333333,4,1,6,100,0,0
18503,-83.3333333333333,4,1,9,100,0,0
18599,-83.3333333333333,4,1,10,100,0,0
18696,-83.3333333333333,4,1,11,100,0,0
18793,-83.3333333333333,4,1,13,100,0,0
18890,-83.3333333333333,4,1,15,100,0,0
18986,-83.3333333333333,4,1,16,100,0,0
19083,-83.3333333333333,4,1,17,100,0,0
19180,-83.3333333333333,4,1,18,100,0,0
19277,-83.3333333333333,4,1,11,100,0,0
19373,-71.4285714285714,4,1,19,100,0,0
19470,-71.4285714285714,4,1,12,100,0,0
19567,-62.5,4,1,20,100,0,0
19664,-62.5,4,1,13,100,0,0
19761,-55.5555555555556,4,1,22,100,0,0
19857,-55.5555555555556,4,1,15,100,0,0
19954,-55.5555555555556,4,1,23,100,0,0
20019,-55.5555555555556,4,1,20,100,0,0
20083,-55.5555555555556,4,1,18,100,0,0
20148,-55.5555555555556,4,1,17,100,0,0
20212,-55.5555555555556,4,1,16,100,0,0
20277,-55.5555555555556,4,1,13,100,0,0
20341,-55.5555555555556,4,1,11,100,0,0
20406,-55.5555555555556,4,1,10,100,0,0
20470,-55.5555555555556,4,1,9,100,0,0
20535,-55.5555555555556,4,1,6,100,0,0
20599,-55.5555555555556,4,1,4,100,0,0
20664,-55.5555555555556,4,1,3,100,0,0
20728,-55.5555555555556,4,1,2,100,0,0
20825,-55.5555555555556,4,1,2,30,0,0
20922,-55.5555555555556,4,1,20,100,0,0
21019,-55.5555555555556,4,1,20,30,0,0
21115,-55.5555555555556,4,1,19,100,0,0
21212,-55.5555555555556,4,1,19,30,0,0
21309,-55.5555555555556,4,1,20,100,0,0
21406,-55.5555555555556,4,1,20,50,0,0
21503,-55.5555555555556,4,1,19,100,0,0
21599,-55.5555555555556,4,1,19,60,0,0
21890,-55.5555555555556,4,1,18,100,0,0
21986,-55.5555555555556,4,1,18,60,0,0
22277,-55.5555555555556,4,1,17,100,0,0
22373,-55.5555555555556,4,1,17,60,0,0
22470,-55.5555555555556,4,1,17,100,0,0
22664,-55.5555555555556,4,1,15,100,0,0
22954,-55.5555555555556,4,1,15,5,0,0
23051,-55.5555555555556,4,1,9,100,0,0
24309,-55.5555555555556,4,1,12,100,0,0
25083,-55.5555555555556,4,1,13,100,0,0
25857,-55.5555555555556,4,1,15,100,0,0
26148,-55.5555555555556,4,1,16,100,0,0
26632,-55.5555555555556,4,1,19,100,0,0
26922,-55.5555555555556,4,1,20,100,0,0
27406,-55.5555555555556,4,1,22,100,0,0
27696,-55.5555555555556,4,1,23,100,0,0
28180,-55.5555555555556,4,1,26,100,0,0
28599,-55.5555555555556,4,1,27,100,0,0
32244,-55.5555555555556,4,1,27,5,0,0
32341,-133.333333333333,4,1,0,30,0,0
33115,-58.8235294117647,4,1,35,100,0,0
33793,-58.8235294117647,4,1,35,5,0,0
33890,-76.9230769230769,4,1,36,100,0,0
35341,-76.9230769230769,4,1,36,5,0,0
35438,-100,4,1,37,100,0,0
38051,-100,4,1,37,5,0,0
38148,-100,4,1,37,100,0,0
39309,-76.9230769230769,4,1,35,100,0,0
39599,-76.9230769230769,4,1,35,5,0,0
39696,-500,4,1,1,100,0,0
39986,-500,4,1,1,5,0,0
40083,-66.6666666666667,4,1,36,100,0,0
40373,-66.6666666666667,4,1,36,5,0,0
40470,-666.666666666667,4,1,1,100,0,0
40761,-666.666666666667,4,1,1,5,0,0
40857,-200,4,1,1,100,0,0
41632,-100,4,1,38,100,0,0
42987,-66.6666666666667,4,1,1,100,0,0
43180,-83.3333333333333,4,1,1,100,0,0
43470,-100,4,1,1,100,0,0
43761,-117.647058823529,4,1,1,100,0,0
44341,-500,4,1,1,100,0,0
44470,-500,4,1,1,80,0,0
44599,-500,4,1,1,60,0,0
45503,-500,4,1,23,50,0,0
45696,-500,4,1,24,50,0,0
45890,-500,4,1,25,50,0,0
46083,-500,4,1,27,50,0,0
46277,400,4,1,26,50,1,0
46277,-500,4,1,26,50,0,0
46877,-500,4,1,26,5,0,0
47077,454.545454545455,4,1,11,40,1,0
47531,545.454545454546,4,1,10,40,1,0
47531,-500,4,1,10,40,0,0
47940,-500,4,1,10,5,0,0
48076,272.727272727273,4,1,11,100,1,0
48485,-100,4,1,10,100,0,0
48894,-100,4,1,11,100,0,0
49303,-100,4,1,10,100,0,0
49712,-100,4,1,11,100,0,0
49985,-100,4,1,12,100,0,0
50257,-100,4,1,11,100,0,0
50666,-100,4,1,10,100,0,0
51076,-100,4,1,11,100,0,0
51485,-100,4,1,10,100,0,0
51894,-100,4,1,11,100,0,0
52166,-100,4,1,15,100,0,0
52439,-100,4,1,11,100,0,0
52848,-100,4,1,10,100,0,0
53257,-100,4,1,11,100,0,0
53666,-100,4,1,10,100,0,0
54076,-100,4,1,11,100,0,0
54348,-100,4,1,12,100,0,0
54621,-100,4,1,13,100,0,0
55030,-100,4,1,12,100,0,0
55439,-100,4,1,11,100,0,0
55712,-100,4,1,10,100,0,0
55985,-100,4,1,12,100,0,0
56257,-100,4,1,15,100,0,0
56530,-100,4,1,17,100,0,0
56803,-71.4285714285714,4,1,18,100,0,0
56939,-71.4285714285714,4,1,16,100,0,0
57076,-71.4285714285714,4,1,13,100,0,0
57212,-71.4285714285714,4,1,17,100,0,0
57348,-71.4285714285714,4,1,15,100,0,0
57485,-71.4285714285714,4,1,13,100,0,0
57621,-71.4285714285714,4,1,18,100,0,0
57757,-71.4285714285714,4,1,16,100,0,0
57894,-71.4285714285714,4,1,13,100,0,0
58030,-71.4285714285714,4,1,17,100,0,0
58166,-71.4285714285714,4,1,15,100,0,0
58303,-71.4285714285714,4,1,13,100,0,0
58439,-71.4285714285714,4,1,18,100,0,0
58576,-71.4285714285714,4,1,13,100,0,0
58712,-71.4285714285714,4,1,19,100,0,0
58848,-71.4285714285714,4,1,13,100,0,0
58985,-71.4285714285714,4,1,18,100,0,0
59121,-71.4285714285714,4,1,16,100,0,0
59257,-71.4285714285714,4,1,13,100,0,0
59394,-71.4285714285714,4,1,17,100,0,0
59530,-71.4285714285714,4,1,15,100,0,0
59666,-71.4285714285714,4,1,13,100,0,0
59803,-71.4285714285714,4,1,18,100,0,0
59939,-71.4285714285714,4,1,16,100,0,0
60076,-71.4285714285714,4,1,13,100,0,0
60212,-71.4285714285714,4,1,17,100,0,0
60348,-71.4285714285714,4,1,15,100,0,0
60485,-71.4285714285714,4,1,13,100,0,0
60621,-71.4285714285714,4,1,18,100,0,0
60757,-71.4285714285714,4,1,13,100,0,0
60894,-71.4285714285714,4,1,22,100,0,0
61166,-71.4285714285714,4,1,23,100,0,0
61576,-71.4285714285714,4,1,20,100,0,0
61985,-71.4285714285714,4,1,22,100,0,0
62394,-71.4285714285714,4,1,19,100,0,0
62803,-71.4285714285714,4,1,20,100,0,0
63076,-71.4285714285714,4,1,17,100,0,0
63348,-71.4285714285714,4,1,18,100,0,0
63485,-71.4285714285714,4,1,17,100,0,0
63553,-71.4285714285714,4,1,18,100,0,0
63621,-71.4285714285714,4,1,17,100,0,0
63689,-71.4285714285714,4,1,15,100,0,0
63757,-71.4285714285714,4,1,12,100,0,0
63826,-71.4285714285714,4,1,11,100,0,0
63894,-71.4285714285714,4,1,10,100,0,0
63962,-71.4285714285714,4,1,9,100,0,0
64030,-71.4285714285714,4,1,10,100,0,0
64098,-71.4285714285714,4,1,11,100,0,0
64166,-71.4285714285714,4,1,10,100,0,0
64235,-71.4285714285714,4,1,11,100,0,0
64303,-71.4285714285714,4,1,12,100,0,0
64371,-71.4285714285714,4,1,13,100,0,0
64439,-71.4285714285714,4,1,12,100,0,0
64576,-71.4285714285714,4,1,10,100,0,0
64712,-71.4285714285714,4,1,11,100,0,0
64848,-71.4285714285714,4,1,12,100,0,0
64985,-71.4285714285714,4,1,13,100,0,0
65257,-71.4285714285714,4,1,15,100,0,0
65530,-166.666666666667,4,1,17,77,0,0
65939,-166.666666666667,4,1,15,77,0,0
66348,-166.666666666667,4,1,16,77,0,0
67166,-166.666666666667,4,1,17,77,0,0
67439,-166.666666666667,4,1,18,77,0,0
67712,-166.666666666667,4,1,22,77,0,0
67985,-166.666666666667,4,1,22,5,0,0
68530,-166.666666666667,4,1,18,77,0,0
68666,-166.666666666667,4,1,17,77,0,0
69485,-166.666666666667,4,1,16,77,0,0
69621,-166.666666666667,4,1,17,77,0,0
69757,-166.666666666667,4,1,18,77,0,0
69894,-166.666666666667,4,1,19,77,0,0
71121,-166.666666666667,4,1,20,77,0,0
71530,-166.666666666667,4,1,19,77,0,0
71803,-166.666666666667,4,1,17,77,0,0
72007,-166.666666666667,4,1,17,5,0,0
72076,-166.666666666667,4,1,19,77,0,0
72212,-166.666666666667,4,1,19,50,0,0
72348,-166.666666666667,4,1,18,77,0,0
72757,-166.666666666667,4,1,17,77,0,0
73030,-166.666666666667,4,1,18,77,0,0
73985,-166.666666666667,4,1,17,77,0,0
74257,-166.666666666667,4,1,16,77,0,0
74394,-166.666666666667,4,1,16,50,0,0
75076,-166.666666666667,4,1,17,77,0,0
75212,-166.666666666667,4,1,18,77,0,0
75348,-166.666666666667,4,1,19,77,0,0
75621,-166.666666666667,4,1,19,5,0,0
75757,-166.666666666667,4,1,20,77,0,0
76166,-166.666666666667,4,1,18,77,0,0
76439,-166.666666666667,4,1,17,77,0,0
76712,-166.666666666667,4,1,15,77,0,0
77121,-166.666666666667,4,1,12,77,0,0
77394,-166.666666666667,4,1,11,77,0,0
77530,-166.666666666667,4,1,10,77,0,0
77803,-166.666666666667,4,1,9,77,0,0
77939,-166.666666666667,4,1,10,77,0,0
78076,-166.666666666667,4,1,11,77,0,0
78212,-166.666666666667,4,1,10,77,0,0
78348,-166.666666666667,4,1,11,77,0,0
78485,-166.666666666667,4,1,12,77,0,0
78621,-166.666666666667,4,1,13,77,0,0
78757,-166.666666666667,4,1,13,50,0,0
79439,-166.666666666667,4,1,12,77,0,0
79848,-166.666666666667,4,1,11,77,0,0
79985,-166.666666666667,4,1,40,77,0,0
80121,-166.666666666667,4,1,8,77,0,0
80257,-166.666666666667,4,1,30,77,0,0
80394,-166.666666666667,4,1,4,77,0,0
80530,-166.666666666667,4,1,39,77,0,0
80803,-76.9230769230769,4,1,13,100,0,0
81007,-76.9230769230769,4,1,13,66,0,0
81076,-76.9230769230769,4,1,13,100,0,0
81416,-76.9230769230769,4,1,13,66,0,0
81485,-76.9230769230769,4,1,13,100,0,0
81621,-76.9230769230769,4,1,31,100,0,0
81757,-76.9230769230769,4,1,12,100,0,0
82439,-500,4,1,20,100,0,0
82712,-500,4,1,25,100,0,0
82985,-50,4,1,24,100,0,1
83394,-43.4782608695652,4,1,22,100,0,1
83803,-55.5555555555556,4,1,23,100,0,1
84348,-66.6666666666667,4,1,23,100,0,1
84621,-66.6666666666667,4,1,24,100,0,1
84894,-66.6666666666667,4,1,25,100,0,1
85166,-58.8235294117647,4,1,29,100,0,1
85985,-58.8235294117647,4,1,25,100,0,1
86121,-58.8235294117647,4,1,24,100,0,1
86939,-58.8235294117647,4,1,23,100,0,1
87076,-58.8235294117647,4,1,24,100,0,1
87212,-58.8235294117647,4,1,25,100,0,1
87348,-58.8235294117647,4,1,26,100,0,1
88576,-58.8235294117647,4,1,27,100,0,1
88985,-58.8235294117647,4,1,41,100,0,1
89257,-58.8235294117647,4,1,42,100,0,1
89530,-47.6190476190476,4,1,43,100,0,1
89803,-47.6190476190476,4,1,29,100,0,1
90212,-47.6190476190476,4,1,19,100,0,1
90280,-47.6190476190476,4,1,20,100,0,1
90348,-47.6190476190476,4,1,19,100,0,1
90485,-47.6190476190476,4,1,18,100,0,1
90621,-66.6666666666667,4,1,17,100,0,1
90689,-66.6666666666667,4,1,10,100,0,1
90757,-66.6666666666667,4,1,11,100,0,1
90826,-66.6666666666667,4,1,12,100,0,1
90894,-66.6666666666667,4,1,13,100,0,1
90962,-66.6666666666667,4,1,12,100,0,1
91030,-66.6666666666667,4,1,13,100,0,1
91098,-66.6666666666667,4,1,31,100,0,1
91166,-66.6666666666667,4,1,16,100,0,1
91235,-66.6666666666667,4,1,15,100,0,1
91303,-66.6666666666667,4,1,16,100,0,1
91371,-66.6666666666667,4,1,17,100,0,1
91439,-66.6666666666667,4,1,18,100,0,1
91507,-66.6666666666667,4,1,17,100,0,1
91576,-66.6666666666667,4,1,18,100,0,1
91644,-66.6666666666667,4,1,19,100,0,1
91712,-66.6666666666667,4,1,20,100,0,1
91803,-66.6666666666667,4,1,18,100,0,1
91894,-66.6666666666667,4,1,16,100,0,1
91985,-66.6666666666667,4,1,13,100,0,1
92076,-66.6666666666667,4,1,11,100,0,1
92166,-66.6666666666667,4,1,9,100,0,1
92257,-66.6666666666667,4,1,6,100,0,1
92348,-66.6666666666667,4,1,4,100,0,1
92439,-66.6666666666667,4,1,26,100,0,1
92530,-66.6666666666667,4,1,27,100,0,1
92621,-66.6666666666667,4,1,25,100,0,1
92712,-66.6666666666667,4,1,23,100,0,1
92803,-66.6666666666667,4,1,26,100,0,1
92894,-66.6666666666667,4,1,24,100,0,1
92985,-66.6666666666667,4,1,22,100,0,1
93076,-66.6666666666667,4,1,19,100,0,1
93166,-66.6666666666667,4,1,22,100,0,1
93257,-66.6666666666667,4,1,24,100,0,1
93348,-66.6666666666667,4,1,29,100,0,1
93439,-66.6666666666667,4,1,26,100,0,1
93530,-66.6666666666667,4,1,24,100,0,1
93621,-66.6666666666667,4,1,22,100,0,1
93712,-66.6666666666667,4,1,24,100,0,1
93803,-66.6666666666667,4,1,26,100,0,1
93985,-66.6666666666667,4,1,24,100,0,1
94076,-66.6666666666667,4,1,22,100,0,1
94166,-66.6666666666667,4,1,19,100,0,1
94257,-66.6666666666667,4,1,17,100,0,1
94348,-66.6666666666667,4,1,15,100,0,1
94439,-66.6666666666667,4,1,12,100,0,1
94576,-66.6666666666667,4,1,26,100,0,1
94644,-66.6666666666667,4,1,27,100,0,1
94712,-66.6666666666667,4,1,26,100,0,1
94848,-66.6666666666667,4,1,25,100,0,1
94985,-66.6666666666667,4,1,24,100,0,1
95053,-66.6666666666667,4,1,25,100,0,1
95121,-66.6666666666667,4,1,24,100,0,1
95189,-66.6666666666667,4,1,22,100,0,1
95257,-66.6666666666667,4,1,19,100,0,1
95326,-66.6666666666667,4,1,20,100,0,1
95394,-66.6666666666667,4,1,19,100,0,1
95462,-66.6666666666667,4,1,18,100,0,1
95530,-66.6666666666667,4,1,17,100,0,1
95598,-66.6666666666667,4,1,18,100,0,1
95666,-66.6666666666667,4,1,17,100,0,1
95735,-66.6666666666667,4,1,15,100,0,1
95803,-66.6666666666667,4,1,13,100,0,1
95871,-66.6666666666667,4,1,11,100,0,1
95939,-66.6666666666667,4,1,10,100,0,1
96007,-66.6666666666667,4,1,9,100,0,1
96076,-66.6666666666667,4,1,9,100,0,1
96485,-52.6315789473684,4,1,20,100,0,1
96757,-52.6315789473684,4,1,12,100,0,1
96826,-52.6315789473684,4,1,13,100,0,1
96894,-52.6315789473684,4,1,31,100,0,1
96962,-52.6315789473684,4,1,15,100,0,1
97030,-52.6315789473684,4,1,16,100,0,1
97098,-52.6315789473684,4,1,17,100,0,1
97166,-52.6315789473684,4,1,19,100,0,1
97576,-52.6315789473684,4,1,22,100,0,1
97848,-52.6315789473684,4,1,15,100,0,1
97916,-52.6315789473684,4,1,16,100,0,1
97985,-52.6315789473684,4,1,17,100,0,1
98053,-52.6315789473684,4,1,18,100,0,1
98121,-52.6315789473684,4,1,19,100,0,1
98189,-52.6315789473684,4,1,20,100,0,1
98257,-52.6315789473684,4,1,23,100,0,1
98803,-52.6315789473684,4,1,27,100,0,1
99348,-133.333333333333,4,1,26,100,0,1
99439,-133.333333333333,4,1,24,100,0,1
99530,-133.333333333333,4,1,22,100,0,1
99621,-133.333333333333,4,1,19,100,0,1
99712,-133.333333333333,4,1,22,100,0,1
99803,-133.333333333333,4,1,24,100,0,1
99894,-166.666666666667,4,1,25,100,0,0
99985,-166.666666666667,4,1,22,100,0,0
100076,-166.666666666667,4,1,19,100,0,0
100166,-166.666666666667,4,1,18,100,0,0
100257,-166.666666666667,4,1,19,100,0,0
100348,-166.666666666667,4,1,22,100,0,0
100439,-76.9230769230769,4,1,18,100,0,0
100848,-76.9230769230769,4,1,17,100,0,0
101257,-76.9230769230769,4,1,18,100,0,0
101666,-76.9230769230769,4,1,17,100,0,0
102076,-76.9230769230769,4,1,18,100,0,0
102348,-76.9230769230769,4,1,19,100,0,0
102621,-76.9230769230769,4,1,18,100,0,0
103030,-76.9230769230769,4,1,17,100,0,0
103439,-76.9230769230769,4,1,18,100,0,0
103848,-76.9230769230769,4,1,17,100,0,0
104257,-76.9230769230769,4,1,18,100,0,0
104530,-76.9230769230769,4,1,22,100,0,0
104803,-76.9230769230769,4,1,18,100,0,0
105212,-76.9230769230769,4,1,17,100,0,0
105621,-76.9230769230769,4,1,18,100,0,0
106030,-76.9230769230769,4,1,17,100,0,0
106439,-76.9230769230769,4,1,18,100,0,0
106712,-76.9230769230769,4,1,19,100,0,0
106985,-76.9230769230769,4,1,20,100,0,0
107394,-76.9230769230769,4,1,19,100,0,0
107803,-76.9230769230769,4,1,18,100,0,0
108076,-76.9230769230769,4,1,10,100,0,0
108144,-76.9230769230769,4,1,9,100,0,0
108212,-76.9230769230769,4,1,10,100,0,0
108280,-76.9230769230769,4,1,11,100,0,0
108348,-76.9230769230769,4,1,12,100,0,0
108416,-76.9230769230769,4,1,11,100,0,0
108485,-76.9230769230769,4,1,12,100,0,0
108553,-76.9230769230769,4,1,13,100,0,0
108621,-76.9230769230769,4,1,31,100,0,0
108689,-76.9230769230769,4,1,13,100,0,0
108757,-76.9230769230769,4,1,31,100,0,0
108826,-76.9230769230769,4,1,15,100,0,0
108894,-76.9230769230769,4,1,16,100,0,0
108962,-76.9230769230769,4,1,15,100,0,0
109030,-76.9230769230769,4,1,16,100,0,0
109098,-76.9230769230769,4,1,17,100,0,0
109166,-76.9230769230769,4,1,18,100,0,1
109303,-76.9230769230769,4,1,16,100,0,1
109439,-76.9230769230769,4,1,13,100,0,1
109576,-76.9230769230769,4,1,17,100,0,1
109712,-76.9230769230769,4,1,15,100,0,1
109848,-76.9230769230769,4,1,13,100,0,1
109985,-76.9230769230769,4,1,18,100,0,1
110121,-76.9230769230769,4,1,16,100,0,1
110257,-76.9230769230769,4,1,13,100,0,1
110394,-76.9230769230769,4,1,17,100,0,1
110530,-76.9230769230769,4,1,15,100,0,1
110666,-76.9230769230769,4,1,13,100,0,1
110803,-76.9230769230769,4,1,18,100,0,1
110939,-76.9230769230769,4,1,13,100,0,1
111076,-76.9230769230769,4,1,19,100,0,1
111212,-76.9230769230769,4,1,13,100,0,1
111348,-76.9230769230769,4,1,18,100,0,1
111485,-76.9230769230769,4,1,16,100,0,1
111621,-76.9230769230769,4,1,13,100,0,1
111757,-76.9230769230769,4,1,17,100,0,1
111894,-76.9230769230769,4,1,15,100,0,1
112030,-76.9230769230769,4,1,13,100,0,1
112166,-76.9230769230769,4,1,18,100,0,1
112303,-76.9230769230769,4,1,16,100,0,1
112439,-76.9230769230769,4,1,13,100,0,1
112576,-76.9230769230769,4,1,17,100,0,1
112712,-76.9230769230769,4,1,15,100,0,1
112848,-76.9230769230769,4,1,13,100,0,1
112985,-76.9230769230769,4,1,18,100,0,1
113121,-76.9230769230769,4,1,13,100,0,1
113257,-76.9230769230769,4,1,22,100,0,1
113394,-76.9230769230769,4,1,15,100,0,1
113530,-76.9230769230769,4,1,23,100,0,1
113939,-76.9230769230769,4,1,20,100,0,1
114348,-76.9230769230769,4,1,22,100,0,1
114757,-76.9230769230769,4,1,19,100,0,1
115166,-76.9230769230769,4,1,20,100,0,1
115303,-76.9230769230769,4,1,13,100,0,1
115439,-76.9230769230769,4,1,17,100,0,1
115576,-76.9230769230769,4,1,13,100,0,1
115712,-76.9230769230769,4,1,18,100,0,1
115848,-76.9230769230769,4,1,16,100,0,1
115985,-76.9230769230769,4,1,13,100,0,1
116121,-76.9230769230769,4,1,17,100,0,1
116257,-76.9230769230769,4,1,15,100,0,1
116394,-76.9230769230769,4,1,13,100,0,1
116530,-76.9230769230769,4,1,18,100,0,1
116666,-76.9230769230769,4,1,15,100,0,1
116803,-76.9230769230769,4,1,13,100,0,1
116939,-76.9230769230769,4,1,27,100,0,1
117076,-76.9230769230769,4,1,26,100,0,1
117212,-76.9230769230769,4,1,25,100,0,1
117348,-76.9230769230769,4,1,24,100,0,1
117485,-76.9230769230769,4,1,22,100,0,1
117621,-76.9230769230769,4,1,19,100,0,1
117757,-76.9230769230769,4,1,18,100,0,1
117894,-133.333333333333,4,1,1,100,0,0
118439,-333.333333333333,4,1,33,100,0,0
118507,-333.333333333333,4,1,33,5,0,0

[Colours]
Combo1 : 198,151,204
Combo2 : 202,230,251
Combo3 : 154,189,248
Combo4 : 251,145,145
Combo5 : 245,143,118
Combo6 : 241,201,107
Combo7 : 201,179,232

[HitObjects]
256,76,1374,5,6,1:2:0:0:
256,76,1761,6,0,L|241:238,1,150,2|0,2:2|0:0,0:0:0:0:
238,275,2148,1,2,2:0:0:0:
83,334,2438,1,2,2:0:0:0:
52,158,2728,2,0,L|214:173,1,150,2|0,2:0|0:0,0:0:0:0:
248,176,3116,1,2,2:0:0:0:
256,76,3503,85,2,2:0:0:0:
382,25,3696,1,2,2:0:0:0:
441,191,3987,1,2,2:0:0:0:
385,134,4277,1,2,2:0:0:0:
256,76,4664,5,2,2:0:0:0:
214,48,4760,1,2,2:0:0:0:
166,38,4857,1,2,2:0:0:0:
117,46,4954,1,2,2:0:0:0:
74,72,5051,2,0,L|56:255,1,150,2|0,2:0|0:0,0:0:0:0:
57,266,5438,1,2,2:0:0:0:
219,255,5632,1,2,2:0:0:0:
367,323,5825,86,0,L|376:219,1,100,2|2,2:0|2:0,0:0:0:0:
377,188,6115,5,2,2:0:0:0:
348,148,6212,1,2,2:0:0:0:
351,99,6309,1,2,2:0:0:0:
385,63,6406,1,2,2:0:0:0:
434,58,6503,1,2,2:0:0:0:
475,84,6599,1,2,2:0:0:0:
489,131,6696,1,2,2:0:0:0:
470,177,6793,86,0,P|426:217|443:312,1,150,2|0,2:0|0:0,0:0:0:0:
507,378,7180,6,0,L|430:374,1,75,6|0,2:3|2:0,0:0:0:0:
367,323,7567,5,6,1:2:0:0:
219,255,7761,1,2,2:2:0:0:
435,175,7954,1,2,2:3:0:0:
258,28,8148,5,2,2:2:0:0:
266,50,8244,1,2,3:3:0:0:
275,73,8341,2,0,L|298:134,1,50,2|2,2:3|2:2,0:0:0:0:
85,134,8535,5,2,2:0:0:0:
110,133,8632,1,2,3:2:0:0:
137,131,8728,2,0,L|209:128,1,55.0000016784668,2|2,2:3|2:0,0:0:0:0:
137,351,8922,69,2,2:0:0:0:
144,324,9019,1,2,3:2:0:0:
151,295,9115,2,0,L|173:219,1,59.9999981689454,2|2,2:3|2:0,0:0:0:0:
382,370,9309,5,2,2:0:0:0:
356,353,9406,1,2,3:2:0:0:
329,336,9503,2,0,L|256:288,1,64.9999970245363,2|2,2:3|2:0,0:0:0:0:
485,120,9696,5,2,2:0:0:0:
459,141,9793,1,2,3:2:0:0:
431,164,9890,2,0,L|356:224,1,69.9999978637696,2|2,3:2|2:0,0:0:0:0:
285,7,10083,2,0,L|320:101,1,72.5000022125245,2|2,3:2|2:0,0:0:0:0:
81,102,10277,2,0,L|187:98,1,75.0000028610231,2|2,3:2|2:0,0:0:0:0:
110,336,10470,2,0,L|140:230,1,77.5000005912781,2|2,3:2|2:0,0:0:0:0:
353,383,10664,5,2,2:0:0:0:
256,192,10793,1,2,2:0:0:0:
43,217,10922,1,2,2:0:0:0:
125,323,11051,5,2,2:0:0:0:
256,192,11180,1,2,2:0:0:0:
178,24,11309,1,2,2:0:0:0:
98,112,11438,85,2,2:0:0:0:
256,192,11567,1,2,2:0:0:0:
385,72,11696,1,2,2:0:0:0:
280,43,11825,5,2,2:2:0:0:
256,192,11954,1,2,2:2:0:0:
388,266,12083,1,2,2:2:0:0:
434,163,12212,5,2,2:0:0:0:
434,163,12406,5,2,2:0:0:0:
407,120,12502,1,2,2:0:0:0:
368,89,12599,1,2,2:0:0:0:
321,73,12696,1,2,2:0:0:0:
271,73,12793,1,2,2:0:0:0:
224,89,12889,1,2,2:0:0:0:
185,120,12986,86,0,L|174:235,1,100,2|0,2:0|2:0,0:0:0:0:
264,290,13373,6,0,P|252:232|206:208,1,98.999999697876,2|0,2:0|0:0,0:0:0:0:
171,258,13761,86,0,L|165:318,1,59.9999981689454,6|2,1:2|2:2,0:0:0:0:
340,258,13954,2,0,L|346:318,1,59.9999981689454,2|2,2:0|2:0,0:0:0:0:
188,275,14148,2,0,L|181:341,1,59.9999981689454,2|2,2:0|2:0,0:0:0:0:
323,275,14341,2,0,L|329:337,1,59.9999981689454,2|2,2:0|2:0,0:0:0:0:
256,76,14535,5,2,2:0:0:0:
256,76,14728,5,2,2:0:0:0:
294,69,14824,1,2,2:0:0:0:
330,84,14921,1,2,2:0:0:0:
355,116,15019,1,2,2:0:0:0:
378,147,15115,1,2,2:0:0:0:
414,162,15212,1,2,2:0:0:0:
453,156,15309,5,2,2:0:0:0:
395,146,15405,1,2,2:0:0:0:
341,170,15502,1,2,2:0:0:0:
318,202,15599,1,2,2:0:0:0:
309,240,15696,1,2,2:0:0:0:
317,279,15793,1,2,2:0:0:0:
335,302,15889,1,2,2:0:0:0:
361,317,15986,1,2,2:0:0:0:
385,318,16083,5,2,2:0:0:0:
358,304,16179,1,2,2:0:0:0:
328,301,16276,1,2,2:0:0:0:
299,307,16373,1,2,2:0:0:0:
274,323,16470,1,2,2:0:0:0:
223,352,16566,1,2,2:0:0:0:
164,344,16663,1,2,2:0:0:0:
123,302,16760,1,2,2:0:0:0:
116,244,16857,2,0,L|127:114,1,119.999996337891,2|2,2:0|2:0,0:0:0:0:
132,85,17148,69,2,2:0:0:0:
186,67,17244,1,2,2:0:0:0:
237,77,17341,1,2,2:0:0:0:
274,110,17438,1,2,2:0:0:0:
288,153,17535,1,2,2:0:0:0:
237,208,17632,5,2,2:0:0:0:
295,196,17728,1,2,2:0:0:0:
351,214,17825,1,2,2:0:0:0:
390,259,17922,1,2,2:0:0:0:
402,317,18019,5,2,2:0:0:0:
370,295,18115,1,2,2:0:0:0:
331,287,18212,1,2,2:0:0:0:
292,293,18309,1,2,2:0:0:0:
243,357,18406,38,0,L|181:351,1,59.9999981689454,2|2,2:0|2:0,0:0:0:0:
102,384,18599,5,2,2:0:0:0:
87,357,18696,1,2,2:0:0:0:
81,321,18793,1,2,2:0:0:0:
88,276,18890,1,2,2:0:0:0:
113,228,18987,1,2,2:0:0:0:
160,184,19083,1,2,2:0:0:0:
232,153,19180,6,0,L|300:162,1,59.9999981689454,2|2,2:0|2:0,0:0:0:0:
415,157,19373,2,0,L|405:231,1,69.9999978637696,2|2,2:0|2:0,0:0:0:0:
430,376,19567,2,0,L|346:364,1,80,2|2,2:0|2:0,0:0:0:0:
169,384,19761,2,0,L|181:291,1,89.9999972534181,2|2,2:0|2:0,0:0:0:0:
228,22,19954,5,6,1:2:0:0:
274,58,20018,1,2,2:0:0:0:
287,115,20083,1,2,2:0:0:0:
261,168,20147,1,2,2:0:0:0:
208,193,20212,1,2,2:0:0:0:
151,178,20276,1,2,2:0:0:0:
116,131,20341,5,2,2:0:0:0:
158,111,20405,1,2,2:0:0:0:
206,109,20470,1,2,2:0:0:0:
250,126,20534,1,2,2:0:0:0:
284,160,20599,1,2,2:0:0:0:
301,205,20663,1,2,2:0:0:0:
299,252,20728,2,0,L|285:350,1,89.9999972534181,2|0,2:0|0:0,0:0:0:0:
98,319,20922,6,0,P|143:294|193:298,1,89.9999972534181,2|0,2:0|0:0,0:0:0:0:
236,192,21116,2,0,P|280:218|301:263,1,89.9999972534181,2|0,2:0|0:0,0:0:0:0:
414,248,21309,2,0,P|413:299|384:340,1,89.9999972534181,2|0,2:0|0:0,0:0:0:0:
116,131,21503,6,0,L|106:23,1,89.9999972534181,6|0,1:2|0:0,0:0:0:0:
230,88,21696,1,0,2:0:0:0:
236,95,21793,1,0,2:0:0:0:
243,102,21890,2,0,L|235:191,1,89.9999972534181,2|0,2:0|0:0,0:0:0:0:
365,128,22083,85,0,2:0:0:0:
388,105,22180,1,0,2:0:0:0:
357,97,22277,2,0,L|349:7,1,89.9999972534181,2|0,2:0|2:0,0:0:0:0:
500,199,22470,6,0,P|511:313|465:354,1,179.999994506836,4|2,1:1|2:0,0:0:0:0:
297,313,22761,2,0,P|286:199|332:158,1,179.999994506836,4|0,1:1|0:0,0:0:0:0:
388,252,23051,5,10,3:3:0:0:
407,239,23148,1,2,3:3:0:0:
418,260,23245,1,10,3:3:0:0:
399,271,23341,1,10,3:3:0:0:
297,313,23535,5,2,3:3:0:0:
137,211,23728,85,2,3:3:0:0:
121,283,23825,1,10,3:3:0:0:
153,140,24019,5,2,3:3:0:0:
83,162,24116,1,10,3:3:0:0:
223,118,24309,85,2,3:3:0:0:
115,19,24503,5,2,3:3:0:0:
205,299,24696,85,10,3:3:0:0:
177,274,24793,1,10,3:3:0:0:
212,262,24890,1,10,3:3:0:0:
223,118,25083,5,2,3:3:0:0:
333,218,25277,85,2,3:3:0:0:
278,168,25374,1,10,3:3:0:0:
403,195,25567,5,2,3:3:0:0:
388,268,25664,1,10,3:3:0:0:
418,122,25857,85,2,3:3:0:0:
309,24,26051,5,2,3:3:0:0:
332,94,26148,5,6,3:2:0:0:
300,78,26245,1,10,3:3:0:0:
316,46,26341,1,10,3:3:0:0:
348,62,26438,1,10,3:3:0:0:
115,19,26632,5,2,3:3:0:0:
121,220,26825,5,2,3:3:0:0:
205,193,26922,1,10,3:3:0:0:
37,247,27116,69,2,3:3:0:0:
55,160,27213,1,10,3:3:0:0:
19,334,27406,5,2,3:3:0:0:
316,262,27599,5,2,3:3:0:0:
283,217,27696,5,6,3:2:0:0:
360,229,27793,1,10,3:3:0:0:
348,306,27890,1,10,3:3:0:0:
271,294,27987,1,2,3:3:0:0:
352,31,28180,5,2,3:3:0:0:
301,371,28374,85,2,3:3:0:0:
294,384,28470,53,14,3:3:0:0:
48,211,28599,1,10,3:3:0:0:
319,85,28728,1,10,3:3:0:0:
121,368,28857,5,14,3:3:0:0:
147,69,28987,1,10,3:3:0:0:
392,242,29116,1,10,3:3:0:0:
256,192,29245,12,0,32245,0:0:0:0:
256,192,32341,54,0,L|256:168,14,18.7500007152558,2|0|0|0|0|0|0|0|0|0|0|0|0|0|0,2:2|0:0|0:0|0:0|0:0|0:0|0:0|0:0|0:0|0:0|0:0|0:0|0:0|0:0|0:0,0:0:0:0:
255,204,33115,22,0,B|134:205|130:355|227:403|305:362|328:315|328:315|383:197|245:82,1,595.000011348725,6|0,1:2|2:0,0:0:0:0:
31,39,33890,6,0,B|34:85|78:124|136:113|136:113|165:40|232:-19|314:22|314:22|266:166|376:277|587:245|573:15|459:-30|353:-10|327:86,1,974.999955368044,2|0,2:2|2:0,0:0:0:0:
410,104,35438,6,0,B|364:140|369:217|442:238|442:238|497:302|455:391|363:402|283:339|312:249|369:226|369:226|322:178|206:190|190:285|190:285|79:353|-28:279|-61:163|9:29|153:27|246:111|230:208,1,1350,2|0,2:2|0:0,0:0:0:0:
120,195,38148,53,8,1:3:0:0:
120,195,38535,5,8,3:3:0:0:
92,213,38599,1,4,3:3:0:0:
75,242,38664,1,4,3:3:0:0:
72,274,38728,1,4,3:3:0:0:
83,306,38793,1,4,3:3:0:0:
107,329,38857,1,4,3:3:0:0:
138,340,38922,1,4,3:3:0:0:
171,337,38986,1,4,3:3:0:0:
199,321,39051,1,4,3:3:0:0:
218,293,39115,1,4,3:3:0:0:
223,261,39180,1,4,3:3:0:0:
214,229,39244,1,4,3:3:0:0:
192,204,39309,6,0,P|170:116|252:44,1,194.999991073609,6|0,1:2|2:0,0:0:0:0:
326,15,39696,54,0,L|358:21,1,30,2|0,2:3|0:0,0:0:0:0:
479,269,40083,54,0,P|441:364|402:281,1,225.000008583069,6|0,1:2|0:0,0:0:0:0:
400,195,40470,54,0,L|391:173,1,22.4999993133545,2|0,2:3|0:0,0:0:0:0:
349,70,40857,54,0,L|376:139,2,75,8|4|12,3:3|3:3|3:3,0:0:0:0:
97,235,41632,5,6,1:2:0:0:
178,334,41825,1,8,3:3:0:0:
196,154,42019,1,8,3:3:0:0:
195,130,42116,2,0,P|162:101|100:98,1,100,0|8,3:3|3:3,0:0:0:0:
108,307,42406,85,4,3:3:0:0:
178,334,42503,2,0,L|236:325,1,50,0|0,0:0|0:0,0:0:0:0:
222,226,42696,1,4,3:3:0:0:
292,253,42793,2,0,L|350:244,1,50,0|0,0:0|0:0,0:0:0:0:
420,97,42987,6,0,P|386:123|381:174,1,75.0000028610231,4|0,3:2|0:0,0:0:0:0:
497,182,43180,2,0,L|514:21,1,119.999996337891,8|0,3:3|0:0,0:0:0:0:
367,252,43470,2,0,L|382:107,1,100,4|0,3:3|0:0,0:0:0:0:
263,292,43761,2,0,L|272:200,1,85.0000016212464,4|0,3:3|0:0,0:0:0:0:
200,348,44051,2,0,P|163:342|108:361,1,85.0000016212464,0|0,3:3|0:0,0:0:0:0:
48,384,44341,86,0,L|48:373,5,6.66666666666667,4|8|8|4|4|4,3:2|3:3|3:3|3:3|3:3|3:3,0:0:0:0:
48,384,45503,21,2,2:0:0:0:
41,353,45696,1,2,2:0:0:0:
118,333,45890,5,2,2:0:0:0:
116,301,46083,1,2,2:0:0:0:
200,298,46277,86,0,P|212:266|235:249,1,60,2|0,2:0|0:0,0:0:0:0:
301,292,47077,5,2,2:0:0:0:
301,292,47531,86,0,L|305:322,1,30,2|0,2:0|2:0,0:0:0:0:
312,367,48076,69,6,2:2:0:0:
279,142,48212,1,2,2:2:0:0:
101,284,48348,1,2,2:2:0:0:
261,302,48485,5,2,2:2:0:0:
248,218,48621,1,2,2:2:0:0:
182,271,48757,1,2,2:2:0:0:
391,382,48894,85,2,2:2:0:0:
357,156,49030,1,2,2:2:0:0:
135,111,49166,1,2,2:2:0:0:
298,310,49303,5,2,2:2:0:0:
285,225,49439,1,2,2:2:0:0:
202,208,49575,1,2,2:2:0:0:
129,374,49712,86,0,L|214:292,1,100,2|2,2:2|2:2,0:0:0:0:
285,225,49985,2,0,L|358:157,1,100,2|2,2:2|2:2,0:0:0:0:
429,87,50257,5,2,2:2:0:0:
233,131,50394,1,2,2:2:0:0:
371,279,50530,1,2,2:2:0:0:
376,136,50666,85,2,2:2:0:0:
303,153,50803,1,2,2:2:0:0:
354,208,50939,1,2,2:2:0:0:
316,43,51076,5,2,2:2:0:0:
246,275,51212,1,2,2:2:0:0:
482,220,51348,1,2,2:2:0:0:
335,128,51485,85,2,2:2:0:0:
309,215,51621,1,2,2:2:0:0:
398,194,51757,1,2,2:2:0:0:
128,11,51894,6,0,L|136:127,1,100,2|2,2:2|2:2,0:0:0:0:
252,175,52166,2,0,L|244:291,1,100,2|2,2:2|2:2,0:0:0:0:
31,312,52439,85,6,2:2:0:0:
188,384,52576,1,2,2:2:0:0:
329,285,52712,1,2,2:2:0:0:
101,262,52848,5,2,2:2:0:0:
179,298,52985,1,2,2:2:0:0:
250,248,53121,1,2,2:2:0:0:
158,61,53257,85,2,2:2:0:0:
48,299,53394,1,2,2:2:0:0:
310,276,53530,1,2,2:2:0:0:
164,136,53666,5,2,2:2:0:0:
109,255,53803,1,2,2:2:0:0:
240,243,53939,1,2,2:2:0:0:
92,18,54076,86,0,L|-25:31,1,100,6|2,2:2|2:2,0:0:0:0:
252,175,54348,2,0,L|369:162,1,100,2|2,2:2|2:2,0:0:0:0:
17,26,54621,5,6,2:2:0:0:
294,4,54757,1,2,2:2:0:0:
174,254,54894,1,2,2:2:0:0:
154,14,55030,85,2,2:2:0:0:
233,128,55166,1,2,2:2:0:0:
95,139,55303,1,2,2:2:0:0:
161,85,55439,5,2,2:2:0:0:
162,105,55576,1,2,2:2:0:0:
162,95,55712,37,6,2:2:0:0:
301,84,55848,1,10,3:3:0:0:
167,174,55985,5,2,2:3:0:0:
361,190,56121,1,10,3:3:0:0:
156,254,56258,5,2,2:3:0:0:
423,320,56394,1,10,3:3:0:0:
138,327,56530,69,10,2:2:0:0:
138,327,56803,5,6,1:2:0:0:
79,118,56939,1,6,1:3:0:0:
289,171,57076,1,10,1:3:0:0:
156,254,57212,5,6,1:3:0:0:
132,170,57348,1,6,1:3:0:0:
216,191,57485,1,6,1:3:0:0:
17,278,57621,69,10,1:3:0:0:
149,20,57758,1,6,1:3:0:0:
306,264,57894,1,6,1:3:0:0:
87,232,58030,5,6,1:3:0:0:
153,103,58166,1,10,1:3:0:0:
231,225,58303,1,6,1:3:0:0:
17,278,58439,5,6,1:3:0:0:
331,76,58576,1,6,1:3:0:0:
73,20,58712,69,10,1:3:0:0:
275,334,58848,1,6,1:3:0:0:
113,82,58985,5,6,1:3:0:0:
234,271,59121,1,6,1:3:0:0:
423,150,59257,1,10,1:3:0:0:
190,99,59394,5,6,1:3:0:0:
250,193,59530,1,6,1:3:0:0:
344,132,59666,1,6,1:3:0:0:
166,25,59803,69,10,1:3:0:0:
218,349,59939,1,6,1:3:0:0:
399,72,60076,1,6,1:3:0:0:
208,109,60212,5,6,1:3:0:0:
234,271,60348,1,10,1:3:0:0:
324,132,60485,1,6,1:3:0:0:
166,24,60621,5,6,1:3:0:0:
399,72,60757,1,6,1:3:0:0:
218,349,60894,69,10,1:3:0:0:
284,30,61030,1,6,1:3:0:0:
105,292,61166,5,6,1:2:0:0:
346,342,61303,1,6,1:3:0:0:
268,108,61439,1,10,1:3:0:0:
172,269,61576,5,6,1:3:0:0:
292,294,61712,1,6,1:3:0:0:
253,177,61849,1,6,1:3:0:0:
83,225,61985,69,10,1:3:0:0:
394,289,62121,1,6,1:3:0:0:
284,30,62257,1,6,1:3:0:0:
170,202,62394,5,6,1:3:0:0:
322,234,62530,1,10,1:3:0:0:
268,107,62666,1,6,1:3:0:0:
218,349,62803,5,6,1:2:0:0:
268,107,62939,1,6,1:3:0:0:
182,215,63076,69,6,1:2:0:0:
303,240,63212,1,6,1:3:0:0:
103,20,63348,5,6,1:2:0:0:
11,81,63485,1,2,3:3:0:0:
8,115,63553,1,2,3:2:0:0:
5,150,63621,2,2,L|-1:229,1,69.9999978637696,10|2,3:3|3:2,0:0:0:0:
31,316,63757,5,6,3:3:0:0:
46,277,63825,1,2,3:2:0:0:
74,246,63893,1,2,3:2:0:0:
111,227,63961,1,2,3:2:0:0:
153,221,64029,1,10,3:3:0:0:
194,230,64097,1,2,0:0:0:0:
234,238,64167,1,6,3:3:0:0:
274,226,64235,1,2,3:2:0:0:
303,196,64303,1,2,3:2:0:0:
313,156,64371,1,2,3:2:0:0:
304,116,64439,69,10,3:3:0:0:
37,211,64576,1,6,1:3:0:0:
309,289,64712,1,6,1:3:0:0:
136,67,64848,1,10,1:3:0:0:
145,350,64985,37,10,3:3:0:0:
181,308,65075,1,4,3:3:0:0:
229,279,65166,1,4,3:3:0:0:
284,268,65257,5,10,3:3:0:0:
339,275,65348,1,4,3:3:0:0:
389,299,65439,1,4,3:3:0:0:
429,338,65530,5,2,2:2:0:0:
470,247,65939,1,2,2:2:0:0:
371,258,66348,1,2,2:2:0:0:
371,258,66894,5,2,2:2:0:0:
429,338,67166,1,2,2:2:0:0:
470,247,67439,1,2,2:2:0:0:
155,367,67712,1,2,2:2:0:0:
155,367,68530,86,0,L|89:376,1,59.9999981689454,2|2,2:2|2:2,2:0:0:0:
220,297,69485,5,2,2:2:0:0:
211,218,69621,1,2,2:2:0:0:
202,139,69757,1,2,2:2:0:0:
154,74,69894,86,0,L|93:49,1,59.9999981689454,2|2,2:2|2:2,2:0:0:0:
233,65,70166,2,0,L|285:25,1,59.9999981689454,2|2,2:2|2:2,2:0:0:0:
202,139,70439,2,0,L|210:203,1,59.9999981689454,2|2,2:2|2:2,2:0:0:0:
98,51,70712,5,2,2:2:0:0:
280,28,70848,1,2,2:2:0:0:
202,139,71121,85,2,2:2:0:0:
206,166,71257,1,2,2:2:0:0:
221,272,71530,5,2,2:2:0:0:
97,359,71803,86,0,L|203:346,1,89.9999972534181,2|0,2:2|2:0,2:0:0:0:
270,340,72076,5,2,2:2:0:0:
221,272,72212,1,0,2:0:0:0:
187,349,72348,1,2,2:2:0:0:
304,263,72485,1,2,2:2:0:0:
304,263,72757,85,2,2:2:0:0:
306,146,73030,1,2,2:2:0:0:
306,146,73712,5,2,2:2:0:0:
246,196,73985,1,2,2:2:0:0:
295,254,74257,85,2,2:2:0:0:
306,146,74394,1,0,2:0:0:0:
197,136,74530,1,0,2:0:0:0:
187,245,74666,1,0,2:0:0:0:
187,245,74939,5,2,2:2:0:0:
145,308,75076,1,2,2:2:0:0:
221,313,75212,1,2,2:2:0:0:
197,136,75348,86,0,L|209:10,1,119.999996337891,2|0,2:2|2:0,2:0:0:0:
187,245,75757,1,2,2:2:0:0:
187,245,76166,5,2,2:2:0:0:
197,136,76439,1,2,2:2:0:0:
177,354,76712,85,2,2:2:0:0:
180,327,76848,1,2,2:2:0:0:
87,290,77121,5,2,2:2:0:0:
187,245,77257,1,2,2:2:0:0:
277,309,77394,1,2,2:2:0:0:
377,264,77530,1,2,2:2:0:0:
377,264,77803,85,2,2:2:0:0:
287,200,77940,1,2,2:2:0:0:
387,154,78076,1,2,2:2:0:0:
339,85,78213,1,2,2:2:0:0:
422,77,78348,1,2,2:2:0:0:
413,4,78485,1,2,2:2:0:0:
483,29,78621,5,2,2:2:0:0:
330,12,78757,1,0,2:0:0:0:
266,152,78894,1,0,2:0:0:0:
322,204,79030,1,0,2:0:0:0:
298,82,79166,1,0,2:0:0:0:
248,226,79439,85,2,2:2:0:0:
234,240,79576,1,2,2:2:0:0:
234,240,79848,5,2,2:2:0:0:
213,365,79985,1,2,2:2:0:0:
305,280,80121,1,2,2:2:0:0:
323,379,80257,1,2,2:2:0:0:
386,279,80395,1,2,2:2:0:0:
426,347,80531,1,2,2:2:0:0:
455,237,80666,1,8,2:3:0:0:
234,240,80803,54,0,P|130:244|59:306,1,194.999991073609,6|0,3:2|0:0,0:0:0:0:
41,369,81076,1,8,3:3:0:0:
26,138,81212,6,0,P|81:226|170:256,1,194.999991073609,4|0,3:2|0:0,0:0:0:0:
234,240,81485,1,8,3:3:0:0:
336,32,81621,1,6,3:3:0:0:
105,48,81757,1,2,0:2:0:0:
387,259,81894,85,4,3:2:0:0:
218,8,82030,1,8,3:3:0:0:
86,280,82166,1,8,3:3:0:0:
230,183,82303,1,8,3:3:0:0:
224,107,82439,22,0,L|221:67,1,40,2|2,2:0|2:0,0:0:0:0:
181,146,82985,22,0,P|254:281|275:133,1,400,6|8,3:2|3:3,0:0:0:0:
173,49,83394,6,0,P|68:208|281:358,1,460.000008773804,6|8,3:3|3:3,0:0:0:0:
512,96,83803,6,0,B|291:76|291:76|206:147|206:147|-37:126,1,539.999983520508,6|4,3:2|3:3,0:0:0:0:
310,350,84348,69,6,3:3:0:0:
344,184,84485,1,2,3:3:0:0:
182,290,84621,5,6,3:3:0:0:
139,82,84758,1,6,3:3:0:0:
327,267,84894,5,10,3:3:0:0:
380,7,85031,1,2,3:3:0:0:
106,176,85166,70,0,P|41:66|194:165,1,510.000009727478,6|0,3:3|0:0,0:0:0:0:
139,82,85712,1,4,3:3:0:0:
66,309,85848,1,0,0:0:0:0:
300,259,85985,1,10,3:3:0:0:
139,82,86121,1,2,0:2:0:0:
272,366,86257,6,0,P|406:292|189:244,1,510.000009727478,0|0,0:0|0:0,0:0:0:0:
300,259,86803,85,0,0:0:0:0:
304,263,86939,1,6,3:3:0:0:
366,24,87076,1,10,3:3:0:0:
129,90,87212,1,6,3:3:0:0:
405,294,87348,5,6,3:2:0:0:
246,7,87485,1,2,3:3:0:0:
206,333,87621,1,10,3:3:0:0:
429,93,87758,1,6,3:3:0:0:
108,157,87894,1,6,3:3:0:0:
405,294,88031,1,2,3:3:0:0:
246,7,88167,5,10,3:3:0:0:
206,333,88303,2,0,P|293:338|327:263,1,170.000003242493,6|0,3:3|0:0,0:0:0:0:
118,29,88576,69,6,3:3:0:0:
184,223,88712,2,0,P|222:146|182:75,1,170.000003242493,10|0,3:3|0:0,0:0:0:0:
0,265,88985,2,0,P|47:336|129:337,1,170.000003242493,6|0,3:3|0:0,0:0:0:0:
225,0,89257,2,0,P|139:5|97:75,1,170.000003242493,10|0,3:3|0:0,0:0:0:0:
380,364,89530,6,0,L|406:64,1,209.999993591309,6|0,3:3|0:0,0:0:0:0:
406,69,89803,1,10,3:3:0:0:
291,244,89939,2,0,B|385:293|385:293|485:263,1,209.999993591309,6|0,3:3|0:0,0:0:0:0:
238,68,90212,5,6,3:3:0:0:
200,74,90280,1,2,0:2:0:0:
162,80,90348,1,10,3:3:0:0:
10,104,90485,1,2,0:2:0:0:
204,357,90621,6,0,L|248:288,1,75.0000028610231,6|2,3:3|2:2,0:0:0:0:
424,154,90757,2,0,L|343:150,1,75.0000028610231,6|2,3:3|2:2,0:0:0:0:
139,64,90894,2,0,L|176:137,1,75.0000028610231,10|2,3:3|2:2,0:0:0:0:
264,382,91030,2,0,L|283:294,1,75.0000028610231,6|2,3:3|2:2,0:0:0:0:
416,89,91166,6,0,L|330:116,1,75.0000028610231,6|2,3:3|2:2,0:0:0:0:
87,104,91303,2,0,L|153:164,1,75.0000028610231,6|2,3:3|2:2,0:0:0:0:
335,383,91439,2,0,L|322:286,1,75.0000028610231,10|2,3:3|2:2,0:0:0:0:
382,27,91576,2,0,L|304:86,1,75.0000028610231,14|2,1:3|2:2,0:0:0:0:
85,183,91713,37,6,3:3:0:0:
128,269,91802,1,6,3:3:0:0:
222,295,91893,1,6,3:3:0:0:
303,242,91985,1,10,3:3:0:0:
318,146,92075,1,6,3:3:0:0:
257,71,92166,1,6,3:3:0:0:
160,66,92257,5,10,3:3:0:0:
191,117,92347,1,10,3:3:0:0:
242,147,92438,1,10,3:3:0:0:
302,151,92531,5,10,3:3:0:0:
362,100,92621,1,6,3:3:0:0:
438,87,92712,1,6,3:3:0:0:
512,115,92803,69,10,3:3:0:0:
484,198,92893,1,10,3:3:0:0:
406,238,92984,1,10,3:3:0:0:
322,213,93075,1,6,3:3:0:0:
280,136,93166,1,6,3:3:0:0:
303,51,93257,1,6,3:3:0:0:
378,7,93348,5,10,3:3:0:0:
470,62,93438,1,10,3:3:0:0:
510,163,93529,1,10,3:3:0:0:
483,267,93620,1,6,3:3:0:0:
399,335,93711,1,6,3:3:0:0:
291,338,93802,1,6,3:3:0:0:
202,276,93894,5,6,3:3:0:0:
220,201,93984,1,10,3:3:0:0:
180,134,94075,1,10,3:3:0:0:
104,115,94166,1,14,3:3:0:0:
37,156,94257,1,10,3:3:0:0:
18,232,94348,1,10,3:3:0:0:
59,299,94439,69,6,3:3:0:0:
137,25,94576,1,2,2:0:0:0:
137,25,94644,1,2,2:0:0:0:
137,25,94712,1,6,2:2:0:0:
0,85,94848,1,2,0:3:0:0:
251,65,94985,5,6,2:2:0:0:
330,98,95053,1,2,2:0:0:0:
363,178,95121,1,2,2:3:0:0:
330,257,95189,1,2,2:0:0:0:
251,291,95257,5,10,2:3:0:0:
186,270,95326,1,2,2:0:0:0:
144,216,95394,1,6,2:3:0:0:
141,148,95462,1,6,2:3:0:0:
178,91,95530,69,10,2:3:0:0:
231,67,95598,1,2,2:0:0:0:
289,72,95667,1,2,2:3:0:0:
337,105,95735,1,2,2:0:0:0:
361,158,95803,1,10,2:3:0:0:
360,207,95871,1,2,0:0:0:0:
337,250,95939,1,6,2:3:0:0:
298,280,96007,1,2,2:0:0:0:
251,291,96076,5,6,2:2:0:0:
90,189,96212,1,0,0:0:0:0:
260,31,96348,1,8,3:3:0:0:
170,231,96485,2,0,P|96:281|12:235,1,189.999994926453,6|0,3:3|0:0,0:0:0:0:
94,29,96757,5,6,2:3:0:0:
93,69,96826,1,2,2:0:0:0:
92,109,96894,1,10,2:3:0:0:
91,149,96962,1,2,2:0:0:0:
90,189,97030,1,2,2:0:0:0:
89,229,97098,1,2,2:0:0:0:
88,269,97166,70,0,B|171:276|171:276|201:299|201:299|281:306,1,189.999994926453,6|0,3:3|0:0,0:0:0:0:
451,196,97439,1,8,3:3:0:0:
351,40,97576,2,0,P|256:61|229:146,1,189.999994926453,6|0,3:3|0:0,0:0:0:0:
345,353,97848,5,6,2:3:0:0:
387,303,97916,1,2,2:0:0:0:
385,238,97984,1,10,2:3:0:0:
340,192,98052,1,2,2:0:0:0:
275,188,98120,1,2,2:0:0:0:
229,141,98189,1,2,2:0:0:0:
228,76,98257,5,6,3:2:0:0:
266,34,98325,1,8,3:3:0:0:
321,21,98393,1,8,3:3:0:0:
373,41,98461,1,8,3:3:0:0:
406,86,98529,1,8,3:3:0:0:
409,142,98597,1,8,3:3:0:0:
380,190,98666,1,8,3:3:0:0:
330,215,98734,1,8,3:3:0:0:
274,207,98803,69,6,3:3:0:0:
226,154,98871,1,8,3:3:0:0:
157,146,98939,1,8,3:3:0:0:
99,184,99007,1,8,3:3:0:0:
81,252,99075,1,8,3:3:0:0:
111,315,99143,1,8,3:3:0:0:
175,342,99212,1,8,3:3:0:0:
242,321,99280,1,8,3:3:0:0:
278,261,99348,38,0,L|281:200,5,50.0000019073487,6|10|10|10|10|10,3:3|3:3|3:3|3:3|3:3|3:3,0:0:0:0:
182,268,99894,2,0,L|177:210,5,39.9999987792969,6|10|10|10|10|10,3:3|3:3|3:3|3:3|3:3|3:3,0:0:0:0:
58,98,100439,5,6,1:2:0:0:
240,188,100576,1,6,3:3:0:0:
329,6,100712,1,10,3:3:0:0:
116,46,100848,85,6,3:3:0:0:
207,91,100985,1,6,3:3:0:0:
251,0,101121,1,6,3:3:0:0:
110,156,101257,5,10,3:3:0:0:
278,304,101394,1,6,3:3:0:0:
323,84,101530,1,6,3:3:0:0:
186,171,101666,85,6,3:3:0:0:
253,230,101803,1,10,3:3:0:0:
271,142,101939,1,6,3:3:0:0:
200,373,102076,6,0,L|67:362,1,129.999994049073,6|6,3:3|3:3,0:0:0:0:
330,248,102348,2,0,L|464:260,1,129.999994049073,10|6,3:3|3:3,0:0:0:0:
210,116,102621,85,6,3:3:0:0:
302,371,102757,1,6,3:3:0:0:
35,323,102894,1,10,3:3:0:0:
196,193,103030,5,6,3:3:0:0:
242,320,103166,1,6,3:3:0:0:
108,296,103303,1,6,3:3:0:0:
224,40,103439,85,10,3:3:0:0:
184,271,103576,1,6,3:3:0:0:
4,121,103712,1,6,3:3:0:0:
176,97,103848,5,6,3:3:0:0:
158,201,103985,1,10,3:3:0:0:
77,133,104121,1,6,3:3:0:0:
374,25,104257,86,0,L|504:37,1,129.999994049073,6|6,3:3|3:3,0:0:0:0:
158,201,104530,2,0,L|28:189,1,129.999994049073,10|6,3:3|3:3,0:0:0:0:
413,127,104803,5,6,3:2:0:0:
256,247,104939,1,6,3:3:0:0:
89,140,105076,1,10,3:3:0:0:
330,87,105212,85,6,3:3:0:0:
251,147,105348,1,6,3:3:0:0:
168,93,105485,1,6,3:3:0:0:
413,127,105621,5,10,3:3:0:0:
261,347,105757,1,6,3:3:0:0:
89,140,105893,1,6,3:3:0:0:
332,137,106030,85,6,3:3:0:0:
256,247,106166,1,10,3:3:0:0:
170,143,106302,1,6,3:3:0:0:
271,16,106439,6,0,P|336:3|421:41,1,129.999994049073,6|6,3:3|3:3,0:0:0:0:
226,219,106712,2,0,P|161:232|76:194,1,129.999994049073,10|6,3:3|3:3,0:0:0:0:
73,79,106985,85,6,1:2:0:0:
271,16,107121,1,6,3:3:0:0:
226,219,107257,1,10,3:3:0:0:
168,36,107394,5,6,3:3:0:0:
260,120,107530,1,6,3:3:0:0:
141,157,107666,1,6,3:3:0:0:
184,89,107803,85,10,3:3:0:0:
187,102,107939,1,6,3:3:0:0:
27,319,108076,21,6,2:2:0:0:
36,288,108144,1,2,2:0:0:0:
59,265,108212,1,6,2:3:0:0:
89,255,108280,1,2,2:0:0:0:
121,259,108348,5,10,2:3:0:0:
155,294,108416,1,2,2:0:0:0:
200,312,108484,1,6,2:3:0:0:
248,308,108552,1,2,2:0:0:0:
290,284,108621,85,6,2:3:0:0:
320,219,108689,1,2,2:0:0:0:
323,148,108757,1,6,2:3:0:0:
298,82,108825,1,2,2:0:0:0:
249,30,108893,1,10,2:3:0:0:
184,2,108962,1,2,2:0:0:0:
113,2,109030,1,6,2:3:0:0:
48,29,109098,1,2,2:0:0:0:
6,87,109166,21,6,1:2:0:0:
148,315,109303,1,2,3:3:0:0:
275,77,109439,1,10,3:3:0:0:
10,242,109576,5,2,3:3:0:0:
280,232,109712,1,10,3:3:0:0:
137,3,109848,1,2,3:3:0:0:
88,261,109985,5,10,3:3:0:0:
259,155,110122,1,2,3:3:0:0:
80,60,110258,1,10,3:3:0:0:
204,258,110395,69,2,3:3:0:0:
197,56,110531,1,10,3:3:0:0:
25,163,110667,1,2,3:3:0:0:
280,308,110803,5,10,3:3:0:0:
268,3,110939,1,2,3:3:0:0:
356,373,111076,5,10,3:3:0:0:
341,28,111212,1,2,3:3:0:0:
428,278,111348,69,10,3:3:0:0:
190,151,111484,1,2,3:3:0:0:
418,9,111621,1,10,3:3:0:0:
272,283,111758,5,2,3:3:0:0:
263,13,111894,1,10,3:3:0:0:
502,139,112030,1,2,3:3:0:0:
243,91,112167,5,10,3:3:0:0:
444,83,112304,1,2,3:3:0:0:
349,262,112440,1,10,3:3:0:0:
341,28,112576,69,2,3:3:0:0:
448,200,112712,1,10,3:3:0:0:
246,207,112849,1,2,3:3:0:0:
495,143,112985,5,10,3:3:0:0:
117,157,113121,1,2,3:3:0:0:
463,295,113257,5,10,3:3:0:0:
48,311,113393,1,2,3:3:0:0:
115,44,113530,69,6,1:2:0:0:
325,229,113666,1,6,3:3:0:0:
510,19,113803,1,10,3:3:0:0:
214,44,113939,5,6,3:3:0:0:
319,136,114075,1,6,3:3:0:0:
411,31,114212,1,6,3:3:0:0:
164,129,114348,5,10,3:3:0:0:
333,385,114485,1,6,3:3:0:0:
471,111,114621,1,6,3:3:0:0:
243,168,114757,69,6,3:3:0:0:
327,296,114894,1,10,3:3:0:0:
396,159,115030,1,6,3:3:0:0:
313,43,115166,5,6,1:2:0:0:
330,341,115303,1,6,3:3:0:0:
470,183,115439,5,10,3:3:0:0:
172,200,115576,1,6,3:3:0:0:
400,262,115712,69,6,1:2:0:0:
243,122,115848,1,6,3:3:0:0:
57,221,115985,1,10,3:3:0:0:
336,298,116121,5,6,1:2:0:0:
232,205,116257,1,6,3:3:0:0:
109,270,116394,1,10,3:3:0:0:
389,190,116530,5,6,1:2:0:0:
86,156,116666,1,6,3:3:0:0:
210,371,116803,1,10,3:3:0:0:
320,45,116939,69,6,3:3:0:0:
116,272,117076,1,6,3:3:0:0:
415,209,117212,1,10,3:3:0:0:
136,85,117348,1,6,3:3:0:0:
288,350,117484,1,6,3:2:0:0:
320,45,117621,1,6,3:3:0:0:
116,272,117757,1,14,3:3:0:0:
256,192,117894,6,0,L|256:111,3,50.0000019073487,8|4|8|4,3:3|3:3|3:3|3:3,0:0:0:0:
260,312,118371,53,0,0:0:0:0:
260,327,118439,2,0,B|247:351|267:387|267:387|300:351|254:263|254:263|214:182|268:130|268:130|338:72|327:-55|176:-56|143:61|228:134|228:134|174:121|148:167|89:150,1,839.999974365235,6|0,1:2|0:0,0:0:0:0:
