osu file format v14

[General]
AudioFilename: audio.mp3
AudioLeadIn: 0
PreviewTime: 82439
Countdown: 0
SampleSet: Normal
StackLeniency: 0.5
Mode: 0
LetterboxInBreaks: 0
WidescreenStoryboard: 1

[Editor]
Bookmarks: 65530,82985,91712,109166,112985
DistanceSpacing: 1
BeatDivisor: 4
GridSize: 8
TimelineZoom: 3.199999

[Metadata]
Title:Preserved Valkyria
TitleUnicode:Preserved Valkyria
Artist:penoreri
ArtistUnicode:penoreri
Creator:san undertal
Version:Hyper
Source:SOUND VOLTEX III GRAVITY WARS
Tags:sdvx 3 kac konami ortlinde nblg valkyria nemsys benami
BeatmapID:1842770
BeatmapSetID:862184

[Difficulty]
HPDrainRate:4.5
CircleSize:3.6
OverallDifficulty:6.9
ApproachRate:9
SliderMultiplier:1.1
SliderTickRate:1

[Events]
//Background and Video events
0,0,"bg thing lol.jpg",0,0
//Break Periods
//Storyboard Layer 0 (Background)
//Storyboard Layer 1 (Fail)
//Storyboard Layer 2 (Pass)
//Storyboard Layer 3 (Foreground)
//Storyboard Sound Samples

[TimingPoints]
1374,387.096774193548,4,1,34,100,1,0
1761,-100,4,1,18,100,0,0
2051,-100,4,1,18,5,0,0
2148,-100,4,1,17,100,0,0
2438,-100,4,1,15,100,0,0
3019,-100,4,1,15,5,0,0
3115,-100,4,1,16,100,0,0
3503,-100,4,1,12,100,0,0
3696,-100,4,1,13,100,0,0
3986,-100,4,1,15,100,0,0
4277,-100,4,1,11,100,0,0
4664,-100,4,1,9,100,0,0
4761,-100,4,1,9,100,0,0
4857,-100,4,1,10,100,0,0
4954,-100,4,1,13,100,0,0
5051,-100,4,1,12,100,0,0
5244,-100,4,1,12,100,0,0
5341,-100,4,1,12,5,0,0
5438,-100,4,1,5,100,0,0
5632,-100,4,1,15,100,0,0
5825,-100,4,1,11,100,0,0
6019,-100,4,1,11,50,0,0
6115,-100,4,1,2,100,0,0
6212,-100,4,1,5,100,0,0
6309,-100,4,1,6,100,0,0
6406,-100,4,1,30,100,0,0
6503,-100,4,1,8,100,0,0
6599,-100,4,1,9,100,0,0
6696,-100,4,1,10,100,0,0
6793,-100,4,1,11,100,0,0
7083,-100,4,1,11,5,0,0
7180,-166.666666666667,4,1,10,100,0,0
7470,-100,4,1,10,5,0,0
7567,-100,4,1,9,100,0,0
7761,-100,4,1,6,100,0,0
7954,-100,4,1,10,100,0,0
8148,-100,4,1,6,100,0,0
8244,-100,4,1,10,100,0,0
8341,-100,4,1,11,100,0,0
8438,-100,4,1,4,100,0,0
8535,-100,4,1,6,100,0,0
8632,-100,4,1,11,100,0,0
8728,-100,4,1,12,100,0,0
8825,-100,4,1,6,100,0,0
8922,-100,4,1,9,100,0,0
9019,-100,4,1,12,100,0,0
9115,-100,4,1,13,100,0,0
9212,-100,4,1,6,100,0,0
9309,-100,4,1,9,100,0,0
9406,-100,4,1,13,100,0,0
9503,-100,4,1,15,100,0,0
9599,-100,4,1,8,100,0,0
9696,-100,4,1,9,100,0,0
9793,-100,4,1,15,100,0,0
9890,-100,4,1,16,100,0,0
9986,-100,4,1,9,100,0,0
10083,-100,4,1,17,100,0,0
10180,-100,4,1,10,100,0,0
10277,-100,4,1,18,100,0,0
10373,-100,4,1,11,100,0,0
10470,-100,4,1,19,100,0,0
10567,-100,4,1,12,100,0,0
10664,-100,4,1,20,100,0,0
10793,-100,4,1,19,100,0,0
10922,-100,4,1,22,100,0,0
11051,-100,4,1,18,100,0,0
11180,-100,4,1,17,100,0,0
11309,-100,4,1,20,100,0,0
11438,-100,4,1,16,100,0,0
11567,-100,4,1,15,100,0,0
11696,-100,4,1,18,100,0,0
11825,-100,4,1,13,100,0,0
11954,-100,4,1,12,100,0,0
12083,-100,4,1,16,100,0,0
12212,-100,4,1,12,100,0,0
12406,-100,4,1,5,100,0,0
12503,-100,4,1,6,100,0,0
12599,-100,4,1,30,100,0,0
12696,-100,4,1,8,100,0,0
12793,-100,4,1,9,100,0,0
12890,-100,4,1,12,100,0,0
12986,-100,4,1,11,100,0,0
13180,-100,4,1,11,5,0,0
13373,-100,4,1,10,100,0,0
13567,-100,4,1,10,5,0,0
13664,-100,4,1,10,5,0,0
13761,-100,4,1,9,100,0,0
13857,-100,4,1,30,100,0,0
13954,-100,4,1,11,100,0,0
14051,-100,4,1,30,100,0,0
14148,-100,4,1,10,100,0,0
14244,-100,4,1,30,100,0,0
14341,-100,4,1,8,100,0,0
14438,-100,4,1,30,100,0,0
14535,-100,4,1,9,100,0,0
14728,-100,4,1,9,100,0,0
14825,-100,4,1,10,100,0,0
14922,-100,4,1,11,100,0,0
15019,-100,4,1,9,100,0,0
15115,-100,4,1,11,100,0,0
15212,-100,4,1,13,100,0,0
15309,-100,4,1,12,100,0,0
15406,-100,4,1,11,100,0,0
15503,-100,4,1,10,100,0,0
15599,-100,4,1,11,100,0,0
15696,-100,4,1,10,100,0,0
15793,-100,4,1,8,100,0,0
15890,-100,4,1,5,100,0,0
15986,-100,4,1,4,100,0,0
16083,-100,4,1,3,100,0,0
16180,-100,4,1,4,100,0,0
16277,-100,4,1,6,100,0,0
16373,-100,4,1,9,100,0,0
16470,-100,4,1,10,100,0,0
16567,-100,4,1,11,100,0,0
16664,-100,4,1,13,100,0,0
16761,-100,4,1,15,100,0,0
16857,-100,4,1,17,100,0,0
17051,-100,4,1,11,100,0,0
17148,-100,4,1,18,100,0,0
17244,-100,4,1,17,100,0,0
17341,-100,4,1,15,100,0,0
17438,-100,4,1,12,100,0,0
17535,-100,4,1,20,100,0,0
17632,-100,4,1,19,100,0,0
17728,-100,4,1,18,100,0,0
17825,-100,4,1,17,100,0,0
17922,-100,4,1,15,100,0,0
18019,-100,4,1,12,100,0,0
18115,-100,4,1,11,100,0,0
18212,-100,4,1,10,100,0,0
18309,-100,4,1,8,100,0,0
18406,-100,4,1,6,100,0,0
18503,-100,4,1,9,100,0,0
18599,-100,4,1,10,100,0,0
18696,-100,4,1,11,100,0,0
18793,-100,4,1,13,100,0,0
18890,-100,4,1,15,100,0,0
18986,-100,4,1,16,100,0,0
19083,-100,4,1,17,100,0,0
19180,-100,4,1,18,100,0,0
19277,-100,4,1,11,100,0,0
19373,-100,4,1,19,100,0,0
19470,-100,4,1,12,100,0,0
19567,-100,4,1,20,100,0,0
19664,-100,4,1,13,100,0,0
19761,-100,4,1,22,100,0,0
19857,-100,4,1,15,100,0,0
19954,-100,4,1,23,100,0,0
20019,-100,4,1,20,100,0,0
20083,-100,4,1,18,100,0,0
20148,-100,4,1,17,100,0,0
20212,-100,4,1,16,100,0,0
20277,-100,4,1,13,100,0,0
20341,-100,4,1,11,100,0,0
20406,-100,4,1,10,100,0,0
20470,-100,4,1,9,100,0,0
20535,-100,4,1,6,100,0,0
20599,-100,4,1,4,100,0,0
20664,-100,4,1,3,100,0,0
20728,-100,4,1,2,100,0,0
20825,-100,4,1,2,30,0,0
20922,-100,4,1,20,100,0,0
21019,-100,4,1,20,30,0,0
21115,-100,4,1,19,100,0,0
21212,-100,4,1,19,30,0,0
21309,-100,4,1,20,100,0,0
21406,-100,4,1,20,50,0,0
21503,-100,4,1,19,100,0,0
21599,-100,4,1,19,60,0,0
21890,-100,4,1,18,100,0,0
21986,-100,4,1,18,60,0,0
22277,-100,4,1,17,100,0,0
22373,-100,4,1,17,60,0,0
22470,-100,4,1,17,100,0,0
22664,-100,4,1,15,100,0,0
22954,-100,4,1,15,5,0,0
23051,-100,4,1,9,100,0,0
24309,-100,4,1,12,100,0,0
25083,-100,4,1,13,100,0,0
25857,-100,4,1,15,100,0,0
26148,-100,4,1,16,100,0,0
26244,-100,4,1,16,100,0,0
26632,-100,4,1,19,100,0,0
26922,-100,4,1,20,100,0,0
27406,-100,4,1,22,100,0,0
27696,-100,4,1,23,100,0,0
28180,-100,4,1,26,100,0,0
28599,-100,4,1,27,100,0,0
32244,-100,4,1,27,5,0,0
32341,-100,4,1,0,30,0,0
33115,-100,4,1,35,100,0,0
33503,-100,4,1,35,100,0,0
33793,-100,4,1,35,5,0,0
33890,-100,4,1,36,100,0,0
35051,-100,4,1,36,100,0,0
35341,-100,4,1,36,5,0,0
35438,-100,4,1,37,100,0,0
37761,-100,4,1,37,100,0,0
38051,-100,4,1,37,5,0,0
38148,-100,4,1,37,100,0,0
38535,-100,4,1,37,100,0,0
39309,-100,4,1,35,100,0,0
39599,-100,4,1,35,5,0,0
39696,-100,4,1,1,100,0,0
39986,-100,4,1,1,5,0,0
40083,-100,4,1,36,100,0,0
40373,-100,4,1,36,5,0,0
40470,-100,4,1,1,100,0,0
40761,-100,4,1,1,5,0,0
40857,-100,4,1,1,100,0,0
41632,-100,4,1,38,100,0,0
42987,-100,4,1,1,100,0,0
43180,-100,4,1,1,100,0,0
43470,-100,4,1,1,100,0,0
43761,-100,4,1,1,100,0,0
44341,-100,4,1,1,100,0,0
44470,-100,4,1,1,80,0,0
44599,-100,4,1,1,60,0,0
45503,-100,4,1,23,50,0,0
45696,-100,4,1,24,50,0,0
45890,-100,4,1,25,50,0,0
46083,-100,4,1,27,50,0,0
46277,400,4,1,26,50,1,0
46277,-100,4,1,26,50,0,0
46877,-100,4,1,26,5,0,0
47077,454.545454545455,4,1,11,40,1,0
47531,545.454545454546,4,1,10,40,1,0
47531,-100,4,1,10,40,0,0
47940,-100,4,1,10,5,0,0
48076,272.727272727273,4,1,11,100,1,0
48485,-100,4,1,10,100,0,0
48894,-100,4,1,11,100,0,0
49303,-100,4,1,10,100,0,0
49712,-100,4,1,11,100,0,0
49985,-100,4,1,12,100,0,0
50257,-100,4,1,11,100,0,0
50666,-100,4,1,10,100,0,0
51076,-100,4,1,11,100,0,0
51485,-100,4,1,10,100,0,0
51894,-100,4,1,11,100,0,0
52166,-100,4,1,15,100,0,0
52439,-100,4,1,11,100,0,0
52848,-100,4,1,10,100,0,0
53257,-100,4,1,11,100,0,0
53666,-100,4,1,10,100,0,0
54076,-100,4,1,11,100,0,0
54348,-100,4,1,12,100,0,0
54621,-100,4,1,13,100,0,0
55030,-100,4,1,12,100,0,0
55439,-100,4,1,11,100,0,0
55712,-100,4,1,10,100,0,0
55985,-100,4,1,12,100,0,0
56257,-100,4,1,15,100,0,0
56530,-100,4,1,17,100,0,0
56803,-100,4,1,18,100,0,0
56939,-100,4,1,16,100,0,0
57076,-100,4,1,13,100,0,0
57212,-100,4,1,17,100,0,0
57348,-100,4,1,15,100,0,0
57485,-100,4,1,13,100,0,0
57621,-100,4,1,18,100,0,0
57757,-100,4,1,16,100,0,0
57894,-100,4,1,13,100,0,0
58030,-100,4,1,17,100,0,0
58166,-100,4,1,15,100,0,0
58303,-100,4,1,13,100,0,0
58439,-100,4,1,18,100,0,0
58576,-100,4,1,13,100,0,0
58712,-100,4,1,19,100,0,0
58848,-100,4,1,13,100,0,0
58985,-100,4,1,18,100,0,0
59121,-100,4,1,16,100,0,0
59257,-100,4,1,13,100,0,0
59394,-100,4,1,17,100,0,0
59530,-100,4,1,15,100,0,0
59666,-100,4,1,13,100,0,0
59803,-100,4,1,18,100,0,0
59939,-100,4,1,16,100,0,0
60076,-100,4,1,13,100,0,0
60212,-100,4,1,17,100,0,0
60348,-100,4,1,15,100,0,0
60485,-100,4,1,13,100,0,0
60621,-100,4,1,18,100,0,0
60757,-100,4,1,13,100,0,0
60894,-100,4,1,22,100,0,0
61166,-100,4,1,23,100,0,0
61576,-100,4,1,20,100,0,0
61985,-100,4,1,22,100,0,0
62394,-100,4,1,19,100,0,0
62803,-100,4,1,20,100,0,0
63076,-100,4,1,17,100,0,0
63348,-100,4,1,18,100,0,0
63485,-100,4,1,17,100,0,0
63553,-100,4,1,18,100,0,0
63621,-100,4,1,17,100,0,0
63689,-100,4,1,15,100,0,0
63757,-100,4,1,12,100,0,0
63826,-100,4,1,11,100,0,0
63894,-100,4,1,10,100,0,0
63962,-100,4,1,9,100,0,0
64030,-100,4,1,10,100,0,0
64098,-100,4,1,11,100,0,0
64166,-100,4,1,10,100,0,0
64235,-100,4,1,11,100,0,0
64303,-100,4,1,12,100,0,0
64371,-100,4,1,13,100,0,0
64439,-100,4,1,12,100,0,0
64576,-100,4,1,10,100,0,0
64712,-100,4,1,11,100,0,0
64848,-100,4,1,12,100,0,0
64985,-100,4,1,13,100,0,0
65257,-100,4,1,15,100,0,0
65530,-117.647058823529,4,1,17,77,0,0
65939,-117.647058823529,4,1,15,77,0,0
66348,-117.647058823529,4,1,16,77,0,0
67166,-117.647058823529,4,1,17,77,0,0
67439,-117.647058823529,4,1,18,77,0,0
67712,-117.647058823529,4,1,22,77,0,0
67985,-117.647058823529,4,1,22,5,0,0
68530,-117.647058823529,4,1,18,77,0,0
68666,-117.647058823529,4,1,17,77,0,0
69485,-117.647058823529,4,1,16,77,0,0
69621,-117.647058823529,4,1,17,77,0,0
69757,-117.647058823529,4,1,18,77,0,0
69894,-117.647058823529,4,1,19,77,0,0
71121,-117.647058823529,4,1,20,77,0,0
71530,-117.647058823529,4,1,19,77,0,0
71803,-117.647058823529,4,1,17,77,0,0
72007,-117.647058823529,4,1,17,5,0,0
72076,-117.647058823529,4,1,19,77,0,0
72212,-117.647058823529,4,1,19,50,0,0
72348,-117.647058823529,4,1,18,77,0,0
72757,-117.647058823529,4,1,17,77,0,0
73030,-117.647058823529,4,1,18,77,0,0
73985,-117.647058823529,4,1,17,77,0,0
74257,-117.647058823529,4,1,16,77,0,0
74394,-117.647058823529,4,1,16,50,0,0
75076,-117.647058823529,4,1,17,77,0,0
75212,-117.647058823529,4,1,18,77,0,0
75348,-117.647058823529,4,1,19,77,0,0
75621,-117.647058823529,4,1,19,5,0,0
75757,-117.647058823529,4,1,20,77,0,0
76166,-117.647058823529,4,1,18,77,0,0
76439,-117.647058823529,4,1,17,77,0,0
76712,-117.647058823529,4,1,15,77,0,0
77121,-117.647058823529,4,1,12,77,0,0
77394,-117.647058823529,4,1,11,77,0,0
77530,-117.647058823529,4,1,10,77,0,0
77803,-117.647058823529,4,1,9,77,0,0
77939,-117.647058823529,4,1,10,77,0,0
78076,-117.647058823529,4,1,11,77,0,0
78212,-117.647058823529,4,1,10,77,0,0
78348,-117.647058823529,4,1,11,77,0,0
78485,-117.647058823529,4,1,12,77,0,0
78621,-117.647058823529,4,1,13,77,0,0
78757,-117.647058823529,4,1,13,50,0,0
79439,-117.647058823529,4,1,12,77,0,0
79848,-117.647058823529,4,1,11,77,0,0
79985,-117.647058823529,4,1,40,77,0,0
80121,-117.647058823529,4,1,8,77,0,0
80257,-117.647058823529,4,1,30,77,0,0
80394,-117.647058823529,4,1,4,77,0,0
80530,-117.647058823529,4,1,39,77,0,0
80803,-100,4,1,13,100,0,0
81007,-100,4,1,13,66,0,0
81076,-100,4,1,13,100,0,0
81416,-100,4,1,13,66,0,0
81485,-100,4,1,13,100,0,0
81621,-100,4,1,31,100,0,0
81757,-100,4,1,12,100,0,0
82439,-125,4,1,20,100,0,0
82712,-100,4,1,25,100,0,0
82985,-86.9565217391304,4,1,24,100,0,1
83394,-86.9565217391304,4,1,22,100,0,1
83803,-86.9565217391304,4,1,23,100,0,1
84348,-86.9565217391304,4,1,23,100,0,1
84621,-86.9565217391304,4,1,24,100,0,1
84894,-86.9565217391304,4,1,24,100,0,1
85166,-86.9565217391304,4,1,29,100,0,1
85985,-86.9565217391304,4,1,25,100,0,1
86121,-86.9565217391304,4,1,24,100,0,1
86939,-86.9565217391304,4,1,23,100,0,1
87076,-86.9565217391304,4,1,24,100,0,1
87212,-86.9565217391304,4,1,25,100,0,1
87348,-86.9565217391304,4,1,26,100,0,1
88576,-86.9565217391304,4,1,27,100,0,1
88985,-86.9565217391304,4,1,41,100,0,1
89257,-86.9565217391304,4,1,42,100,0,1
89530,-86.9565217391304,4,1,43,100,0,1
89803,-86.9565217391304,4,1,29,100,0,1
90212,-86.9565217391304,4,1,19,100,0,1
90280,-86.9565217391304,4,1,20,100,0,1
90348,-86.9565217391304,4,1,19,100,0,1
90485,-86.9565217391304,4,1,18,100,0,1
90621,-86.9565217391304,4,1,17,100,0,1
90689,-86.9565217391304,4,1,10,100,0,1
90757,-86.9565217391304,4,1,11,100,0,1
90826,-86.9565217391304,4,1,12,100,0,1
90894,-86.9565217391304,4,1,13,100,0,1
90962,-86.9565217391304,4,1,12,100,0,1
91030,-86.9565217391304,4,1,13,100,0,1
91098,-86.9565217391304,4,1,31,100,0,1
91166,-86.9565217391304,4,1,16,100,0,1
91235,-86.9565217391304,4,1,15,100,0,1
91303,-86.9565217391304,4,1,16,100,0,1
91371,-86.9565217391304,4,1,17,100,0,1
91439,-86.9565217391304,4,1,18,100,0,1
91507,-86.9565217391304,4,1,17,100,0,1
91576,-86.9565217391304,4,1,18,100,0,1
91644,-86.9565217391304,4,1,19,100,0,1
91712,-86.9565217391304,4,1,20,100,0,1
91803,-86.9565217391304,4,1,18,100,0,1
91894,-86.9565217391304,4,1,16,100,0,1
91985,-86.9565217391304,4,1,13,100,0,1
92076,-86.9565217391304,4,1,11,100,0,1
92166,-86.9565217391304,4,1,9,100,0,1
92257,-86.9565217391304,4,1,6,100,0,1
92348,-86.9565217391304,4,1,4,100,0,1
92439,-86.9565217391304,4,1,26,100,0,1
92530,-86.9565217391304,4,1,27,100,0,1
92621,-86.9565217391304,4,1,25,100,0,1
92712,-86.9565217391304,4,1,23,100,0,1
92803,-86.9565217391304,4,1,26,100,0,1
92894,-86.9565217391304,4,1,24,100,0,1
92985,-86.9565217391304,4,1,22,100,0,1
93076,-86.9565217391304,4,1,19,100,0,1
93166,-86.9565217391304,4,1,22,100,0,1
93257,-86.9565217391304,4,1,24,100,0,1
93348,-86.9565217391304,4,1,29,100,0,1
93439,-86.9565217391304,4,1,26,100,0,1
93530,-86.9565217391304,4,1,24,100,0,1
93621,-86.9565217391304,4,1,22,100,0,1
93712,-86.9565217391304,4,1,24,100,0,1
93803,-86.9565217391304,4,1,26,100,0,1
93985,-86.9565217391304,4,1,24,100,0,1
94076,-86.9565217391304,4,1,22,100,0,1
94166,-86.9565217391304,4,1,19,100,0,1
94257,-86.9565217391304,4,1,17,100,0,1
94348,-86.9565217391304,4,1,15,100,0,1
94439,-86.9565217391304,4,1,12,100,0,1
94576,-86.9565217391304,4,1,26,100,0,1
94644,-86.9565217391304,4,1,27,100,0,1
94712,-86.9565217391304,4,1,26,100,0,1
94848,-86.9565217391304,4,1,25,100,0,1
94985,-86.9565217391304,4,1,24,100,0,1
95053,-86.9565217391304,4,1,25,100,0,1
95121,-86.9565217391304,4,1,24,100,0,1
95189,-86.9565217391304,4,1,22,100,0,1
95257,-86.9565217391304,4,1,19,100,0,1
95326,-86.9565217391304,4,1,20,100,0,1
95394,-86.9565217391304,4,1,19,100,0,1
95462,-86.9565217391304,4,1,18,100,0,1
95530,-86.9565217391304,4,1,17,100,0,1
95598,-86.9565217391304,4,1,18,100,0,1
95666,-86.9565217391304,4,1,17,100,0,1
95735,-86.9565217391304,4,1,15,100,0,1
95803,-86.9565217391304,4,1,13,100,0,1
95871,-86.9565217391304,4,1,11,100,0,1
95939,-86.9565217391304,4,1,10,100,0,1
96007,-86.9565217391304,4,1,9,100,0,1
96076,-86.9565217391304,4,1,9,100,0,1
96485,-86.9565217391304,4,1,20,100,0,1
96757,-86.9565217391304,4,1,12,100,0,1
96826,-86.9565217391304,4,1,13,100,0,1
96894,-86.9565217391304,4,1,31,100,0,1
96962,-86.9565217391304,4,1,15,100,0,1
97030,-86.9565217391304,4,1,16,100,0,1
97098,-86.9565217391304,4,1,17,100,0,1
97166,-86.9565217391304,4,1,19,100,0,1
97576,-86.9565217391304,4,1,22,100,0,1
97848,-86.9565217391304,4,1,15,100,0,1
97916,-86.9565217391304,4,1,16,100,0,1
97985,-86.9565217391304,4,1,17,100,0,1
98053,-86.9565217391304,4,1,18,100,0,1
98121,-86.9565217391304,4,1,19,100,0,1
98189,-86.9565217391304,4,1,20,100,0,1
98257,-86.9565217391304,4,1,23,100,0,1
98803,-86.9565217391304,4,1,27,100,0,1
99348,-86.9565217391304,4,1,26,100,0,1
99439,-86.9565217391304,4,1,24,100,0,1
99530,-86.9565217391304,4,1,22,100,0,1
99621,-86.9565217391304,4,1,19,100,0,1
99712,-86.9565217391304,4,1,22,100,0,1
99803,-86.9565217391304,4,1,24,100,0,1
99894,-100,4,1,25,100,0,0
99985,-100,4,1,22,100,0,0
100076,-100,4,1,19,100,0,0
100166,-100,4,1,18,100,0,0
100257,-100,4,1,19,100,0,0
100348,-100,4,1,22,100,0,0
100439,-100,4,1,18,100,0,0
100848,-100,4,1,17,100,0,0
101257,-100,4,1,18,100,0,0
101666,-100,4,1,17,100,0,0
102076,-100,4,1,18,100,0,0
102348,-100,4,1,19,100,0,0
102621,-100,4,1,18,100,0,0
103030,-100,4,1,17,100,0,0
103439,-100,4,1,18,100,0,0
103848,-100,4,1,17,100,0,0
104257,-100,4,1,18,100,0,0
104530,-100,4,1,22,100,0,0
104803,-100,4,1,18,100,0,0
105212,-100,4,1,17,100,0,0
105621,-100,4,1,18,100,0,0
106030,-100,4,1,17,100,0,0
106439,-100,4,1,18,100,0,0
106712,-100,4,1,19,100,0,0
106985,-100,4,1,20,100,0,0
107394,-100,4,1,19,100,0,0
107803,-100,4,1,18,100,0,0
108076,-100,4,1,10,100,0,0
108144,-100,4,1,9,100,0,0
108212,-100,4,1,10,100,0,0
108280,-100,4,1,11,100,0,0
108348,-100,4,1,12,100,0,0
108416,-100,4,1,11,100,0,0
108485,-100,4,1,12,100,0,0
108553,-100,4,1,13,100,0,0
108621,-100,4,1,31,100,0,0
108689,-100,4,1,13,100,0,0
108757,-100,4,1,31,100,0,0
108826,-100,4,1,15,100,0,0
108894,-100,4,1,16,100,0,0
108962,-100,4,1,15,100,0,0
109030,-100,4,1,16,100,0,0
109098,-100,4,1,17,100,0,0
109166,-86.9565217391304,4,1,18,100,0,1
109303,-86.9565217391304,4,1,16,100,0,1
109439,-86.9565217391304,4,1,13,100,0,1
109576,-86.9565217391304,4,1,17,100,0,1
109712,-86.9565217391304,4,1,15,100,0,1
109848,-86.9565217391304,4,1,13,100,0,1
109985,-86.9565217391304,4,1,18,100,0,1
110121,-86.9565217391304,4,1,16,100,0,1
110257,-86.9565217391304,4,1,13,100,0,1
110394,-86.9565217391304,4,1,17,100,0,1
110530,-86.9565217391304,4,1,15,100,0,1
110666,-86.9565217391304,4,1,13,100,0,1
110803,-86.9565217391304,4,1,18,100,0,1
110939,-86.9565217391304,4,1,13,100,0,1
111076,-86.9565217391304,4,1,19,100,0,1
111212,-86.9565217391304,4,1,13,100,0,1
111348,-86.9565217391304,4,1,18,100,0,1
111485,-86.9565217391304,4,1,16,100,0,1
111621,-86.9565217391304,4,1,13,100,0,1
111757,-86.9565217391304,4,1,17,100,0,1
111894,-86.9565217391304,4,1,15,100,0,1
112030,-86.9565217391304,4,1,13,100,0,1
112166,-86.9565217391304,4,1,18,100,0,1
112303,-86.9565217391304,4,1,16,100,0,1
112439,-86.9565217391304,4,1,13,100,0,1
112576,-86.9565217391304,4,1,17,100,0,1
112712,-86.9565217391304,4,1,15,100,0,1
112848,-86.9565217391304,4,1,13,100,0,1
112985,-86.9565217391304,4,1,18,100,0,1
113121,-86.9565217391304,4,1,13,100,0,1
113257,-86.9565217391304,4,1,22,100,0,1
113394,-86.9565217391304,4,1,15,100,0,1
113530,-86.9565217391304,4,1,23,100,0,1
113939,-86.9565217391304,4,1,20,100,0,1
114348,-86.9565217391304,4,1,22,100,0,1
114757,-86.9565217391304,4,1,19,100,0,1
115166,-86.9565217391304,4,1,20,100,0,1
115303,-86.9565217391304,4,1,13,100,0,1
115439,-86.9565217391304,4,1,17,100,0,1
115576,-86.9565217391304,4,1,13,100,0,1
115712,-86.9565217391304,4,1,18,100,0,1
115848,-86.9565217391304,4,1,16,100,0,1
115985,-86.9565217391304,4,1,13,100,0,1
116121,-86.9565217391304,4,1,17,100,0,1
116257,-86.9565217391304,4,1,15,100,0,1
116394,-86.9565217391304,4,1,13,100,0,1
116530,-86.9565217391304,4,1,18,100,0,1
116666,-86.9565217391304,4,1,15,100,0,1
116803,-86.9565217391304,4,1,13,100,0,1
116939,-86.9565217391304,4,1,27,100,0,1
117076,-86.9565217391304,4,1,26,100,0,1
117212,-86.9565217391304,4,1,25,100,0,1
117348,-86.9565217391304,4,1,24,100,0,1
117485,-86.9565217391304,4,1,22,100,0,1
117621,-86.9565217391304,4,1,19,100,0,1
117757,-86.9565217391304,4,1,18,100,0,1
117894,-100,4,1,1,100,0,0
118439,-100,4,1,33,100,0,0
118507,-100,4,1,33,5,0,0

[Colours]
Combo1 : 198,151,204
Combo2 : 202,230,251
Combo3 : 154,189,248
Combo4 : 251,145,145
Combo5 : 245,143,118
Combo6 : 241,201,107
Combo7 : 201,179,232

[HitObjects]
256,76,1374,5,6,1:2:0:0:
256,76,1761,6,0,L|263:159,1,82.5,2|0,2:2|0:0,0:0:0:0:
313,218,2148,2,0,P|353:191|398:189,2,82.5,2|2|2,2:0|2:0|2:0,0:0:0:0:
382,303,3115,1,2,2:0:0:0:
382,303,3503,85,2,2:0:0:0:
298,337,3696,2,0,L|195:321,1,82.5,2|2,2:0|2:0,0:0:0:0:
111,366,4277,1,2,2:0:0:0:
111,366,4664,5,2,2:0:0:0:
103,339,4760,1,2,2:0:0:0:
99,312,4857,1,2,2:0:0:0:
99,285,4954,1,2,2:0:0:0:
104,257,5051,2,0,L|141:135,1,110,2|2,2:0|2:0,0:0:0:0:
92,58,5632,85,2,2:0:0:0:
215,141,5825,1,2,2:0:0:0:
215,141,6115,6,0,L|216:182,6,27.5,2|2|2|2|2|2|2,2:0|2:0|2:0|2:0|2:0|2:0|2:0,0:0:0:0:
223,109,6793,2,0,P|255:88|306:88,1,82.5,2|0,2:0|0:0,0:0:0:0:
368,126,7180,86,0,L|373:179,1,49.4999984893799,6|0,2:3|2:0,0:0:0:0:
399,209,7567,22,0,P|427:237|438:268,2,55,6|2|2,1:2|2:2|2:3,0:0:0:0:
294,280,8148,6,0,L|292:322,2,27.5,2|2|2,2:2|3:3|2:3,0:0:0:0:
199,281,8535,2,0,L|182:319,2,27.5,2|2|2,2:0|3:2|2:3,0:0:0:0:
117,213,8922,2,0,L|75:234,2,27.5,2|2|2,2:0|3:2|2:3,0:0:0:0:
135,96,9309,5,2,2:0:0:0:
111,81,9405,1,2,3:2:0:0:
88,66,9502,1,2,2:3:0:0:
307,72,9696,1,2,2:0:0:0:
317,46,9792,1,2,3:2:0:0:
328,21,9890,69,2,3:2:0:0:
419,169,10083,1,2,3:2:0:0:
271,260,10277,1,2,3:2:0:0:
180,112,10470,1,2,3:2:0:0:
299,140,10664,38,0,L|306:186,2,36.6666666666667,2|2|2,2:0|2:0|2:0,0:0:0:0:
385,204,11051,2,0,L|368:247,2,36.6666666666667,2|2|2,2:0|2:0|2:0,0:0:0:0:
435,278,11438,2,0,L|404:312,2,36.6666666666667,2|2|2,2:0|2:0|2:0,0:0:0:0:
452,328,11825,2,0,L|415:357,2,36.6666666666667,2|2|2,2:2|2:2|2:2,0:0:0:0:
451,368,12212,1,2,2:0:0:0:
332,304,12406,21,2,2:0:0:0:
308,290,12502,1,2,2:0:0:0:
282,280,12599,1,2,2:0:0:0:
255,276,12696,1,2,2:0:0:0:
227,276,12793,1,2,2:0:0:0:
201,282,12889,1,2,2:0:0:0:
175,292,12986,6,0,P|132:308|92:306,1,82.5,2|0,2:0|0:0,0:0:0:0:
66,274,13373,2,0,P|88:233|84:177,1,82.5,2|0,2:0|0:0,0:0:0:0:
56,131,13761,86,0,P|28:141|-8:142,2,55,6|2|2,1:2|2:0|2:0,0:0:0:0:
131,60,14341,1,2,2:0:0:0:
154,160,14535,1,2,2:0:0:0:
230,91,14728,21,2,2:0:0:0:
254,79,14824,1,2,2:0:0:0:
281,73,14921,1,2,2:0:0:0:
309,73,15018,1,2,2:0:0:0:
335,80,15115,1,2,2:0:0:0:
360,92,15211,1,2,2:0:0:0:
381,109,15309,6,0,L|387:139,3,27.5,2|2|2|2,2:0|2:0|2:0|2:0,0:0:0:0:
459,171,15696,2,0,L|444:197,3,27.5,2|2|2|2,2:0|2:0|2:0|2:0,0:0:0:0:
478,268,16083,2,0,L|449:279,3,27.5,2|2|2|2,2:0|2:0|2:0|2:0,0:0:0:0:
430,354,16470,1,2,2:0:0:0:
405,341,16566,1,2,2:0:0:0:
379,332,16663,1,2,2:0:0:0:
352,327,16760,1,2,2:0:0:0:
325,327,16857,2,0,L|232:342,1,82.5,2|2,2:0|2:0,0:0:0:0:
157,333,17244,6,0,L|117:338,3,27.5,2|2|2|2,2:0|2:0|2:0|2:0,0:0:0:0:
97,263,17632,2,0,L|63:241,3,27.5,2|2|2|2,2:0|2:0|2:0|2:0,0:0:0:0:
96,170,18019,2,0,L|84:131,3,27.5,2|2|2|2,2:0|2:0|2:0|2:0,0:0:0:0:
177,215,18406,1,2,2:0:0:0:
241,105,18599,37,2,2:0:0:0:
241,105,18696,1,2,2:0:0:0:
241,105,18793,2,0,L|282:97,3,27.5,2|2|2|2,2:0|2:0|2:0|2:0,0:0:0:0:
350,31,19180,22,0,P|372:64|380:95,1,55,2|2,2:0|2:0,0:0:0:0:
446,134,19567,2,0,P|441:173|427:202,1,55,2|2,2:0|2:0,0:0:0:0:
371,279,19954,6,0,L|375:305,12,18.3333333333333,6|2|2|2|2|2|2|2|2|2|2|2|2,1:2|2:0|2:0|2:0|2:0|2:0|2:0|2:0|2:0|2:0|2:0|2:0|2:0,0:0:0:0:
289,327,20922,22,0,P|257:315|217:313,1,55,2|2,2:0|2:0,0:0:0:0:
148,322,21309,1,2,2:0:0:0:
47,270,21503,6,0,B|26:236|26:236|47:145,2,110,6|2|2,1:2|2:0|2:0,0:0:0:0:
128,217,22470,2,0,B|174:206|174:206|205:174,1,82.5,4|4,1:1|1:1,0:0:0:0:
243,70,23051,6,0,L|292:77,3,27.5,10|10|10|2,3:3|3:3|3:3|3:3,0:0:0:0:
341,125,23535,1,2,3:3:0:0:
282,190,23728,2,0,L|285:239,1,27.5,2|10,3:3|3:3,0:0:0:0:
344,281,24019,2,0,L|347:330,1,27.5,2|10,3:3|3:3,0:0:0:0:
280,367,24309,6,0,P|237:353|206:353,1,55,2|2,3:3|3:3,0:0:0:0:
139,356,24696,2,0,L|106:363,2,27.5,10|10|10,3:3|3:3|3:3,0:0:0:0:
175,275,25083,1,2,3:3:0:0:
125,202,25277,2,0,L|124:160,1,27.5,2|10,3:3|3:3,0:0:0:0:
179,105,25567,2,0,L|178:63,1,27.5,2|10,3:3|3:3,0:0:0:0:
108,23,25857,1,2,3:3:0:0:
50,90,26051,5,2,3:3:0:0:
50,90,26148,2,0,L|54:136,3,27.5,6|10|10|10,3:2|3:3|3:3|3:3,0:0:0:0:
10,195,26632,1,2,3:3:0:0:
45,275,26825,2,0,L|89:271,1,27.5,2|10,3:3|3:3,0:0:0:0:
147,225,27115,2,0,L|191:221,1,27.5,2|10,3:3|3:3,0:0:0:0:
258,251,27406,1,2,3:3:0:0:
330,201,27599,5,2,3:3:0:0:
330,201,27696,2,0,L|330:156,3,27.5,6|10|10|2,3:2|3:3|3:3|3:3,0:0:0:0:
401,122,28180,1,2,3:3:0:0:
455,190,28373,1,2,3:3:0:0:
455,190,28470,22,0,L|459:234,2,36.6666666666667,14|10|10,3:3|3:3|3:3,0:0:0:0:
484,105,28857,2,0,L|480:61,2,36.6666666666667,14|10|10,3:3|3:3|3:3,0:0:0:0:
256,192,29244,12,2,32341,2:2:0:0:
178,184,33115,54,0,B|134:146|134:146|285:168,1,192.5,6|0,1:2|2:0,0:0:0:0:
284,248,33890,6,0,B|379:232|391:64|254:45|203:101|203:101|252:124|267:166,1,412.5,2|0,2:2|2:0,0:0:0:0:
376,47,35438,6,0,B|440:120|416:210|416:210|425:202|425:202|447:270|415:338|415:338|412:316|412:316|346:301|375:366|287:346|287:346|254:379|209:366|209:366|188:331|163:288|125:285|97:303|97:303|127:312|143:335,1,770,2|8,2:2|1:3,0:0:0:0:
142,333,38535,70,0,L|144:361,11,18.3333333333333,8|4|4|4|4|4|4|4|4|4|4|4,3:3|3:3|3:3|3:3|3:3|3:3|3:3|3:3|3:3|3:3|3:3|3:3,0:0:0:0:
141,303,39309,6,0,P|120:239|145:183,2,110,6|2|6,1:2|2:3|1:2,0:0:0:0:
234,239,40470,2,0,B|259:228|259:228|313:245,1,82.5,2|0,2:3|0:0,0:0:0:0:
337,273,40857,6,0,L|336:358,2,82.5,8|4|12,3:3|3:3|3:3,0:0:0:0:
382,149,41632,1,6,1:2:0:0:
256,192,41728,12,0,44728,0:0:0:0:
301,351,45503,38,0,L|292:286,1,55,2|2,2:0|2:0,0:0:0:0:
214,292,45890,2,0,L|223:227,1,55,2|2,2:0|2:0,0:0:0:0:
283,189,46277,1,2,2:0:0:0:
283,189,47077,6,0,P|234:171|166:192,1,110,2|2,2:0|2:0,0:0:0:0:
179,183,48076,53,6,2:2:0:0:
155,107,48212,1,2,2:2:0:0:
131,31,48348,1,2,2:2:0:0:
53,76,48485,2,0,P|22:77|-6:86,2,55,2|2|2,2:2|2:2|2:2,0:0:0:0:
163,115,48894,5,2,2:2:0:0:
239,91,49030,1,2,2:2:0:0:
315,67,49166,1,2,2:2:0:0:
412,97,49303,2,0,P|428:122|437:151,2,55,2|2|2,2:2|2:2|2:2,0:0:0:0:
331,167,49712,86,0,L|323:228,1,55,2|2,2:2|2:2,0:0:0:0:
390,263,49985,2,0,L|382:324,1,55,2|2,2:2|2:2,0:0:0:0:
276,357,50257,5,2,2:2:0:0:
196,346,50393,1,2,2:2:0:0:
117,336,50529,1,2,2:2:0:0:
26,338,50666,2,0,P|16:374|3:387,2,55,2|2|2,2:2|2:2|2:2,0:0:0:0:
0,241,51076,85,2,2:2:0:0:
80,230,51212,1,2,2:2:0:0:
159,220,51348,1,2,2:2:0:0:
234,153,51485,2,0,P|255:124|281:102,2,55,2|2|2,2:2|2:2|2:2,0:0:0:0:
303,245,51894,6,0,L|370:231,1,55,2|2,2:2|2:2,0:0:0:0:
399,164,52166,2,0,L|466:150,1,55,2|2,2:2|2:2,0:0:0:0:
342,89,52439,85,6,2:2:0:0:
262,78,52575,1,2,2:2:0:0:
183,68,52711,1,2,2:2:0:0:
103,24,52848,2,0,P|85:4|58:-9,2,55,2|2|2,2:2|2:2|2:2,0:0:0:0:
125,132,53257,5,2,2:2:0:0:
114,211,53393,1,2,2:2:0:0:
104,290,53529,1,2,2:2:0:0:
176,346,53666,2,0,P|201:335|228:332,2,55,2|2|2,2:2|2:2|2:2,0:0:0:0:
21,298,54076,86,0,P|19:258|34:231,1,55,6|2,2:2|2:2,0:0:0:0:
0,151,54348,2,0,P|33:129|64:128,1,55,2|2,2:2|2:2,0:0:0:0:
136,67,54621,6,0,L|198:72,1,55,6|2,2:2|2:2,0:0:0:0:
272,77,54894,1,2,2:2:0:0:
169,148,55030,2,0,L|231:153,1,55,2|2,2:2|2:2,0:0:0:0:
305,158,55303,1,2,2:2:0:0:
245,262,55439,1,2,2:2:0:0:
243,342,55576,1,2,2:2:0:0:
121,296,55712,38,0,P|79:280|50:277,1,55,6|10,2:2|3:3,0:0:0:0:
167,216,55985,2,0,P|159:171|147:145,1,55,2|10,2:3|3:3,0:0:0:0:
285,190,56257,2,0,P|319:161|336:138,1,55,2|10,2:3|3:3,0:0:0:0:
377,329,56530,1,10,2:2:0:0:
377,329,56803,6,0,L|306:318,1,55,6|6,1:2|1:3,0:0:0:0:
235,336,57076,1,10,1:3:0:0:
211,251,57212,2,0,L|140:240,1,55,6|6,1:3|1:3,0:0:0:0:
69,258,57485,1,6,1:3:0:0:
102,177,57621,6,0,L|112:112,1,55,10|6,1:3|1:3,0:0:0:0:
83,38,57894,1,6,1:3:0:0:
169,54,58030,2,0,L|240:43,1,55,6|10,1:3|1:3,0:0:0:0:
311,61,58303,1,6,1:3:0:0:
393,32,58439,70,0,P|412:65|414:95,1,55,6|6,1:3|1:3,0:0:0:0:
470,183,58712,2,0,P|450:215|425:232,1,55,10|6,1:3|1:3,0:0:0:0:
392,301,58985,6,0,L|314:292,1,55,6|6,1:3|1:3,0:0:0:0:
252,317,59257,1,10,1:3:0:0:
280,233,59394,2,0,L|289:155,1,55,6|6,1:3|1:3,0:0:0:0:
264,93,59666,1,6,1:3:0:0:
182,126,59803,6,0,L|115:132,1,55,10|6,1:3|1:3,0:0:0:0:
50,86,60076,1,6,1:3:0:0:
18,167,60212,2,0,L|26:237,1,55,6|10,1:3|1:3,0:0:0:0:
90,279,60485,1,6,1:3:0:0:
47,355,60621,70,0,P|92:362|116:378,1,55,6|6,1:3|1:3,0:0:0:0:
178,252,60894,2,0,P|194:294|192:323,1,55,10|6,1:3|1:3,0:0:0:0:
268,351,61166,5,6,1:2:0:0:
290,265,61303,1,6,1:3:0:0:
312,179,61439,1,10,1:3:0:0:
286,94,61576,2,0,L|230:99,1,55,6|6,1:3|1:3,0:0:0:0:
143,105,61848,1,6,1:3:0:0:
62,68,61985,5,10,1:3:0:0:
71,157,62122,1,6,1:3:0:0:
80,245,62258,1,6,1:3:0:0:
53,328,62394,2,0,L|109:323,1,55,6|10,1:3|1:3,0:0:0:0:
196,317,62666,1,6,1:3:0:0:
301,364,62803,70,0,P|318:311|317:286,1,55,6|6,1:2|1:3,0:0:0:0:
425,243,63076,2,0,P|395:195|375:180,1,55,6|6,1:2|1:3,0:0:0:0:
390,109,63348,5,6,1:2:0:0:
314,62,63485,1,2,3:3:0:0:
314,62,63553,1,2,3:2:0:0:
314,62,63621,2,0,L|277:68,7,27.5,10|2|6|2|2|2|0|0,3:3|3:2|3:3|3:2|3:2|3:2|0:0|0:0,0:0:0:0:
265,52,64166,2,0,P|223:41|194:39,1,55,6|2,3:3|3:2,0:0:0:0:
111,49,64439,6,0,P|114:81|115:120,1,55,10|6,3:3|1:3,0:0:0:0:
59,165,64712,2,0,P|55:197|55:236,1,55,6|10,1:3|1:3,0:0:0:0:
112,284,64985,6,0,P|159:267|220:284,1,110,10|10,3:3|3:3,0:0:0:0:
297,365,65530,22,0,P|324:326|316:231,2,140.250002675057,2|2|2,2:2|2:2|2:2,0:0:0:0:
297,365,66894,2,0,P|260:359|207:373,2,93.500001783371,2|2|2,2:2|2:2|2:2,0:0:0:0:
404,379,67712,6,0,P|439:329|432:286,1,93.500001783371,2|0,2:2|0:0,0:0:0:0:
437,298,68530,86,0,L|444:243,1,46.7500008916855,2|2,2:2|2:2,0:0:0:0:
442,251,69485,2,0,L|485:232,2,46.7500008916855,2|2|2,2:2|2:2|2:2,0:0:0:0:
363,232,69894,2,0,L|306:219,1,46.7500008916855,2|2,2:2|2:2,0:0:0:0:
295,150,70166,2,0,L|334:107,1,46.7500008916855,2|2,2:2|2:2,0:0:0:0:
400,132,70439,2,0,L|417:187,1,46.7500008916855,2|2,2:2|2:2,0:0:0:0:
367,236,70712,2,0,L|354:293,1,46.7500008916855,2|2,2:2|2:2,0:0:0:0:
239,353,71121,6,0,L|193:342,1,46.7500008916855,2|2,2:2|2:2,0:0:0:0:
193,342,71530,2,0,P|154:342|99:355,1,93.500001783371,2|2,2:2|2:2,0:0:0:0:
101,354,72076,85,2,2:2:0:0:
30,222,72348,2,0,L|38:162,1,46.7500008916855,2|2,2:2|2:2,0:0:0:0:
36,175,72757,2,0,P|71:188|133:176,1,93.500001783371,2|2,2:2|2:2,0:0:0:0:
169,115,73712,6,0,P|220:95|265:105,1,93.500001783371,2|2,2:2|2:2,0:0:0:0:
256,101,74257,1,2,2:2:0:0:
310,172,74939,86,0,L|314:228,2,46.7500008916855,2|2|2,2:2|2:2|2:2,0:0:0:0:
341,96,75348,2,0,P|395:80|443:100,1,93.500001783371,2|0,2:2|2:0,0:0:0:0:
488,142,75757,1,2,2:2:0:0:
436,245,76166,6,0,L|447:342,1,93.500001783371,2|2,2:2|2:2,0:0:0:0:
338,371,76712,2,0,P|304:361|283:360,1,46.7500008916855,2|2,2:2|2:2,0:0:0:0:
159,339,77121,86,0,L|148:389,2,46.7500008916855,2|2|2,2:2|2:2|2:2,0:0:0:0:
183,262,77530,1,2,2:2:0:0:
74,192,77803,6,0,P|63:159|67:131,1,46.7500008916855,2|2,2:2|2:2,0:0:0:0:
137,99,78076,2,0,P|167:82|195:81,1,46.7500008916855,2|2,2:2|2:2,0:0:0:0:
253,29,78348,1,2,2:2:0:0:
338,68,78485,1,2,2:2:0:0:
430,28,78621,86,0,P|435:103|429:175,1,140.250002675057,2|0,2:2|2:0,0:0:0:0:
334,261,79439,6,0,L|339:319,1,46.7500008916855,2|2,2:2|2:2,0:0:0:0:
338,307,79848,2,0,P|299:309|273:319,1,46.7500008916855,2|2,2:2|2:2,0:0:0:0:
217,351,80121,1,2,2:2:0:0:
125,289,80257,2,0,L|75:298,2,46.7500008916855,2|2|2,2:2|2:2|2:2,0:0:0:0:
279,75,80803,54,0,P|208:82|166:110,1,110,6|8,3:2|3:3,0:0:0:0:
122,176,81212,2,0,P|180:186|230:226,1,110,4|8,3:2|3:3,0:0:0:0:
251,291,81621,1,6,3:3:0:0:
309,230,81757,2,0,L|425:222,2,110,2|8|8,0:2|3:3|3:3,0:0:0:0:
251,291,82439,22,0,P|216:296|247:281,1,88,2|2,2:0|2:0,0:0:0:0:
54,222,82985,38,0,P|65:162|130:124,1,126.500002412796,6|8,3:2|3:3,0:0:0:0:
163,33,83394,6,0,P|223:22|281:70,1,126.500002412796,6|8,3:3|3:3,0:0:0:0:
425,86,83803,70,0,B|419:163|419:163|430:184|430:184|422:274,1,189.750003619194,6|4,3:2|3:3,0:0:0:0:
343,344,84348,6,0,P|312:331|277:327,1,63.250001206398,6|2,3:3|3:3,0:0:0:0:
247,245,84621,2,0,P|217:260|191:284,1,63.250001206398,6|6,3:3|3:3,0:0:0:0:
109,254,84894,2,0,P|101:286|103:321,1,63.250001206398,10|2,3:3|3:3,0:0:0:0:
26,169,85166,6,0,B|39:127|39:127|26:24,2,126.500002412796,6|0|4,3:3|0:0|3:3,0:0:0:0:
155,85,85985,69,10,3:3:0:0:
236,110,86121,2,0,B|279:89|279:89|385:108,2,126.500002412796,2|0|0,0:2|0:0|0:0,0:0:0:0:
161,261,86939,5,6,3:3:0:0:
247,245,87076,1,10,3:3:0:0:
333,229,87212,1,6,3:3:0:0:
427,242,87348,6,0,P|434:203|418:168,1,63.250001206398,6|2,3:2|3:3,0:0:0:0:
496,133,87621,2,0,P|468:104|430:97,1,63.250001206398,10|6,3:3|3:3,0:0:0:0:
446,13,87894,2,0,P|406:19|379:46,1,63.250001206398,6|2,3:3|3:3,0:0:0:0:
308,60,88166,1,10,3:3:0:0:
206,26,88303,2,0,P|172:34|137:55,1,63.250001206398,6|0,3:3|0:0,0:0:0:0:
39,60,88576,70,0,L|45:136,1,63.250001206398,6|10,3:3|3:3,0:0:0:0:
141,220,88985,6,0,B|220:203|203:254|289:238,2,126.500002412796,6|10|6,3:3|3:3|3:3,0:0:0:0:
22,328,89803,5,10,3:3:0:0:
96,368,89939,2,0,L|165:359,1,63.250001206398,6|0,3:3|0:0,0:0:0:0:
326,331,90212,70,0,L|323:376,2,31.625000603199,6|2|10,3:3|0:2|3:3,0:0:0:0:
382,262,90485,1,2,0:2:0:0:
300,184,90621,38,0,L|257:199,3,31.625000603199,6|2|6|2,3:3|2:2|3:3|2:2,0:0:0:0:
338,154,90894,2,0,L|381:169,3,31.625000603199,10|2|6|2,3:3|2:2|3:3|2:2,0:0:0:0:
300,124,91166,2,0,L|257:139,3,31.625000603199,6|2|6|2,3:3|2:2|3:3|2:2,0:0:0:0:
338,94,91439,2,0,L|381:109,3,31.625000603199,10|2|14|2,3:3|2:2|1:3|2:2,0:0:0:0:
297,57,91712,54,0,P|225:46|166:78,1,126.500002412796,6|10,3:3|3:3,0:0:0:0:
121,136,92121,1,0,0:0:0:0:
52,73,92257,2,0,L|48:17,2,42.166667470932,10|10|10,3:3|3:3|3:3,0:0:0:0:
12,162,92530,2,0,P|16:217|39:259,1,84.3333349418641,10|6,3:3|3:3,0:0:0:0:
88,311,92803,6,0,L|80:356,5,42.166667470932,10|10|10|6|6|6,3:3|3:3|3:3|3:3|3:3|3:3,0:0:0:0:
177,290,93348,2,0,L|169:245,5,42.166667470932,10|10|10|6|6|6,3:3|3:3|3:3|3:3|3:3|3:3,0:0:0:0:
257,344,93894,6,0,P|328:344|373:284,1,126.500002412796,6|14,3:3|3:3,0:0:0:0:
358,219,94303,2,0,L|366:150,1,63.250001206398,0|6,0:0|3:3,0:0:0:0:
435,69,94576,70,0,L|476:66,2,31.625000603199,2|2|6,2:0|2:0|2:2,0:0:0:0:
367,35,94848,1,2,0:3:0:0:
270,86,94985,6,0,L|228:89,7,31.625000603199,6|2|2|2|10|2|6|6,2:2|2:0|2:3|2:0|2:3|2:0|2:3|2:3,0:0:0:0:
216,119,95530,2,0,L|174:122,7,31.625000603199,10|2|2|2|10|2|6|2,2:3|2:0|2:3|2:0|2:3|0:0|2:3|2:0,0:0:0:0:
146,100,96076,6,0,P|125:138|140:231,1,126.500002412796,6|8,2:2|3:3,0:0:0:0:
70,325,96485,2,0,B|157:317|157:317|174:323|174:323|261:316,1,189.750003619194,6|10,3:3|2:3,0:0:0:0:
336,342,97030,1,2,2:0:0:0:
401,287,97166,70,0,P|413:224|374:162,1,126.500002412796,6|8,3:3|3:3,0:0:0:0:
454,69,97576,2,0,B|426:52|398:51|398:51|385:69|352:79|352:79|330:69|306:70|306:70|296:78|279:83,1,189.750003619194,6|0,3:3|0:0,0:0:0:0:
208,48,98121,1,2,2:0:0:0:
88,69,98257,6,0,L|83:106,7,31.625000603199,6|8|8|8|8|8|8|8,3:2|3:3|3:3|3:3|3:3|3:3|3:3|3:3,0:0:0:0:
115,125,98803,2,0,L|120:162,7,31.625000603199,6|8|8|8|8|8|8|8,3:3|3:3|3:3|3:3|3:3|3:3|3:3|3:3,0:0:0:0:
95,206,99348,22,0,L|41:204,5,42.166667470932,6|10|10|10|10|10,3:3|3:3|3:3|3:3|3:3|3:3,0:0:0:0:
15,241,99894,2,0,L|65:241,5,36.6666666666667,6|10|10|10|10|10,3:3|3:3|3:3|3:3|3:3|3:3,0:0:0:0:
40,298,100439,6,0,L|100:305,1,55,6|6,1:2|3:3,0:0:0:0:
176,313,100712,1,10,3:3:0:0:
247,365,100848,2,0,L|304:345,1,55,6|6,3:3|3:3,0:0:0:0:
378,322,101121,1,6,3:3:0:0:
465,325,101257,86,0,P|476:351|478:384,2,55,10|6|6,3:3|3:3|3:3,0:0:0:0:
423,252,101666,1,6,3:3:0:0:
335,237,101803,1,10,3:3:0:0:
247,221,101939,1,6,3:3:0:0:
159,207,102076,6,0,L|98:222,1,55,6|6,3:3|3:3,0:0:0:0:
0,274,102348,2,0,L|61:289,1,55,10|6,3:3|3:3,0:0:0:0:
171,359,102621,86,0,L|169:286,1,55,6|6,3:3|3:3,0:0:0:0:
167,215,102894,1,10,3:3:0:0:
234,142,103030,2,0,P|279:146|301:156,2,55,6|6|6,3:3|3:3|3:3,0:0:0:0:
155,90,103439,6,0,L|82:92,1,55,10|6,3:3|3:3,0:0:0:0:
11,94,103712,1,6,3:3:0:0:
54,173,103848,2,0,P|35:198|30:228,2,55,6|10|6,3:3|3:3|3:3,0:0:0:0:
167,215,104257,86,0,L|221:209,1,55,6|6,3:3|3:3,0:0:0:0:
287,149,104530,2,0,L|341:143,1,55,10|6,3:3|3:3,0:0:0:0:
459,62,104803,6,0,L|452:122,1,55,6|6,3:2|3:3,0:0:0:0:
476,201,105076,1,10,3:3:0:0:
442,282,105212,2,0,L|375:271,1,55,6|6,3:3|3:3,0:0:0:0:
307,310,105485,1,6,3:3:0:0:
226,274,105621,86,0,L|219:340,2,55,10|6|6,3:3|3:3|3:3,0:0:0:0:
187,194,106030,1,6,3:3:0:0:
149,114,106166,1,10,3:3:0:0:
110,33,106303,1,6,3:3:0:0:
64,108,106439,6,0,P|49:145|48:175,1,55,6|6,3:3|3:3,0:0:0:0:
106,232,106712,2,0,P|121:269|122:299,1,55,10|6,3:3|3:3,0:0:0:0:
61,352,106985,86,0,P|23:354|-3:364,2,55,6|6|10,1:2|3:3|3:3,0:0:0:0:
132,288,107394,2,0,P|111:256|89:238,2,55,6|6|6,3:3|3:3|3:3,0:0:0:0:
217,324,107803,1,10,3:3:0:0:
295,307,107939,1,6,3:3:0:0:
380,350,108076,22,0,P|393:300|393:282,1,55,6|6,2:2|2:3,0:0:0:0:
473,249,108348,2,0,P|436:212|420:203,1,55,10|6,2:3|2:3,0:0:0:0:
386,105,108621,2,0,L|398:68,3,27.5,6|2|6|2,2:3|2:0|2:3|2:0,0:0:0:0:
353,70,108894,2,0,L|341:33,3,27.5,10|0|6|2,2:3|0:0|2:3|2:0,0:0:0:0:
306,42,109166,22,0,P|248:37|223:46,1,63.250001206398,6|2,1:2|3:3,0:0:0:0:
169,84,109439,1,10,3:3:0:0:
60,65,109576,6,0,L|54:1,2,63.250001206398,2|10|2,3:3|3:3|3:3,0:0:0:0:
0,138,109985,5,10,3:3:0:0:
74,197,110121,1,2,3:3:0:0:
162,162,110257,1,10,3:3:0:0:
236,221,110394,70,0,P|283:215|312:224,2,63.250001206398,2|10|2,3:3|3:3|3:3,0:0:0:0:
188,359,110803,6,0,L|179:278,1,63.250001206398,10|2,3:3|3:3,0:0:0:0:
244,229,111076,2,0,L|253:148,1,63.250001206398,10|2,3:3|3:3,0:0:0:0:
201,55,111348,6,0,P|243:44|276:47,1,63.250001206398,10|2,3:3|3:3,0:0:0:0:
352,96,111621,1,10,3:3:0:0:
452,67,111757,2,0,L|474:6,2,63.250001206398,2|10|2,3:3|3:3|3:3,0:0:0:0:
428,168,112166,69,10,3:3:0:0:
471,276,112303,1,2,3:3:0:0:
355,259,112439,1,10,3:3:0:0:
358,363,112576,6,0,P|305:354|274:362,1,63.250001206398,2|10,3:3|3:3,0:0:0:0:
206,371,112848,1,2,3:3:0:0:
107,302,112985,6,0,L|98:229,1,63.250001206398,10|2,3:3|3:3,0:0:0:0:
154,163,113257,2,0,L|194:101,1,63.250001206398,10|2,3:3|3:3,0:0:0:0:
318,31,113530,69,6,1:2:0:0:
306,124,113666,1,6,3:3:0:0:
295,218,113803,1,10,3:3:0:0:
357,305,113939,2,0,P|395:309|423:331,2,63.250001206398,6|6|6,3:3|3:3|3:3,0:0:0:0:
245,318,114348,5,10,3:3:0:0:
152,306,114484,1,6,3:3:0:0:
58,295,114621,1,6,3:3:0:0:
58,197,114757,2,0,P|20:201|-8:223,2,63.250001206398,6|10|6,3:3|3:3|3:3,0:0:0:0:
137,135,115166,6,0,P|175:123|208:127,1,63.250001206398,6|6,1:2|3:3,0:0:0:0:
249,49,115439,2,0,P|278:75|291:106,1,63.250001206398,10|6,3:3|3:3,0:0:0:0:
372,143,115712,70,0,L|361:209,2,63.250001206398,6|6|10,1:2|3:3|3:3,0:0:0:0:
456,210,116121,2,0,L|467:276,2,63.250001206398,6|6|10,1:2|3:3|3:3,0:0:0:0:
377,341,116530,1,6,1:2:0:0:
282,133,116939,5,6,3:3:0:0:
198,225,117076,1,6,3:3:0:0:
321,200,117212,1,10,3:3:0:0:
207,149,117348,1,6,3:3:0:0:
269,257,117484,1,6,3:2:0:0:
288,123,117621,1,6,3:3:0:0:
187,234,117757,1,14,3:3:0:0:
256,192,117894,2,0,L|256:150,3,36.6666666666667,8|4|8|4,3:3|3:3|3:3|3:3,0:0:0:0:
256,308,118439,53,6,1:2:0:0:
256,192,118507,12,0,122257,0:0:0:0:
