osu file format v14

[General]
AudioFilename: audio.mp3
AudioLeadIn: 0
PreviewTime: 82439
Countdown: 0
SampleSet: Normal
StackLeniency: 0.2
Mode: 0
LetterboxInBreaks: 0
WidescreenStoryboard: 1

[Editor]
Bookmarks: 26051,58712,65530,82985,91712,109166
DistanceSpacing: 1
BeatDivisor: 4
GridSize: 4
TimelineZoom: 3.199999

[Metadata]
Title:Preserved Valkyria
TitleUnicode:Preserved Valkyria
Artist:penoreri
ArtistUnicode:penoreri
Creator:san undertal
Version:Exhaust
Source:SOUND VOLTEX III GRAVITY WARS
Tags:sdvx 3 kac konami ortlinde nblg valkyria nemsys benami
BeatmapID:1810446
BeatmapSetID:862184

[Difficulty]
HPDrainRate:5
CircleSize:3.9
OverallDifficulty:7.9
ApproachRate:9.6
SliderMultiplier:1.3
SliderTickRate:1

[Events]
//Background and Video events
0,0,"bg thing lol.jpg",0,0
//Break Periods
//Storyboard Layer 0 (Background)
//Storyboard Layer 1 (Fail)
//Storyboard Layer 2 (Pass)
//Storyboard Layer 3 (Foreground)
//Storyboard Sound Samples

[TimingPoints]
1374,387.096774193548,4,1,34,100,1,0
1374,-100,4,1,34,100,0,0
1761,-100,4,1,18,100,0,0
2051,-100,4,1,18,5,0,0
2148,-100,4,1,17,100,0,0
2438,-100,4,1,15,100,0,0
3019,-100,4,1,15,5,0,0
3115,-100,4,1,16,100,0,0
3503,-100,4,1,12,100,0,0
3696,-100,4,1,13,100,0,0
3986,-100,4,1,15,100,0,0
4277,-100,4,1,11,100,0,0
4664,-100,4,1,9,100,0,0
4761,-100,4,1,9,100,0,0
4857,-100,4,1,10,100,0,0
4954,-100,4,1,13,100,0,0
5051,-100,4,1,12,100,0,0
5244,-100,4,1,12,100,0,0
5341,-100,4,1,12,5,0,0
5438,-100,4,1,5,100,0,0
5632,-100,4,1,15,100,0,0
5825,-100,4,1,11,100,0,0
6019,-100,4,1,11,50,0,0
6115,-100,4,1,2,100,0,0
6212,-100,4,1,5,100,0,0
6309,-100,4,1,6,100,0,0
6406,-100,4,1,30,100,0,0
6503,-100,4,1,8,100,0,0
6599,-100,4,1,9,100,0,0
6696,-100,4,1,10,100,0,0
6793,-100,4,1,11,100,0,0
7083,-100,4,1,11,5,0,0
7180,-200,4,1,10,100,0,0
7470,-200,4,1,10,5,0,0
7567,-100,4,1,9,100,0,0
7761,-100,4,1,6,100,0,0
7954,-100,4,1,10,100,0,0
8148,-100,4,1,6,100,0,0
8244,-100,4,1,10,100,0,0
8341,-100,4,1,11,100,0,0
8438,-100,4,1,4,100,0,0
8535,-90.9090909090909,4,1,6,100,0,0
8632,-90.9090909090909,4,1,11,100,0,0
8728,-90.9090909090909,4,1,12,100,0,0
8825,-90.9090909090909,4,1,6,100,0,0
8922,-83.3333333333333,4,1,9,100,0,0
9019,-83.3333333333333,4,1,12,100,0,0
9115,-83.3333333333333,4,1,13,100,0,0
9212,-83.3333333333333,4,1,6,100,0,0
9309,-76.9230769230769,4,1,9,100,0,0
9406,-76.9230769230769,4,1,13,100,0,0
9503,-76.9230769230769,4,1,15,100,0,0
9599,-76.9230769230769,4,1,8,100,0,0
9696,-71.4285714285714,4,1,9,100,0,0
9793,-71.4285714285714,4,1,15,100,0,0
9890,-71.4285714285714,4,1,16,100,0,0
9986,-71.4285714285714,4,1,9,100,0,0
10083,-68.9655172413793,4,1,17,100,0,0
10180,-68.9655172413793,4,1,10,100,0,0
10277,-66.6666666666667,4,1,18,100,0,0
10373,-66.6666666666667,4,1,11,100,0,0
10470,-64.5161290322581,4,1,19,100,0,0
10567,-64.5161290322581,4,1,12,100,0,0
10664,-71.4285714285714,4,1,20,100,0,0
10793,-71.4285714285714,4,1,19,100,0,0
10922,-71.4285714285714,4,1,22,100,0,0
11051,-76.9230769230769,4,1,18,100,0,0
11180,-76.9230769230769,4,1,17,100,0,0
11309,-76.9230769230769,4,1,20,100,0,0
11438,-83.3333333333333,4,1,16,100,0,0
11567,-83.3333333333333,4,1,15,100,0,0
11696,-83.3333333333333,4,1,18,100,0,0
11825,-90.9090909090909,4,1,13,100,0,0
11954,-90.9090909090909,4,1,12,100,0,0
12083,-90.9090909090909,4,1,16,100,0,0
12212,-90.9090909090909,4,1,12,100,0,0
12406,-100,4,1,5,100,0,0
12503,-100,4,1,6,100,0,0
12599,-100,4,1,30,100,0,0
12696,-100,4,1,8,100,0,0
12793,-100,4,1,9,100,0,0
12890,-100,4,1,12,100,0,0
12986,-100,4,1,11,100,0,0
13180,-100,4,1,11,5,0,0
13373,-151.515151515152,4,1,10,100,0,0
13567,-151.515151515152,4,1,10,5,0,0
13664,-151.515151515152,4,1,10,5,0,0
13761,-83.3333333333333,4,1,9,100,0,0
13857,-83.3333333333333,4,1,30,100,0,0
13954,-83.3333333333333,4,1,11,100,0,0
14051,-83.3333333333333,4,1,30,100,0,0
14148,-83.3333333333333,4,1,10,100,0,0
14244,-83.3333333333333,4,1,30,100,0,0
14341,-83.3333333333333,4,1,8,100,0,0
14438,-83.3333333333333,4,1,30,100,0,0
14535,-83.3333333333333,4,1,9,100,0,0
14728,-83.3333333333333,4,1,9,100,0,0
14825,-83.3333333333333,4,1,10,100,0,0
14922,-83.3333333333333,4,1,11,100,0,0
15019,-83.3333333333333,4,1,9,100,0,0
15115,-83.3333333333333,4,1,11,100,0,0
15212,-83.3333333333333,4,1,13,100,0,0
15309,-83.3333333333333,4,1,12,100,0,0
15406,-83.3333333333333,4,1,11,100,0,0
15503,-83.3333333333333,4,1,10,100,0,0
15599,-83.3333333333333,4,1,11,100,0,0
15696,-83.3333333333333,4,1,10,100,0,0
15793,-83.3333333333333,4,1,8,100,0,0
15890,-83.3333333333333,4,1,5,100,0,0
15986,-83.3333333333333,4,1,4,100,0,0
16083,-83.3333333333333,4,1,3,100,0,0
16180,-83.3333333333333,4,1,4,100,0,0
16277,-83.3333333333333,4,1,6,100,0,0
16373,-83.3333333333333,4,1,9,100,0,0
16470,-83.3333333333333,4,1,10,100,0,0
16567,-83.3333333333333,4,1,11,100,0,0
16664,-83.3333333333333,4,1,13,100,0,0
16761,-83.3333333333333,4,1,15,100,0,0
16857,-83.3333333333333,4,1,17,100,0,0
17051,-83.3333333333333,4,1,11,100,0,0
17148,-83.3333333333333,4,1,18,100,0,0
17244,-83.3333333333333,4,1,17,100,0,0
17341,-83.3333333333333,4,1,15,100,0,0
17438,-83.3333333333333,4,1,12,100,0,0
17535,-83.3333333333333,4,1,20,100,0,0
17632,-83.3333333333333,4,1,19,100,0,0
17728,-83.3333333333333,4,1,18,100,0,0
17825,-83.3333333333333,4,1,17,100,0,0
17922,-83.3333333333333,4,1,15,100,0,0
18019,-83.3333333333333,4,1,12,100,0,0
18115,-83.3333333333333,4,1,11,100,0,0
18212,-83.3333333333333,4,1,10,100,0,0
18309,-83.3333333333333,4,1,8,100,0,0
18406,-83.3333333333333,4,1,6,100,0,0
18503,-83.3333333333333,4,1,9,100,0,0
18599,-83.3333333333333,4,1,10,100,0,0
18696,-83.3333333333333,4,1,11,100,0,0
18793,-83.3333333333333,4,1,13,100,0,0
18890,-83.3333333333333,4,1,15,100,0,0
18986,-83.3333333333333,4,1,16,100,0,0
19083,-83.3333333333333,4,1,17,100,0,0
19180,-83.3333333333333,4,1,18,100,0,0
19277,-83.3333333333333,4,1,11,100,0,0
19373,-71.4285714285714,4,1,19,100,0,0
19470,-71.4285714285714,4,1,12,100,0,0
19567,-62.5,4,1,20,100,0,0
19664,-62.5,4,1,13,100,0,0
19761,-55.5555555555556,4,1,22,100,0,0
19857,-55.5555555555556,4,1,15,100,0,0
19954,-55.5555555555556,4,1,23,100,0,0
20019,-55.5555555555556,4,1,20,100,0,0
20083,-55.5555555555556,4,1,18,100,0,0
20148,-55.5555555555556,4,1,17,100,0,0
20212,-55.5555555555556,4,1,16,100,0,0
20277,-55.5555555555556,4,1,13,100,0,0
20341,-55.5555555555556,4,1,11,100,0,0
20406,-55.5555555555556,4,1,10,100,0,0
20470,-55.5555555555556,4,1,9,100,0,0
20535,-55.5555555555556,4,1,6,100,0,0
20599,-55.5555555555556,4,1,4,100,0,0
20664,-55.5555555555556,4,1,3,100,0,0
20728,-55.5555555555556,4,1,2,100,0,0
20825,-55.5555555555556,4,1,2,30,0,0
20922,-55.5555555555556,4,1,20,100,0,0
21019,-55.5555555555556,4,1,20,30,0,0
21115,-55.5555555555556,4,1,19,100,0,0
21212,-55.5555555555556,4,1,19,30,0,0
21309,-55.5555555555556,4,1,20,100,0,0
21406,-55.5555555555556,4,1,20,50,0,0
21503,-55.5555555555556,4,1,19,100,0,0
21599,-55.5555555555556,4,1,19,60,0,0
21890,-55.5555555555556,4,1,18,100,0,0
21986,-55.5555555555556,4,1,18,60,0,0
22277,-55.5555555555556,4,1,17,100,0,0
22373,-55.5555555555556,4,1,17,60,0,0
22470,-55.5555555555556,4,1,17,100,0,0
22664,-55.5555555555556,4,1,15,100,0,0
22954,-55.5555555555556,4,1,15,5,0,0
23051,-55.5555555555556,4,1,9,100,0,0
24309,-55.5555555555556,4,1,12,100,0,0
25083,-55.5555555555556,4,1,13,100,0,0
25857,-55.5555555555556,4,1,15,100,0,0
26148,-55.5555555555556,4,1,16,100,0,0
26632,-55.5555555555556,4,1,19,100,0,0
26922,-55.5555555555556,4,1,20,100,0,0
27406,-55.5555555555556,4,1,22,100,0,0
27696,-55.5555555555556,4,1,23,100,0,0
28180,-55.5555555555556,4,1,26,100,0,0
28599,-55.5555555555556,4,1,27,100,0,0
32244,-55.5555555555556,4,1,27,5,0,0
32341,-133.333333333333,4,1,0,30,0,0
33115,-58.8235294117647,4,1,35,100,0,0
33793,-58.8235294117647,4,1,35,5,0,0
33890,-76.9230769230769,4,1,36,100,0,0
35341,-76.9230769230769,4,1,36,5,0,0
35438,-100,4,1,37,100,0,0
37954,-100,4,1,37,100,0,0
38051,-100,4,1,37,5,0,0
38148,-100,4,1,37,100,0,0
39309,-76.9230769230769,4,1,35,100,0,0
39599,-76.9230769230769,4,1,35,5,0,0
39696,-500,4,1,1,100,0,0
39986,-500,4,1,1,5,0,0
40083,-66.6666666666667,4,1,36,100,0,0
40373,-66.6666666666667,4,1,36,5,0,0
40470,-666.666666666667,4,1,1,100,0,0
40761,-666.666666666667,4,1,1,5,0,0
40857,-200,4,1,1,100,0,0
41632,-100,4,1,38,100,0,0
42987,-66.6666666666667,4,1,1,100,0,0
43180,-83.3333333333333,4,1,1,100,0,0
43470,-100,4,1,1,100,0,0
43761,-117.647058823529,4,1,1,100,0,0
44341,-166.666666666667,4,1,1,100,0,0
44470,-166.666666666667,4,1,1,80,0,0
44599,-166.666666666667,4,1,1,60,0,0
45503,-500,4,1,23,50,0,0
45696,-500,4,1,24,50,0,0
45890,-500,4,1,25,50,0,0
46083,-500,4,1,27,50,0,0
46277,400,4,1,26,50,1,0
46277,-500,4,1,26,50,0,0
46877,-100,4,1,26,5,0,0
47077,454.545454545455,4,1,11,40,1,0
47531,545.454545454546,4,1,10,40,1,0
47531,-500,4,1,10,40,0,0
47940,-100,4,1,10,5,0,0
48076,272.727272727273,4,1,11,100,1,0
48485,-100,4,1,10,100,0,0
48894,-100,4,1,11,100,0,0
49303,-100,4,1,10,100,0,0
49712,-100,4,1,11,100,0,0
49985,-100,4,1,12,100,0,0
50257,-100,4,1,11,100,0,0
50666,-100,4,1,10,100,0,0
51076,-100,4,1,11,100,0,0
51485,-100,4,1,10,100,0,0
51894,-100,4,1,11,100,0,0
52166,-100,4,1,15,100,0,0
52439,-100,4,1,11,100,0,0
52848,-100,4,1,10,100,0,0
53257,-100,4,1,11,100,0,0
53666,-100,4,1,10,100,0,0
54076,-100,4,1,11,100,0,0
54348,-100,4,1,12,100,0,0
54621,-100,4,1,13,100,0,0
55030,-100,4,1,12,100,0,0
55439,-100,4,1,11,100,0,0
55712,-100,4,1,10,100,0,0
55985,-100,4,1,12,100,0,0
56257,-100,4,1,15,100,0,0
56530,-100,4,1,17,100,0,0
56803,-71.4285714285714,4,1,18,100,0,0
56939,-71.4285714285714,4,1,16,100,0,0
57076,-71.4285714285714,4,1,13,100,0,0
57212,-71.4285714285714,4,1,17,100,0,0
57348,-71.4285714285714,4,1,15,100,0,0
57485,-71.4285714285714,4,1,13,100,0,0
57621,-71.4285714285714,4,1,18,100,0,0
57757,-71.4285714285714,4,1,16,100,0,0
57894,-71.4285714285714,4,1,13,100,0,0
58030,-71.4285714285714,4,1,17,100,0,0
58166,-71.4285714285714,4,1,15,100,0,0
58303,-71.4285714285714,4,1,13,100,0,0
58439,-71.4285714285714,4,1,18,100,0,0
58576,-71.4285714285714,4,1,13,100,0,0
58712,-71.4285714285714,4,1,19,100,0,0
58848,-71.4285714285714,4,1,13,100,0,0
58985,-71.4285714285714,4,1,18,100,0,0
59121,-71.4285714285714,4,1,16,100,0,0
59257,-71.4285714285714,4,1,13,100,0,0
59394,-71.4285714285714,4,1,17,100,0,0
59530,-71.4285714285714,4,1,15,100,0,0
59666,-71.4285714285714,4,1,13,100,0,0
59803,-71.4285714285714,4,1,18,100,0,0
59939,-71.4285714285714,4,1,16,100,0,0
60076,-71.4285714285714,4,1,13,100,0,0
60212,-71.4285714285714,4,1,17,100,0,0
60348,-71.4285714285714,4,1,15,100,0,0
60485,-71.4285714285714,4,1,13,100,0,0
60621,-71.4285714285714,4,1,18,100,0,0
60757,-71.4285714285714,4,1,13,100,0,0
60894,-71.4285714285714,4,1,22,100,0,0
61166,-71.4285714285714,4,1,23,100,0,0
61576,-71.4285714285714,4,1,20,100,0,0
61985,-71.4285714285714,4,1,22,100,0,0
62394,-71.4285714285714,4,1,19,100,0,0
62803,-71.4285714285714,4,1,20,100,0,0
63076,-71.4285714285714,4,1,17,100,0,0
63348,-71.4285714285714,4,1,18,100,0,0
63485,-71.4285714285714,4,1,17,100,0,0
63553,-71.4285714285714,4,1,18,100,0,0
63621,-71.4285714285714,4,1,17,100,0,0
63689,-71.4285714285714,4,1,15,100,0,0
63757,-71.4285714285714,4,1,12,100,0,0
63826,-71.4285714285714,4,1,11,100,0,0
63894,-71.4285714285714,4,1,10,100,0,0
63962,-71.4285714285714,4,1,9,100,0,0
64030,-71.4285714285714,4,1,10,100,0,0
64098,-71.4285714285714,4,1,11,100,0,0
64166,-71.4285714285714,4,1,10,100,0,0
64235,-71.4285714285714,4,1,11,100,0,0
64303,-71.4285714285714,4,1,12,100,0,0
64371,-71.4285714285714,4,1,13,100,0,0
64439,-71.4285714285714,4,1,12,100,0,0
64576,-71.4285714285714,4,1,10,100,0,0
64712,-71.4285714285714,4,1,11,100,0,0
64848,-71.4285714285714,4,1,12,100,0,0
64985,-71.4285714285714,4,1,13,100,0,0
65257,-71.4285714285714,4,1,15,100,0,0
65530,-166.666666666667,4,1,17,77,0,0
65939,-166.666666666667,4,1,15,77,0,0
66348,-166.666666666667,4,1,16,77,0,0
67166,-166.666666666667,4,1,17,77,0,0
67439,-166.666666666667,4,1,18,77,0,0
67712,-166.666666666667,4,1,22,77,0,0
67985,-166.666666666667,4,1,22,5,0,0
68530,-166.666666666667,4,1,18,77,0,0
68666,-166.666666666667,4,1,17,77,0,0
69485,-166.666666666667,4,1,16,77,0,0
69621,-166.666666666667,4,1,17,77,0,0
69757,-166.666666666667,4,1,18,77,0,0
69894,-166.666666666667,4,1,19,77,0,0
71121,-166.666666666667,4,1,20,77,0,0
71530,-166.666666666667,4,1,19,77,0,0
71803,-166.666666666667,4,1,17,77,0,0
72007,-166.666666666667,4,1,17,5,0,0
72076,-166.666666666667,4,1,19,77,0,0
72212,-166.666666666667,4,1,19,50,0,0
72348,-166.666666666667,4,1,18,77,0,0
72757,-166.666666666667,4,1,17,77,0,0
73030,-166.666666666667,4,1,18,77,0,0
73985,-166.666666666667,4,1,17,77,0,0
74257,-166.666666666667,4,1,16,77,0,0
74394,-166.666666666667,4,1,16,50,0,0
75076,-166.666666666667,4,1,17,77,0,0
75212,-166.666666666667,4,1,18,77,0,0
75348,-166.666666666667,4,1,19,77,0,0
75621,-166.666666666667,4,1,19,5,0,0
75757,-166.666666666667,4,1,20,77,0,0
76166,-166.666666666667,4,1,18,77,0,0
76439,-166.666666666667,4,1,17,77,0,0
76712,-166.666666666667,4,1,15,77,0,0
77121,-166.666666666667,4,1,12,77,0,0
77394,-166.666666666667,4,1,11,77,0,0
77530,-166.666666666667,4,1,10,77,0,0
77803,-166.666666666667,4,1,9,77,0,0
77939,-166.666666666667,4,1,10,77,0,0
78076,-166.666666666667,4,1,11,77,0,0
78212,-166.666666666667,4,1,10,77,0,0
78348,-166.666666666667,4,1,11,77,0,0
78485,-166.666666666667,4,1,12,77,0,0
78621,-166.666666666667,4,1,13,77,0,0
78757,-166.666666666667,4,1,13,50,0,0
79166,-166.666666666667,4,1,13,50,0,0
79439,-166.666666666667,4,1,12,77,0,0
79848,-166.666666666667,4,1,11,77,0,0
79985,-166.666666666667,4,1,40,77,0,0
80121,-166.666666666667,4,1,8,77,0,0
80257,-166.666666666667,4,1,30,77,0,0
80394,-166.666666666667,4,1,4,77,0,0
80530,-166.666666666667,4,1,39,77,0,0
80803,-76.9230769230769,4,1,13,100,0,0
81007,-76.9230769230769,4,1,13,66,0,0
81076,-76.9230769230769,4,1,13,100,0,0
81416,-76.9230769230769,4,1,13,66,0,0
81485,-76.9230769230769,4,1,13,100,0,0
81621,-76.9230769230769,4,1,31,100,0,0
81757,-76.9230769230769,4,1,12,100,0,0
82439,-500,4,1,20,100,0,0
82712,-500,4,1,25,100,0,0
82985,-50,4,1,24,100,0,1
83394,-43.4782608695652,4,1,22,100,0,1
83803,-55.5555555555556,4,1,23,100,0,1
84348,-66.6666666666667,4,1,23,100,0,1
84621,-66.6666666666667,4,1,24,100,0,1
84894,-66.6666666666667,4,1,24,100,0,1
85166,-58.8235294117647,4,1,29,100,0,1
85985,-58.8235294117647,4,1,25,100,0,1
86121,-58.8235294117647,4,1,24,100,0,1
86939,-58.8235294117647,4,1,23,100,0,1
87076,-58.8235294117647,4,1,24,100,0,1
87212,-58.8235294117647,4,1,25,100,0,1
87348,-58.8235294117647,4,1,26,100,0,1
88576,-58.8235294117647,4,1,27,100,0,1
88985,-58.8235294117647,4,1,41,100,0,1
89257,-58.8235294117647,4,1,42,100,0,1
89530,-47.6190476190476,4,1,43,100,0,1
89803,-47.6190476190476,4,1,29,100,0,1
90212,-47.6190476190476,4,1,19,100,0,1
90280,-47.6190476190476,4,1,20,100,0,1
90348,-47.6190476190476,4,1,19,100,0,1
90485,-47.6190476190476,4,1,18,100,0,1
90621,-66.6666666666667,4,1,17,100,0,1
90689,-66.6666666666667,4,1,10,100,0,1
90757,-66.6666666666667,4,1,11,100,0,1
90826,-66.6666666666667,4,1,12,100,0,1
90894,-66.6666666666667,4,1,13,100,0,1
90962,-66.6666666666667,4,1,12,100,0,1
91030,-66.6666666666667,4,1,13,100,0,1
91098,-66.6666666666667,4,1,31,100,0,1
91166,-66.6666666666667,4,1,16,100,0,1
91235,-66.6666666666667,4,1,15,100,0,1
91303,-66.6666666666667,4,1,16,100,0,1
91371,-66.6666666666667,4,1,17,100,0,1
91439,-66.6666666666667,4,1,18,100,0,1
91507,-66.6666666666667,4,1,17,100,0,1
91576,-66.6666666666667,4,1,18,100,0,1
91644,-66.6666666666667,4,1,19,100,0,1
91712,-66.6666666666667,4,1,20,100,0,1
91803,-66.6666666666667,4,1,18,100,0,1
91894,-66.6666666666667,4,1,16,100,0,1
91985,-66.6666666666667,4,1,13,100,0,1
92076,-66.6666666666667,4,1,11,100,0,1
92166,-66.6666666666667,4,1,9,100,0,1
92257,-66.6666666666667,4,1,6,100,0,1
92348,-66.6666666666667,4,1,4,100,0,1
92439,-66.6666666666667,4,1,26,100,0,1
92530,-66.6666666666667,4,1,27,100,0,1
92621,-66.6666666666667,4,1,25,100,0,1
92712,-66.6666666666667,4,1,23,100,0,1
92803,-66.6666666666667,4,1,26,100,0,1
92894,-66.6666666666667,4,1,24,100,0,1
92985,-66.6666666666667,4,1,22,100,0,1
93076,-66.6666666666667,4,1,19,100,0,1
93166,-66.6666666666667,4,1,22,100,0,1
93257,-66.6666666666667,4,1,24,100,0,1
93348,-66.6666666666667,4,1,29,100,0,1
93439,-66.6666666666667,4,1,26,100,0,1
93530,-66.6666666666667,4,1,24,100,0,1
93621,-66.6666666666667,4,1,22,100,0,1
93712,-66.6666666666667,4,1,24,100,0,1
93803,-66.6666666666667,4,1,26,100,0,1
93985,-66.6666666666667,4,1,24,100,0,1
94076,-66.6666666666667,4,1,22,100,0,1
94166,-66.6666666666667,4,1,19,100,0,1
94257,-66.6666666666667,4,1,17,100,0,1
94348,-66.6666666666667,4,1,15,100,0,1
94439,-66.6666666666667,4,1,12,100,0,1
94576,-66.6666666666667,4,1,26,100,0,1
94644,-66.6666666666667,4,1,27,100,0,1
94712,-66.6666666666667,4,1,26,100,0,1
94848,-66.6666666666667,4,1,25,100,0,1
94985,-66.6666666666667,4,1,24,100,0,1
95053,-66.6666666666667,4,1,25,100,0,1
95121,-66.6666666666667,4,1,24,100,0,1
95189,-66.6666666666667,4,1,22,100,0,1
95257,-66.6666666666667,4,1,19,100,0,1
95326,-66.6666666666667,4,1,20,100,0,1
95394,-66.6666666666667,4,1,19,100,0,1
95462,-66.6666666666667,4,1,18,100,0,1
95530,-66.6666666666667,4,1,17,100,0,1
95598,-66.6666666666667,4,1,18,100,0,1
95666,-66.6666666666667,4,1,17,100,0,1
95735,-66.6666666666667,4,1,15,100,0,1
95803,-66.6666666666667,4,1,13,100,0,1
95871,-66.6666666666667,4,1,11,100,0,1
95939,-66.6666666666667,4,1,10,100,0,1
96007,-66.6666666666667,4,1,9,100,0,1
96076,-66.6666666666667,4,1,9,100,0,1
96485,-52.6315789473684,4,1,20,100,0,1
96757,-52.6315789473684,4,1,12,100,0,1
96826,-52.6315789473684,4,1,13,100,0,1
96894,-52.6315789473684,4,1,31,100,0,1
96962,-52.6315789473684,4,1,15,100,0,1
97030,-52.6315789473684,4,1,16,100,0,1
97098,-52.6315789473684,4,1,17,100,0,1
97166,-52.6315789473684,4,1,19,100,0,1
97576,-52.6315789473684,4,1,22,100,0,1
97848,-52.6315789473684,4,1,15,100,0,1
97916,-52.6315789473684,4,1,16,100,0,1
97985,-52.6315789473684,4,1,17,100,0,1
98053,-52.6315789473684,4,1,18,100,0,1
98121,-52.6315789473684,4,1,19,100,0,1
98189,-52.6315789473684,4,1,20,100,0,1
98257,-52.6315789473684,4,1,23,100,0,1
98803,-52.6315789473684,4,1,27,100,0,1
99348,-133.333333333333,4,1,26,100,0,1
99439,-133.333333333333,4,1,24,100,0,1
99530,-133.333333333333,4,1,22,100,0,1
99621,-133.333333333333,4,1,19,100,0,1
99712,-133.333333333333,4,1,22,100,0,1
99803,-133.333333333333,4,1,24,100,0,1
99894,-166.666666666667,4,1,25,100,0,0
99985,-166.666666666667,4,1,22,100,0,0
100076,-166.666666666667,4,1,19,100,0,0
100166,-166.666666666667,4,1,18,100,0,0
100257,-166.666666666667,4,1,19,100,0,0
100348,-166.666666666667,4,1,22,100,0,0
100439,-76.9230769230769,4,1,18,100,0,0
100848,-76.9230769230769,4,1,17,100,0,0
101257,-76.9230769230769,4,1,18,100,0,0
101666,-76.9230769230769,4,1,17,100,0,0
102076,-76.9230769230769,4,1,18,100,0,0
102348,-76.9230769230769,4,1,19,100,0,0
102621,-76.9230769230769,4,1,18,100,0,0
103030,-76.9230769230769,4,1,17,100,0,0
103439,-76.9230769230769,4,1,18,100,0,0
103848,-76.9230769230769,4,1,17,100,0,0
104257,-76.9230769230769,4,1,18,100,0,0
104530,-76.9230769230769,4,1,22,100,0,0
104803,-76.9230769230769,4,1,18,100,0,0
105212,-76.9230769230769,4,1,17,100,0,0
105621,-76.9230769230769,4,1,18,100,0,0
106030,-76.9230769230769,4,1,17,100,0,0
106439,-76.9230769230769,4,1,18,100,0,0
106712,-76.9230769230769,4,1,19,100,0,0
106985,-76.9230769230769,4,1,20,100,0,0
107394,-76.9230769230769,4,1,19,100,0,0
107803,-76.9230769230769,4,1,18,100,0,0
108076,-76.9230769230769,4,1,10,100,0,0
108144,-76.9230769230769,4,1,9,100,0,0
108212,-76.9230769230769,4,1,10,100,0,0
108280,-76.9230769230769,4,1,11,100,0,0
108348,-76.9230769230769,4,1,12,100,0,0
108416,-76.9230769230769,4,1,11,100,0,0
108485,-76.9230769230769,4,1,12,100,0,0
108553,-76.9230769230769,4,1,13,100,0,0
108621,-76.9230769230769,4,1,31,100,0,0
108689,-76.9230769230769,4,1,13,100,0,0
108757,-76.9230769230769,4,1,31,100,0,0
108826,-76.9230769230769,4,1,15,100,0,0
108894,-76.9230769230769,4,1,16,100,0,0
108962,-76.9230769230769,4,1,15,100,0,0
109030,-76.9230769230769,4,1,16,100,0,0
109098,-76.9230769230769,4,1,17,100,0,0
109166,-76.9230769230769,4,1,18,100,0,1
109303,-76.9230769230769,4,1,16,100,0,1
109439,-76.9230769230769,4,1,13,100,0,1
109576,-76.9230769230769,4,1,17,100,0,1
109712,-76.9230769230769,4,1,15,100,0,1
109848,-76.9230769230769,4,1,13,100,0,1
109985,-76.9230769230769,4,1,18,100,0,1
110121,-76.9230769230769,4,1,16,100,0,1
110257,-76.9230769230769,4,1,13,100,0,1
110394,-76.9230769230769,4,1,17,100,0,1
110530,-76.9230769230769,4,1,15,100,0,1
110666,-76.9230769230769,4,1,13,100,0,1
110803,-76.9230769230769,4,1,18,100,0,1
110939,-76.9230769230769,4,1,13,100,0,1
111076,-76.9230769230769,4,1,19,100,0,1
111212,-76.9230769230769,4,1,13,100,0,1
111348,-76.9230769230769,4,1,18,100,0,1
111485,-76.9230769230769,4,1,16,100,0,1
111621,-76.9230769230769,4,1,13,100,0,1
111757,-76.9230769230769,4,1,17,100,0,1
111894,-76.9230769230769,4,1,15,100,0,1
112030,-76.9230769230769,4,1,13,100,0,1
112166,-76.9230769230769,4,1,18,100,0,1
112303,-76.9230769230769,4,1,16,100,0,1
112439,-76.9230769230769,4,1,13,100,0,1
112576,-76.9230769230769,4,1,17,100,0,1
112712,-76.9230769230769,4,1,15,100,0,1
112848,-76.9230769230769,4,1,13,100,0,1
112985,-76.9230769230769,4,1,18,100,0,1
113121,-76.9230769230769,4,1,13,100,0,1
113257,-76.9230769230769,4,1,22,100,0,1
113394,-76.9230769230769,4,1,15,100,0,1
113530,-76.9230769230769,4,1,23,100,0,1
113939,-76.9230769230769,4,1,20,100,0,1
114348,-76.9230769230769,4,1,22,100,0,1
114757,-76.9230769230769,4,1,19,100,0,1
115166,-76.9230769230769,4,1,20,100,0,1
115303,-76.9230769230769,4,1,13,100,0,1
115439,-76.9230769230769,4,1,17,100,0,1
115576,-76.9230769230769,4,1,13,100,0,1
115712,-76.9230769230769,4,1,18,100,0,1
115848,-76.9230769230769,4,1,16,100,0,1
115985,-76.9230769230769,4,1,13,100,0,1
116121,-76.9230769230769,4,1,17,100,0,1
116257,-76.9230769230769,4,1,15,100,0,1
116394,-76.9230769230769,4,1,13,100,0,1
116530,-76.9230769230769,4,1,18,100,0,1
116666,-76.9230769230769,4,1,15,100,0,1
116803,-76.9230769230769,4,1,13,100,0,1
116939,-76.9230769230769,4,1,27,100,0,1
117076,-76.9230769230769,4,1,26,100,0,1
117212,-76.9230769230769,4,1,25,100,0,1
117348,-76.9230769230769,4,1,24,100,0,1
117485,-76.9230769230769,4,1,22,100,0,1
117621,-76.9230769230769,4,1,19,100,0,1
117757,-76.9230769230769,4,1,18,100,0,1
117894,-142.857142857143,4,1,1,100,0,1
118439,-142.857142857143,4,1,33,100,0,0
118507,-142.857142857143,4,1,33,5,0,0

[Colours]
Combo1 : 198,151,204
Combo2 : 202,230,251
Combo3 : 154,189,248
Combo4 : 251,145,145
Combo5 : 245,143,118
Combo6 : 241,201,107
Combo7 : 201,179,232

[HitObjects]
256,76,1374,5,6,1:2:0:0:
256,76,1761,6,0,L|243:220,1,130,2|2,2:2|2:0,0:0:0:0:
413,262,2438,2,0,P|363:243|315:247,1,97.5,2|2,2:0|2:0,0:0:0:0:
246,289,3115,1,2,2:0:0:0:
246,289,3503,86,0,L|180:285,1,65,2|2,2:0|2:0,0:0:0:0:
108,320,3986,1,2,2:0:0:0:
0,250,4277,2,0,P|50:226|111:237,1,97.5,2|0,2:0|0:0,0:0:0:0:
109,235,4664,5,2,2:0:0:0:
139,245,4760,1,2,2:0:0:0:
171,239,4857,1,2,2:0:0:0:
196,219,4954,1,2,2:0:0:0:
209,190,5051,86,0,L|185:48,1,130,2|2,2:0|2:0,0:0:0:0:
256,12,5632,1,2,2:0:0:0:
326,98,5825,2,0,L|308:177,1,65,2|2,2:0|2:0,0:0:0:0:
308,177,6115,5,2,2:0:0:0:
275,181,6211,1,2,2:0:0:0:
247,196,6308,1,2,2:0:0:0:
224,219,6405,1,2,2:0:0:0:
210,248,6502,1,2,2:0:0:0:
206,280,6598,1,2,2:0:0:0:
213,312,6695,1,2,2:0:0:0:
229,339,6793,86,0,P|185:325|147:337,1,65,2|0,2:0|0:0,0:0:0:0:
417,336,7180,6,0,L|412:392,1,48.75,6|0,2:3|2:0,0:0:0:0:
450,199,7567,6,0,L|443:130,1,65,6|2,1:2|2:2,0:0:0:0:
433,58,7954,1,2,2:3:0:0:
311,131,8148,5,2,2:2:0:0:
311,131,8244,1,2,3:3:0:0:
311,131,8341,2,0,L|329:94,1,32.5,2|2,2:3|2:2,0:0:0:0:
209,112,8535,5,2,2:0:0:0:
209,112,8631,1,2,3:2:0:0:
209,112,8728,2,0,L|177:82,1,35.7500010910034,2|2,2:3|2:0,0:0:0:0:
157,212,8922,69,2,2:0:0:0:
157,212,9018,1,2,3:2:0:0:
157,212,9115,2,0,L|114:235,1,38.9999988098145,2|2,2:3|2:0,0:0:0:0:
245,290,9309,5,2,2:0:0:0:
245,290,9405,1,2,3:2:0:0:
245,290,9502,2,0,L|253:342,1,42.2499980659486,2|2,2:3|2:0,0:0:0:0:
355,235,9696,5,2,2:0:0:0:
355,235,9792,1,2,3:2:0:0:
355,235,9889,2,0,L|402:242,1,45.4999986114502,2|2,3:2|2:0,0:0:0:0:
331,88,10083,2,0,L|311:131,1,47.1250014381409,2|2,3:2|2:0,0:0:0:0:
179,87,10277,2,0,L|214:120,1,48.750001859665,2|2,3:2|2:0,0:0:0:0:
131,232,10470,2,0,L|175:209,1,50.3750003843308,2|2,3:2|2:0,0:0:0:0:
256,323,10664,6,0,L|243:251,2,60.666664815267,2|2|2,2:0|2:0|2:0,0:0:0:0:
380,232,11051,2,0,L|308:222,2,56.3333307545981,2|2|2,2:0|2:0|2:0,0:0:0:0:
333,85,11438,2,0,L|301:151,2,51.999998413086,2|2|2,2:0|2:0|2:0,0:0:0:0:
178,85,11825,2,0,L|231:136,2,47.6666681213379,2|2|2,2:2|2:2|2:2,0:0:0:0:
254,187,12212,21,2,2:0:0:0:
254,187,12406,1,2,2:0:0:0:
223,198,12502,1,2,2:0:0:0:
199,220,12599,1,2,2:0:0:0:
184,248,12696,1,2,2:0:0:0:
181,281,12793,1,2,2:0:0:0:
188,312,12889,1,2,2:0:0:0:
207,339,12986,6,0,L|286:329,1,65,2|0,2:0|2:0,0:0:0:0:
379,278,13373,86,0,L|335:272,1,42.8999998690796,2|0,2:0|0:0,0:0:0:0:
313,132,13761,6,0,L|302:77,1,38.9999988098145,6|2,1:2|2:2,0:0:0:0:
225,64,13954,2,0,L|236:9,1,38.9999988098145,2|2,2:0|2:0,0:0:0:0:
214,186,14148,2,0,L|203:131,1,38.9999988098145,2|2,2:0|2:0,0:0:0:0:
126,118,14341,2,0,L|137:63,1,38.9999988098145,2|2,2:0|2:0,0:0:0:0:
110,215,14535,1,2,2:0:0:0:
110,215,14728,5,2,2:0:0:0:
98,252,14824,1,2,2:0:0:0:
104,290,14921,1,2,2:0:0:0:
125,322,15018,1,2,2:0:0:0:
157,343,15115,1,2,2:0:0:0:
196,348,15211,1,2,2:0:0:0:
233,337,15309,6,0,L|281:331,3,38.9999988098145,2|2|2|2,2:0|2:0|2:0|2:0,0:0:0:0:
337,287,15696,2,0,L|384:280,3,38.9999988098145,2|2|2|2,2:0|2:0|2:0|2:0,0:0:0:0:
450,322,16083,1,2,2:0:0:0:
473,290,16179,1,2,2:0:0:0:
487,254,16276,1,2,2:0:0:0:
490,215,16373,1,2,2:0:0:0:
483,177,16470,1,2,2:0:0:0:
465,142,16566,1,2,2:0:0:0:
439,114,16663,1,2,2:0:0:0:
406,93,16760,1,2,2:0:0:0:
369,83,16857,2,0,L|274:95,1,77.999997619629,2|2,2:0|2:0,0:0:0:0:
217,31,17148,5,2,2:0:0:0:
195,67,17244,2,0,L|199:119,2,38.9999988098145,2|2|2,2:0|2:0|2:0,0:0:0:0:
99,37,17535,1,2,2:0:0:0:
72,64,17631,1,2,2:0:0:0:
57,100,17728,1,2,2:0:0:0:
58,139,17825,1,2,2:0:0:0:
74,175,17922,1,2,2:0:0:0:
102,201,18018,1,2,2:0:0:0:
117,237,18116,1,2,2:0:0:0:
118,275,18213,1,2,2:0:0:0:
104,311,18310,1,2,2:0:0:0:
77,339,18406,2,0,L|26:349,1,38.9999988098145,2|2,2:0|2:0,0:0:0:0:
175,363,18599,37,2,2:0:0:0:
175,363,18696,1,2,2:0:0:0:
175,363,18793,2,0,L|222:358,1,38.9999988098145,2|2,2:0|2:0,0:0:0:0:
321,384,18986,1,2,2:0:0:0:
321,384,19083,1,2,2:0:0:0:
321,384,19180,22,0,L|340:340,1,38.9999988098145,2|2,2:0|2:0,0:0:0:0:
422,315,19373,2,0,L|394:276,1,45.4999986114502,2|2,2:0|2:0,0:0:0:0:
305,245,19567,2,0,L|329:190,1,52,2|2,2:0|2:0,0:0:0:0:
401,121,19760,2,0,L|365:72,1,52,2|2,2:0|2:0,0:0:0:0:
220,22,19954,6,0,P|226:44|226:67,5,38.9999988098145,6|2|2|2|2|2,1:2|2:0|2:0|2:0|2:0|2:0,0:0:0:0:
174,126,20341,2,0,P|168:148|168:171,5,38.9999988098145,2|2|2|2|2|2,2:0|2:0|2:0|2:0|2:0|2:0,0:0:0:0:
214,234,20728,1,2,2:0:0:0:
67,331,20922,22,0,B|131:314|131:314|195:323,2,116.999996429443,2|2|2,2:0|2:0|2:0,0:0:0:0:
251,371,21503,2,0,L|368:361,1,116.999996429443,6|0,1:2|2:0,0:0:0:0:
446,310,21793,1,0,2:0:0:0:
446,310,21890,2,0,P|468:238|444:189,1,116.999996429443,2|0,2:0|2:0,0:0:0:0:
333,161,22180,1,0,2:0:0:0:
333,161,22277,2,0,P|319:197|325:225,1,58.4999982147217,2|0,2:0|2:0,0:0:0:0:
443,196,22470,6,0,L|432:68,1,116.999996429443,4|2,1:1|2:0,0:0:0:0:
422,4,22761,1,4,1:1:0:0:
422,4,23051,6,0,L|360:-1,3,58.4999982147217,10|10|10|2,3:3|3:3|3:3|3:3,0:0:0:0:
288,48,23535,1,2,3:3:0:0:
79,18,23728,2,0,L|89:81,1,58.4999982147217,2|10,3:3|3:3,0:0:0:0:
100,39,24019,2,0,L|109:96,1,58.4999982147217,2|10,3:3|3:3,0:0:0:0:
125,180,24309,5,2,3:3:0:0:
254,120,24503,1,2,3:3:0:0:
241,261,24696,2,0,L|235:327,2,58.4999982147217,10|10|10,3:3|3:3|3:3,0:0:0:0:
304,358,25083,1,2,3:3:0:0:
409,217,25277,86,0,L|414:158,1,58.4999982147217,2|10,3:3|3:3,0:0:0:0:
430,238,25568,2,0,L|435:179,1,58.4999982147217,2|10,3:3|3:3,0:0:0:0:
472,68,25857,1,2,3:3:0:0:
294,18,26051,1,2,3:3:0:0:
294,18,26148,22,0,L|299:85,3,58.4999982147217,6|10|10|10,3:2|3:3|3:3|3:3,0:0:0:0:
305,176,26632,1,2,3:3:0:0:
166,279,26825,6,0,L|243:274,1,58.4999982147217,2|10,3:3|3:3,0:0:0:0:
187,300,27115,2,0,L|264:295,1,58.4999982147217,2|10,3:3|3:3,0:0:0:0:
361,288,27406,1,2,3:3:0:0:
157,122,27599,1,2,3:3:0:0:
157,122,27696,22,0,L|152:197,3,58.4999982147217,6|10|10|2,3:2|3:3|3:3|3:3,0:0:0:0:
168,22,28180,1,2,3:3:0:0:
75,256,28373,5,2,3:3:0:0:
75,256,28470,38,0,L|86:342,2,77.999997619629,14|10|10,3:3|3:3|3:3,0:0:0:0:
158,102,28857,6,0,L|152:192,2,77.999997619629,14|10|10,3:3|3:3|3:3,0:0:0:0:
256,192,29244,12,2,32341,2:2:0:0:
180,208,33115,86,0,P|210:132|224:263,1,386.750007376671,6|0,1:2|2:0,0:0:0:0:
157,78,33890,6,0,B|223:13|348:33|391:126|391:126|383:53|434:20|434:20|500:71|487:172|419:171|438:245,1,633.749970989229,2|0,2:2|2:0,0:0:0:0:
480,308,35438,6,0,B|412:345|335:318|290:204|374:146|420:133|494:171|494:171|423:125|428:50|428:50|415:125|325:153|325:153|296:105|243:100|192:117|181:175,1,845,2|0,2:2|0:0,0:0:0:0:
201,235,38148,5,8,1:3:0:0:
201,235,38535,54,0,L|161:231,10,21.6666666666667,8|4|4|4|4|4|4|4|4|4|4,3:3|3:3|3:3|3:3|3:3|3:3|3:3|3:3|3:3|3:3|3:3,0:0:0:0:
108,329,39309,6,0,L|102:199,1,126.749994197846,6|0,1:2|2:0,0:0:0:0:
95,99,39696,1,2,2:3:0:0:
18,51,40083,6,0,P|89:8|164:37,1,146.250005578995,6|0,1:2|0:0,0:0:0:0:
205,106,40470,1,2,2:3:0:0:
205,106,40857,6,0,L|265:101,2,48.75,8|4|12,3:3|3:3|3:3,0:0:0:0:
224,294,41632,6,0,L|229:220,1,65,6|8,1:2|3:3,0:0:0:0:
305,168,42019,85,8,3:3:0:0:
305,168,42115,2,0,L|379:177,1,65,0|8,3:3|3:3,0:0:0:0:
484,107,42406,1,4,3:3:0:0:
484,107,42502,2,0,L|410:116,1,65,0|4,0:0|3:3,0:0:0:0:
354,65,42793,1,0,0:0:0:0:
228,229,42986,1,4,3:2:0:0:
76,44,43180,6,0,L|92:173,2,116.999996429443,8|4|4,3:3|3:3|3:3,0:0:0:0:
102,242,43954,1,0,0:0:0:0:
115,322,44148,1,0,0:0:0:0:
221,360,44341,86,0,L|238:357,5,12.9999996032715,4|8|8|4|4|4,3:2|3:3|3:3|3:3|3:3|3:3,0:0:0:0:
221,360,45503,22,0,L|218:344,1,13,2|2,2:0|2:0,0:0:0:0:
249,277,45890,2,0,L|252:261,1,13,2|2,2:0|2:0,0:0:0:0:
306,342,46277,1,2,2:0:0:0:
306,342,47077,5,2,2:0:0:0:
389,346,47531,2,0,L|413:347,1,19.5,2|0,2:0|2:0,0:0:0:0:
490,347,48076,53,6,2:2:0:0:
480,267,48212,1,2,2:2:0:0:
470,187,48348,1,2,2:2:0:0:
460,107,48485,2,0,L|451:35,2,65,2|2|2,2:2|2:2|2:2,0:0:0:0:
470,187,48894,5,2,2:2:0:0:
406,236,49030,1,2,2:2:0:0:
480,267,49166,1,2,2:2:0:0:
395,156,49303,2,0,L|342:89,2,65,2|2|2,2:2|2:2|2:2,0:0:0:0:
410,319,49712,86,0,L|329:308,1,65,2|2,2:2|2:2,0:0:0:0:
269,339,49985,2,0,L|188:328,1,65,2|2,2:2|2:2,0:0:0:0:
119,347,50257,5,2,2:2:0:0:
77,280,50394,1,2,2:2:0:0:
125,217,50530,1,2,2:2:0:0:
200,240,50666,2,0,L|265:232,2,65,2|2|2,2:2|2:2|2:2,0:0:0:0:
125,217,51076,85,2,2:2:0:0:
183,164,51212,1,2,2:2:0:0:
200,240,51349,1,2,2:2:0:0:
109,141,51485,2,0,L|64:88,2,65,2|2|2,2:2|2:2|2:2,0:0:0:0:
244,109,51894,6,0,L|323:101,1,65,2|2,2:2|2:2,0:0:0:0:
354,12,52166,2,0,L|433:20,1,65,2|2,2:2|2:2,0:0:0:0:
468,160,52439,85,6,2:2:0:0:
391,203,52576,1,2,2:2:0:0:
392,114,52712,1,2,2:2:0:0:
474,313,52848,2,0,L|468:249,2,65,2|2|2,2:2|2:2|2:2,0:0:0:0:
376,353,53257,5,2,2:2:0:0:
305,315,53394,1,2,2:2:0:0:
230,344,53530,1,2,2:2:0:0:
121,293,53666,2,0,L|56:320,2,65,2|2|2,2:2|2:2|2:2,0:0:0:0:
234,242,54076,86,0,L|226:154,1,65,6|2,2:2|2:2,0:0:0:0:
166,122,54348,2,0,L|174:34,1,65,2|2,2:2|2:2,0:0:0:0:
299,14,54621,5,6,2:2:0:0:
359,75,54757,1,2,2:2:0:0:
298,135,54894,1,2,2:2:0:0:
171,35,55030,85,2,2:2:0:0:
132,31,55166,1,2,2:2:0:0:
109,62,55303,1,2,2:2:0:0:
149,203,55439,5,2,2:2:0:0:
151,215,55576,1,2,2:2:0:0:
29,278,55712,2,0,L|109:285,1,65,6|10,2:2|3:3,0:0:0:0:
299,365,55985,37,2,2:3:0:0:
246,191,56121,1,10,3:3:0:0:
195,333,56257,5,2,2:3:0:0:
369,221,56394,1,10,3:3:0:0:
166,122,56530,5,10,2:2:0:0:
8,42,56803,70,0,P|67:25|110:40,1,90.9999972229005,6|6,1:2|1:3,0:0:0:0:
166,122,57076,1,10,1:3:0:0:
98,238,57212,2,0,L|90:328,2,90.9999972229005,6|6|6,1:3|1:3|1:3,0:0:0:0:
224,369,57621,5,10,1:3:0:0:
274,194,57757,1,6,1:3:0:0:
98,238,57894,1,6,1:3:0:0:
334,337,58030,2,0,L|425:330,2,90.9999972229005,6|10|6,1:3|1:3|1:3,0:0:0:0:
188,227,58439,6,0,P|183:172|212:128,1,90.9999972229005,6|6,1:3|1:3,0:0:0:0:
361,166,58712,2,0,P|366:221|337:265,1,90.9999972229005,10|6,1:3|1:3,0:0:0:0:
308,46,58985,70,0,P|371:28|406:42,1,90.9999972229005,6|6,1:3|1:3,0:0:0:0:
460,111,59257,1,10,1:3:0:0:
296,318,59394,2,0,P|278:255|292:220,1,90.9999972229005,6|6,1:3|1:3,0:0:0:0:
361,166,59666,1,6,1:3:0:0:
458,350,59803,6,0,L|471:257,2,90.9999972229005,10|6|6,1:3|1:3|1:3,0:0:0:0:
284,232,60212,2,0,L|296:322,2,90.9999972229005,6|10|6,1:3|1:3|1:3,0:0:0:0:
115,360,60621,6,0,L|125:247,1,90.9999972229005,6|6,1:3|1:3,0:0:0:0:
102,98,60894,1,10,1:3:0:0:
210,310,61030,1,6,1:3:0:0:
0,209,61166,70,0,P|53:189|100:197,1,90.9999972229005,6|6,1:2|1:3,0:0:0:0:
154,248,61439,1,10,1:3:0:0:
278,43,61576,2,0,P|268:99|238:136,1,90.9999972229005,6|6,1:3|1:3,0:0:0:0:
166,157,61849,1,6,1:3:0:0:
296,322,61985,6,0,L|401:312,1,90.9999972229005,10|6,1:3|1:3,0:0:0:0:
483,302,62257,1,6,1:3:0:0:
366,104,62394,85,6,1:3:0:0:
324,191,62530,1,10,1:3:0:0:
422,183,62666,1,6,1:3:0:0:
278,43,62803,6,0,P|230:33|186:45,1,90.9999972229005,6|6,1:2|1:3,0:0:0:0:
38,35,63076,2,0,P|53:81|85:113,1,90.9999972229005,6|6,1:2|1:3,0:0:0:0:
202,279,63348,2,0,L|202:229,1,45.4999986114502,6|0,1:2|0:0,0:0:0:0:
75,320,63485,5,2,3:3:0:0:
75,320,63553,1,2,3:2:0:0:
75,320,63621,2,0,L|134:345,1,45.4999986114502,10|2,3:3|3:2,0:0:0:0:
218,384,63757,2,0,L|275:354,3,45.4999986114502,6|2|2|2,3:3|3:2|3:2|3:2,0:0:0:0:
370,334,64030,70,0,L|362:284,5,45.4999986114502,10|0|6|2|2|2,3:3|0:0|3:3|3:2|3:2|3:2,0:0:0:0:
271,163,64439,1,10,3:3:0:0:
362,289,64576,1,6,1:3:0:0:
362,134,64712,1,6,1:3:0:0:
271,259,64848,1,10,1:3:0:0:
418,211,64985,38,0,L|481:218,2,60.666664815267,10|4|4,3:3|3:3|3:3,0:0:0:0:
362,134,65257,2,0,L|299:141,2,60.666664815267,10|4|4,3:3|3:3|3:3,0:0:0:0:
452,49,65530,21,2,2:2:0:0:
413,27,65939,1,2,2:2:0:0:
339,63,66348,2,0,L|178:52,1,155.999995239258,2|2,2:2|2:2,0:0:0:0:
99,80,67166,2,0,P|89:127|98:157,1,77.999997619629,2|2,2:2|2:2,0:0:0:0:
183,186,67712,2,0,P|208:241|131:238,1,155.999995239258,2|0,2:2|0:0,0:0:0:0:
32,328,68530,2,0,L|83:325,1,38.9999988098145,2|2,2:2|2:2,0:0:0:0:
32,328,69485,2,0,L|30:276,2,38.9999988098145,2|2|2,2:2|2:2|2:2,0:0:0:0:
113,364,69894,6,0,L|160:356,1,38.9999988098145,2|2,2:2|2:2,0:0:0:0:
227,365,70166,2,0,L|274:357,1,38.9999988098145,2|2,2:2|2:2,0:0:0:0:
341,366,70439,2,0,L|388:358,1,38.9999988098145,2|2,2:2|2:2,0:0:0:0:
455,367,70712,2,0,L|502:359,1,38.9999988098145,2|2,2:2|2:2,0:0:0:0:
449,220,71121,86,0,L|445:268,1,38.9999988098145,2|2,2:2|2:2,0:0:0:0:
385,155,71530,2,0,L|378:75,1,77.999997619629,2|2,2:2|2:2,0:0:0:0:
368,1,72076,1,2,2:2:0:0:
368,1,72348,6,0,L|325:5,1,38.9999988098145,2|2,2:2|2:2,0:0:0:0:
247,44,72757,2,0,P|238:102|245:130,1,77.999997619629,2|2,2:2|2:2,0:0:0:0:
241,120,73712,86,0,L|239:204,1,77.999997619629,2|2,2:2|2:2,0:0:0:0:
89,261,74257,2,0,B|183:244|181:305|288:289,1,194.999994049072,2|2,2:2|2:2,0:0:0:0:
358,338,75076,2,0,L|365:295,1,38.9999988098145,2|2,2:2|2:2,0:0:0:0:
346,216,75348,2,0,P|369:181|402:232,1,116.999996429443,2|2,2:2|2:2,0:0:0:0:
364,299,76166,5,2,2:2:0:0:
364,299,76439,2,0,L|283:291,1,77.999997619629,2|2,2:2|2:2,0:0:0:0:
242,223,76848,1,2,2:2:0:0:
201,320,77121,2,0,L|201:367,2,38.9999988098145,2|2|2,2:2|2:2|2:2,0:0:0:0:
144,240,77530,85,2,2:2:0:0:
144,240,77803,6,0,L|138:190,1,38.9999988098145,2|2,2:2|2:2,0:0:0:0:
74,151,78076,2,0,L|101:108,1,38.9999988098145,2|2,2:2|2:2,0:0:0:0:
77,37,78348,2,0,L|125:22,1,38.9999988098145,2|2,2:2|2:2,0:0:0:0:
214,56,78621,86,0,B|286:41|299:95|377:80,1,155.999995239258,2|0,2:2|2:0,0:0:0:0:
459,30,79439,6,0,L|455:75,1,38.9999988098145,2|2,2:2|2:2,0:0:0:0:
472,150,79848,86,0,L|475:199,1,38.9999988098145,2|2,2:2|2:2,0:0:0:0:
499,273,80121,2,0,L|458:300,1,38.9999988098145,2|2,2:2|2:2,0:0:0:0:
405,357,80394,2,0,L|361:335,1,38.9999988098145,2|2,2:2|2:2,0:0:0:0:
274,360,80666,1,8,2:3:0:0:
182,249,80803,70,0,L|194:115,1,126.749994197846,6|0,3:2|0:0,0:0:0:0:
201,35,81076,1,8,3:3:0:0:
391,131,81212,6,0,P|342:98|267:89,1,126.749994197846,4|0,3:2|0:0,0:0:0:0:
193,122,81485,1,8,3:3:0:0:
388,203,81621,85,6,3:3:0:0:
337,21,81757,1,2,0:2:0:0:
142,214,81894,5,4,3:2:0:0:
285,173,82030,1,8,3:3:0:0:
245,29,82166,1,8,3:3:0:0:
101,70,82302,1,8,3:3:0:0:
193,122,82439,6,0,L|219:115,1,26,2|2,2:0|2:0,0:0:0:0:
218,115,82985,22,0,P|289:216|196:243,1,260,6|8,3:2|3:3,0:0:0:0:
90,124,83394,6,0,P|193:36|354:109,1,299.000005702973,6|8,3:3|3:3,0:0:0:0:
184,361,83803,6,0,L|232:5,1,350.99998928833,6|4,3:2|3:3,0:0:0:0:
372,338,84348,70,0,P|367:298|325:260,1,97.50000371933,6|2,3:3|3:3,0:0:0:0:
287,100,84621,2,0,P|254:124|242:179,1,97.50000371933,6|6,3:3|3:3,0:0:0:0:
124,293,84894,2,0,P|161:308|215:291,1,97.50000371933,10|2,3:3|3:3,0:0:0:0:
38,84,85166,6,0,L|27:345,2,221.000004215241,6|0|4,3:3|0:0|3:3,0:0:0:0:
355,40,85985,2,0,P|377:93|360:150,1,110.50000210762,10|2,3:3|0:2,0:0:0:0:
242,178,86257,6,0,L|1:168,2,221.000004215241,0|0|0,0:0|0:0|0:0,0:0:0:0:
445,151,86939,70,0,B|454:203|454:203|432:257,2,110.50000210762,6|10|6,3:3|3:3|3:3,0:0:0:0:
335,284,87348,5,6,3:2:0:0:
134,250,87485,1,2,3:3:0:0:
307,352,87621,5,10,3:3:0:0:
161,181,87758,1,6,3:3:0:0:
235,379,87894,69,6,3:3:0:0:
233,154,88031,1,2,3:3:0:0:
163,353,88166,5,10,3:3:0:0:
305,180,88303,2,0,P|360:154|424:157,1,110.50000210762,6|0,3:3|0:0,0:0:0:0:
495,192,88576,5,6,3:3:0:0:
366,32,88712,2,0,P|303:9|252:32,1,110.50000210762,10|0,3:3|0:0,0:0:0:0:
237,138,88985,70,0,L|113:135,1,110.50000210762,6|0,3:3|0:0,0:0:0:0:
14,175,89257,2,0,P|31:248|74:257,1,110.50000210762,10|0,3:3|0:0,0:0:0:0:
171,309,89530,6,0,L|387:286,1,204.749993751526,6|0,3:3|0:0,0:0:0:0:
466,275,89803,5,10,3:3:0:0:
160,212,89939,2,0,P|94:242|74:304,1,136.499995834351,6|0,3:3|0:0,0:0:0:0:
271,384,90212,69,6,3:3:0:0:
271,384,90280,1,2,0:2:0:0:
271,384,90348,1,10,3:3:0:0:
374,287,90485,1,2,0:2:0:0:
276,104,90621,37,6,3:3:0:0:
276,104,90689,1,2,2:2:0:0:
276,104,90757,1,6,3:3:0:0:
276,104,90826,1,2,2:2:0:0:
276,104,90894,2,0,L|285:48,3,48.750001859665,10|2|6|2,3:3|2:2|3:3|2:2,0:0:0:0:
169,218,91166,2,0,L|116:238,3,48.750001859665,6|2|6|2,3:3|2:2|3:3|2:2,0:0:0:0:
322,253,91439,2,0,L|366:289,3,48.750001859665,10|2|14|2,3:3|2:2|1:3|2:2,0:0:0:0:
191,37,91712,54,0,L|183:105,2,65.0000024795533,6|6|6,3:3|3:3|3:3,0:0:0:0:
92,154,91985,2,0,L|84:89,2,65.0000024795533,10|6|6,3:3|3:3|3:3,0:0:0:0:
169,218,92257,2,0,L|161:286,2,65.0000024795533,10|10|10,3:3|3:3|3:3,0:0:0:0:
69,351,92530,5,10,3:3:0:0:
69,351,92621,1,6,3:3:0:0:
69,351,92712,1,6,3:3:0:0:
69,351,92803,6,0,L|151:346,2,65.0000024795533,10|10|10,3:3|3:3|3:3,0:0:0:0:
212,361,93076,2,0,L|294:356,2,65.0000024795533,6|6|6,3:3|3:3|3:3,0:0:0:0:
362,373,93348,69,10,3:3:0:0:
392,337,93438,1,10,3:3:0:0:
391,289,93529,1,10,3:3:0:0:
359,254,93620,1,6,3:3:0:0:
327,220,93712,1,6,3:3:0:0:
326,172,93803,1,6,3:3:0:0:
357,135,93894,6,0,L|428:138,2,65.0000024795533,6|10|10,3:3|3:3|3:3,0:0:0:0:
229,88,94166,2,0,L|300:91,2,65.0000024795533,14|10|10,3:3|3:3|3:3,0:0:0:0:
154,49,94439,1,6,3:3:0:0:
40,140,94576,5,2,2:0:0:0:
40,140,94644,1,2,2:0:0:0:
40,140,94712,1,6,2:2:0:0:
194,194,94848,1,2,0:3:0:0:
72,340,94985,69,6,2:2:0:0:
72,340,95053,1,2,2:0:0:0:
72,340,95121,1,2,2:3:0:0:
72,340,95189,1,2,2:0:0:0:
72,340,95257,2,0,L|55:397,3,48.750001859665,10|2|6|6,2:3|2:0|2:3|2:3,0:0:0:0:
153,218,95530,5,10,2:3:0:0:
194,194,95598,1,2,2:0:0:0:
242,195,95666,1,2,2:3:0:0:
283,221,95734,1,2,2:0:0:0:
304,265,95803,2,0,L|298:319,3,48.750001859665,10|2|6|2,2:3|0:0|2:3|2:0,0:0:0:0:
194,359,96076,6,0,L|392:345,1,195.00000743866,6|8,2:2|3:3,0:0:0:0:
419,140,96485,2,0,P|384:197|408:262,1,123.499996702194,6|0,3:3|0:0,0:0:0:0:
488,80,96757,70,0,B|496:46|496:46|490:15,5,61.7499983510972,6|2|10|2|2|2,2:3|2:0|2:3|2:0|2:0|2:0,0:0:0:0:
470,51,97166,6,0,L|219:37,1,246.999993404389,6|8,3:3|3:3,0:0:0:0:
115,233,97576,2,0,P|99:170|134:116,1,123.499996702194,6|0,3:3|0:0,0:0:0:0:
251,234,97848,6,0,B|254:268|254:268|243:304,5,61.7499983510972,6|2|10|2|2|2,2:3|2:0|2:3|2:0|2:0|2:0,0:0:0:0:
178,344,98257,6,0,P|146:351|119:371,7,61.7499983510972,6|8|8|8|8|8|8|8,3:2|3:3|3:3|3:3|3:3|3:3|3:3|3:3,0:0:0:0:
302,352,98803,2,0,P|332:364|355:388,7,61.7499983510972,6|8|8|8|8|8|8|8,3:3|3:3|3:3|3:3|3:3|3:3|3:3|3:3,0:0:0:0:
251,234,99348,6,0,L|259:187,5,32.5000012397767,6|10|10|10|10|10,3:3|3:3|3:3|3:3|3:3|3:3,0:0:0:0:
310,142,99894,2,0,L|302:95,5,25.999999206543,6|10|10|10|10|10,3:3|3:3|3:3|3:3|3:3|3:3,0:0:0:0:
238,14,100439,86,0,P|189:8|144:24,1,84.4999961318971,6|6,1:2|3:3,0:0:0:0:
100,109,100712,1,10,3:3:0:0:
210,263,100848,2,0,P|239:223|248:176,1,84.4999961318971,6|6,3:3|3:3,0:0:0:0:
196,95,101121,1,6,3:3:0:0:
66,345,101257,6,0,L|152:339,1,84.4999961318971,10|6,3:3|3:3,0:0:0:0:
277,329,101530,1,6,3:3:0:0:
115,218,101666,2,0,L|25:223,2,84.4999961318971,6|10|6,3:3|3:3|3:3,0:0:0:0:
272,125,102076,86,0,L|376:118,1,84.4999961318971,6|6,3:3|3:3,0:0:0:0:
424,185,102348,2,0,L|528:178,1,84.4999961318971,10|6,3:3|3:3,0:0:0:0:
298,10,102621,6,0,P|252:10|213:40,1,84.4999961318971,6|6,3:3|3:3,0:0:0:0:
188,152,102894,1,10,3:3:0:0:
340,292,103030,2,0,P|363:252|356:203,1,84.4999961318971,6|6,3:3|3:3,0:0:0:0:
272,125,103303,1,6,3:3:0:0:
74,187,103439,86,0,P|97:226|142:245,1,84.4999961318971,10|6,3:3|3:3,0:0:0:0:
253,211,103712,1,6,3:3:0:0:
66,18,103848,2,0,L|56:107,2,84.4999961318971,6|10|6,3:3|3:3|3:3,0:0:0:0:
161,164,104257,6,0,L|269:171,1,84.4999961318971,6|6,3:3|3:3,0:0:0:0:
354,120,104530,2,0,L|462:113,1,84.4999961318971,10|6,3:3|3:3,0:0:0:0:
400,344,104803,86,0,P|375:294|382:248,1,84.4999961318971,6|6,3:2|3:3,0:0:0:0:
469,191,105076,1,10,3:3:0:0:
215,52,105212,2,0,P|270:55|307:84,1,84.4999961318971,6|6,3:3|3:3,0:0:0:0:
313,188,105485,1,6,3:3:0:0:
101,275,105621,6,0,P|76:225|83:179,1,84.4999961318971,10|6,3:3|3:3,0:0:0:0:
170,122,105894,1,6,3:3:0:0:
261,280,106030,2,0,L|257:371,2,84.4999961318971,6|10|6,3:3|3:3|3:3,0:0:0:0:
402,114,106439,86,0,L|296:99,1,84.4999961318971,6|6,3:3|3:3,0:0:0:0:
206,25,106712,2,0,L|100:40,1,84.4999961318971,10|6,3:3|3:3,0:0:0:0:
54,159,106985,5,6,1:2:0:0:
62,248,107121,1,6,3:3:0:0:
70,337,107257,1,10,3:3:0:0:
144,172,107394,85,6,3:3:0:0:
151,239,107530,1,6,3:3:0:0:
157,308,107666,1,6,3:3:0:0:
235,186,107804,5,10,3:3:0:0:
240,231,107940,1,6,3:3:0:0:
244,277,108076,6,0,L|285:306,3,42.2499980659486,6|2|6|2,2:2|2:0|2:3|2:0,0:0:0:0:
344,211,108348,2,0,L|382:181,3,42.2499980659486,10|2|6|2,2:3|2:0|2:3|2:0,0:0:0:0:
332,60,108621,5,6,2:3:0:0:
332,60,108689,1,2,2:0:0:0:
332,60,108757,1,6,2:3:0:0:
332,60,108826,1,2,2:0:0:0:
332,60,108894,2,0,L|353:14,3,42.2499980659486,10|0|6|2,2:3|0:0|2:3|2:0,0:0:0:0:
246,21,109166,5,6,1:2:0:0:
67,85,109303,1,2,3:3:0:0:
212,209,109439,1,10,3:3:0:0:
156,53,109576,5,2,3:3:0:0:
123,241,109712,1,10,3:3:0:0:
303,176,109848,1,2,3:3:0:0:
36,184,109985,5,10,3:3:0:0:
240,287,110121,1,2,3:3:0:0:
334,77,110257,1,10,3:3:0:0:
138,148,110394,69,2,3:3:0:0:
268,365,110530,1,10,3:3:0:0:
232,113,110666,1,2,3:3:0:0:
104,362,110803,6,0,P|151:349|195:353,1,84.4999961318971,10|2,3:3|3:3,0:0:0:0:
389,257,111076,2,0,P|344:277|313:308,1,84.4999961318971,10|2,3:3|3:3,0:0:0:0:
450,299,111348,5,10,3:3:0:0:
394,143,111485,1,2,3:3:0:0:
251,226,111621,1,10,3:3:0:0:
480,200,111757,69,2,3:3:0:0:
422,69,111894,1,10,3:3:0:0:
291,130,112030,1,2,3:3:0:0:
327,321,112166,5,10,3:3:0:0:
484,119,112303,1,2,3:3:0:0:
341,66,112439,1,10,3:3:0:0:
465,249,112576,5,2,3:3:0:0:
436,32,112712,1,10,3:3:0:0:
271,178,112848,1,2,3:3:0:0:
402,346,112985,70,0,P|403:295|379:264,1,84.4999961318971,10|2,3:3|3:3,0:0:0:0:
210,230,113257,2,0,P|188:194|192:152,1,84.4999961318971,10|2,3:3|3:3,0:0:0:0:
394,98,113530,6,0,P|434:74|470:74,2,84.4999961318971,6|6|10,1:2|3:3|3:3,0:0:0:0:
305,121,113939,2,0,P|304:74|322:43,2,84.4999961318971,6|6|6,3:3|3:3|3:3,0:0:0:0:
468,180,114348,5,10,3:3:0:0:
336,292,114485,1,6,3:3:0:0:
305,121,114621,1,6,3:3:0:0:
440,299,114757,2,0,L|450:388,2,84.4999961318971,6|10|6,3:3|3:3|3:3,0:0:0:0:
280,210,115166,70,0,P|234:186|178:190,1,84.4999961318971,6|6,1:2|3:3,0:0:0:0:
70,331,115439,2,0,P|113:303|138:252,1,84.4999961318971,10|6,3:3|3:3,0:0:0:0:
69,83,115712,5,6,1:2:0:0:
48,248,115848,1,6,3:3:0:0:
202,184,115985,1,10,3:3:0:0:
34,162,116121,5,6,1:2:0:0:
134,238,116257,1,6,3:3:0:0:
150,114,116394,1,10,3:3:0:0:
48,248,116530,2,0,L|54:337,2,84.4999961318971,6|6|10,1:2|3:3|3:3,0:0:0:0:
300,93,116939,69,6,3:3:0:0:
160,247,117076,1,6,3:3:0:0:
364,204,117212,1,10,3:3:0:0:
174,120,117348,1,6,3:3:0:0:
278,299,117484,1,6,3:2:0:0:
300,93,117621,1,6,3:3:0:0:
160,247,117757,1,14,3:3:0:0:
256,192,117894,6,0,L|256:152,3,30.3333324076335,8|4|8|4,3:3|3:3|3:3|3:3,0:0:0:0:
256,308,118439,53,6,1:2:0:0:
256,192,118473,12,0,122257,0:0:0:0:
