osu file format v14

[General]
AudioFilename: audio.mp3
AudioLeadIn: 0
PreviewTime: 82439
Countdown: 0
SampleSet: Normal
StackLeniency: 0.5
Mode: 0
LetterboxInBreaks: 0
WidescreenStoryboard: 1

[Editor]
Bookmarks: 65530,82985,91712,109166,112985
DistanceSpacing: 1
BeatDivisor: 4
GridSize: 8
TimelineZoom: 3.199999

[Metadata]
Title:Preserved Valkyria
TitleUnicode:Preserved Valkyria
Artist:penoreri
ArtistUnicode:penoreri
Creator:san undertal
Version:Advanced
Source:SOUND VOLTEX III GRAVITY WARS
Tags:sdvx 3 kac konami ortlinde nblg valkyria nemsys benami
BeatmapID:1841700
BeatmapSetID:862184

[Difficulty]
HPDrainRate:4.2
CircleSize:3.5
OverallDifficulty:5.7
ApproachRate:6.3
SliderMultiplier:0.999999999999999
SliderTickRate:1

[Events]
//Background and Video events
0,0,"bg thing lol.jpg",0,0
//Break Periods
//Storyboard Layer 0 (Background)
//Storyboard Layer 1 (Fail)
//Storyboard Layer 2 (Pass)
//Storyboard Layer 3 (Foreground)
//Storyboard Sound Samples

[TimingPoints]
1374,387.096774193548,4,1,34,100,1,0
1761,-100,4,1,18,100,0,0
2051,-100,4,1,18,5,0,0
2148,-100,4,1,17,100,0,0
2438,-100,4,1,15,100,0,0
3019,-100,4,1,15,5,0,0
3115,-100,4,1,16,100,0,0
3503,-100,4,1,12,100,0,0
3696,-100,4,1,13,100,0,0
3986,-100,4,1,15,100,0,0
4277,-100,4,1,11,100,0,0
4664,-100,4,1,9,100,0,0
4761,-100,4,1,9,100,0,0
4857,-100,4,1,10,100,0,0
4954,-100,4,1,13,100,0,0
5051,-100,4,1,12,100,0,0
5244,-100,4,1,12,100,0,0
5341,-100,4,1,12,5,0,0
5438,-100,4,1,5,100,0,0
5632,-100,4,1,15,100,0,0
5825,-100,4,1,11,100,0,0
6019,-100,4,1,11,50,0,0
6115,-100,4,1,2,100,0,0
6212,-100,4,1,5,100,0,0
6309,-100,4,1,6,100,0,0
6406,-100,4,1,30,100,0,0
6503,-100,4,1,8,100,0,0
6599,-100,4,1,9,100,0,0
6696,-100,4,1,10,100,0,0
6793,-100,4,1,11,100,0,0
7083,-100,4,1,11,5,0,0
7180,-100,4,1,10,100,0,0
7470,-100,4,1,10,5,0,0
7567,-100,4,1,9,100,0,0
7761,-100,4,1,6,100,0,0
7954,-100,4,1,10,100,0,0
8148,-100,4,1,6,100,0,0
8244,-100,4,1,10,100,0,0
8341,-100,4,1,11,100,0,0
8438,-100,4,1,4,100,0,0
8535,-100,4,1,6,100,0,0
8632,-100,4,1,11,100,0,0
8728,-100,4,1,12,100,0,0
8825,-100,4,1,6,100,0,0
8922,-100,4,1,9,100,0,0
9019,-100,4,1,12,100,0,0
9115,-100,4,1,13,100,0,0
9212,-100,4,1,6,100,0,0
9309,-100,4,1,9,100,0,0
9406,-100,4,1,13,100,0,0
9503,-100,4,1,15,100,0,0
9599,-100,4,1,8,100,0,0
9696,-100,4,1,9,100,0,0
9793,-100,4,1,15,100,0,0
9890,-100,4,1,16,100,0,0
9986,-100,4,1,9,100,0,0
10083,-100,4,1,17,100,0,0
10180,-100,4,1,10,100,0,0
10277,-100,4,1,18,100,0,0
10373,-100,4,1,11,100,0,0
10470,-100,4,1,19,100,0,0
10567,-100,4,1,12,100,0,0
10664,-100,4,1,20,100,0,0
10793,-100,4,1,19,100,0,0
10922,-100,4,1,22,100,0,0
11051,-100,4,1,18,100,0,0
11180,-100,4,1,17,100,0,0
11309,-100,4,1,20,100,0,0
11438,-100,4,1,16,100,0,0
11567,-100,4,1,15,100,0,0
11696,-100,4,1,18,100,0,0
11825,-100,4,1,13,100,0,0
11954,-100,4,1,12,100,0,0
12083,-100,4,1,16,100,0,0
12212,-100,4,1,12,100,0,0
12406,-100,4,1,5,100,0,0
12503,-100,4,1,6,100,0,0
12599,-100,4,1,30,100,0,0
12696,-100,4,1,8,100,0,0
12793,-100,4,1,9,100,0,0
12890,-100,4,1,12,100,0,0
12986,-100,4,1,11,100,0,0
13180,-100,4,1,11,5,0,0
13373,-100,4,1,10,100,0,0
13567,-100,4,1,10,5,0,0
13664,-100,4,1,10,5,0,0
13761,-100,4,1,9,100,0,0
13857,-100,4,1,30,100,0,0
13954,-100,4,1,11,100,0,0
14051,-100,4,1,30,100,0,0
14148,-100,4,1,10,100,0,0
14244,-100,4,1,30,100,0,0
14341,-100,4,1,8,100,0,0
14438,-100,4,1,30,100,0,0
14535,-100,4,1,9,100,0,0
14728,-100,4,1,9,100,0,0
14825,-100,4,1,10,100,0,0
14922,-100,4,1,11,100,0,0
15019,-100,4,1,9,100,0,0
15115,-100,4,1,11,100,0,0
15212,-100,4,1,13,100,0,0
15309,-100,4,1,12,100,0,0
15406,-100,4,1,11,100,0,0
15503,-100,4,1,10,100,0,0
15599,-100,4,1,11,100,0,0
15696,-100,4,1,10,100,0,0
15793,-100,4,1,8,100,0,0
15890,-100,4,1,5,100,0,0
15986,-100,4,1,4,100,0,0
16083,-100,4,1,3,100,0,0
16180,-100,4,1,4,100,0,0
16277,-100,4,1,6,100,0,0
16373,-100,4,1,9,100,0,0
16470,-100,4,1,10,100,0,0
16567,-100,4,1,11,100,0,0
16664,-100,4,1,13,100,0,0
16761,-100,4,1,15,100,0,0
16857,-100,4,1,17,100,0,0
17051,-100,4,1,11,100,0,0
17148,-100,4,1,18,100,0,0
17244,-100,4,1,17,100,0,0
17341,-100,4,1,15,100,0,0
17438,-100,4,1,12,100,0,0
17535,-100,4,1,20,100,0,0
17632,-100,4,1,19,100,0,0
17728,-100,4,1,18,100,0,0
17825,-100,4,1,17,100,0,0
17922,-100,4,1,15,100,0,0
18019,-100,4,1,12,100,0,0
18115,-100,4,1,11,100,0,0
18212,-100,4,1,10,100,0,0
18309,-100,4,1,8,100,0,0
18406,-100,4,1,6,100,0,0
18503,-100,4,1,9,100,0,0
18599,-100,4,1,10,100,0,0
18696,-100,4,1,11,100,0,0
18793,-100,4,1,13,100,0,0
18890,-100,4,1,15,100,0,0
18986,-100,4,1,16,100,0,0
19083,-100,4,1,17,100,0,0
19180,-100,4,1,18,100,0,0
19277,-100,4,1,11,100,0,0
19373,-100,4,1,19,100,0,0
19470,-100,4,1,12,100,0,0
19567,-100,4,1,20,100,0,0
19664,-100,4,1,13,100,0,0
19761,-100,4,1,22,100,0,0
19857,-100,4,1,15,100,0,0
19954,-100,4,1,23,100,0,0
20019,-100,4,1,20,100,0,0
20083,-100,4,1,18,100,0,0
20148,-100,4,1,17,100,0,0
20212,-100,4,1,16,100,0,0
20277,-100,4,1,13,100,0,0
20341,-100,4,1,11,100,0,0
20406,-100,4,1,10,100,0,0
20470,-100,4,1,9,100,0,0
20535,-100,4,1,6,100,0,0
20599,-100,4,1,4,100,0,0
20664,-100,4,1,3,100,0,0
20728,-100,4,1,2,100,0,0
20825,-100,4,1,2,30,0,0
20922,-100,4,1,20,100,0,0
21019,-100,4,1,20,30,0,0
21115,-100,4,1,19,100,0,0
21212,-100,4,1,19,30,0,0
21309,-100,4,1,20,100,0,0
21406,-100,4,1,20,50,0,0
21503,-100,4,1,19,100,0,0
21599,-100,4,1,19,60,0,0
21890,-100,4,1,18,100,0,0
21986,-100,4,1,18,60,0,0
22277,-100,4,1,17,100,0,0
22373,-100,4,1,17,60,0,0
22470,-100,4,1,17,100,0,0
22664,-100,4,1,15,100,0,0
22954,-100,4,1,15,5,0,0
23051,-100,4,1,9,100,0,0
24309,-100,4,1,12,100,0,0
25083,-100,4,1,13,100,0,0
25857,-100,4,1,15,100,0,0
26148,-100,4,1,16,100,0,0
26244,-100,4,1,16,100,0,0
26632,-100,4,1,19,100,0,0
26922,-100,4,1,20,100,0,0
27406,-100,4,1,22,100,0,0
27696,-100,4,1,23,100,0,0
28180,-100,4,1,26,100,0,0
28599,-100,4,1,27,100,0,0
32244,-100,4,1,27,5,0,0
32341,-100,4,1,0,30,0,0
33115,-100,4,1,35,100,0,0
33503,-100,4,1,35,100,0,0
33793,-100,4,1,35,5,0,0
33890,-100,4,1,36,100,0,0
35051,-100,4,1,36,100,0,0
35341,-100,4,1,36,5,0,0
35438,-100,4,1,37,100,0,0
37761,-100,4,1,37,100,0,0
38051,-100,4,1,37,5,0,0
38148,-100,4,1,37,100,0,0
38535,-100,4,1,37,100,0,0
39309,-100,4,1,35,100,0,0
39599,-100,4,1,35,5,0,0
39696,-100,4,1,1,100,0,0
39986,-100,4,1,1,5,0,0
40083,-100,4,1,36,100,0,0
40373,-100,4,1,36,5,0,0
40470,-100,4,1,1,100,0,0
40761,-100,4,1,1,5,0,0
40857,-100,4,1,1,100,0,0
41632,-100,4,1,38,100,0,0
42987,-100,4,1,1,100,0,0
43180,-100,4,1,1,100,0,0
43470,-100,4,1,1,100,0,0
43761,-100,4,1,1,100,0,0
44341,-100,4,1,1,100,0,0
44470,-100,4,1,1,80,0,0
44599,-100,4,1,1,60,0,0
45503,-100,4,1,23,50,0,0
45696,-100,4,1,24,50,0,0
45890,-100,4,1,25,50,0,0
46083,-100,4,1,27,50,0,0
46277,400,4,1,26,50,1,0
46277,-100,4,1,26,50,0,0
46877,-100,4,1,26,5,0,0
47077,454.545454545455,4,1,11,40,1,0
47531,545.454545454546,4,1,10,40,1,0
47531,-100,4,1,10,40,0,0
47940,-100,4,1,10,5,0,0
48076,272.727272727273,4,1,11,100,1,0
48485,-100,4,1,10,100,0,0
48894,-100,4,1,11,100,0,0
49303,-100,4,1,10,100,0,0
49712,-100,4,1,11,100,0,0
49985,-100,4,1,12,100,0,0
50257,-100,4,1,11,100,0,0
50666,-100,4,1,10,100,0,0
51076,-100,4,1,11,100,0,0
51485,-100,4,1,10,100,0,0
51894,-100,4,1,11,100,0,0
52166,-100,4,1,15,100,0,0
52439,-100,4,1,11,100,0,0
52848,-100,4,1,10,100,0,0
53257,-100,4,1,11,100,0,0
53666,-100,4,1,10,100,0,0
54076,-100,4,1,11,100,0,0
54348,-100,4,1,12,100,0,0
54621,-100,4,1,13,100,0,0
55030,-100,4,1,12,100,0,0
55439,-100,4,1,11,100,0,0
55712,-100,4,1,10,100,0,0
55985,-100,4,1,12,100,0,0
56257,-100,4,1,15,100,0,0
56530,-100,4,1,17,100,0,0
56803,-100,4,1,18,100,0,0
56939,-100,4,1,16,100,0,0
57076,-100,4,1,13,100,0,0
57212,-100,4,1,17,100,0,0
57348,-100,4,1,15,100,0,0
57485,-100,4,1,13,100,0,0
57621,-100,4,1,18,100,0,0
57757,-100,4,1,16,100,0,0
57894,-100,4,1,13,100,0,0
58030,-100,4,1,17,100,0,0
58166,-100,4,1,15,100,0,0
58303,-100,4,1,13,100,0,0
58439,-100,4,1,18,100,0,0
58576,-100,4,1,13,100,0,0
58712,-100,4,1,19,100,0,0
58848,-100,4,1,13,100,0,0
58985,-100,4,1,18,100,0,0
59121,-100,4,1,16,100,0,0
59257,-100,4,1,13,100,0,0
59394,-100,4,1,17,100,0,0
59530,-100,4,1,15,100,0,0
59666,-100,4,1,13,100,0,0
59803,-100,4,1,18,100,0,0
59939,-100,4,1,16,100,0,0
60076,-100,4,1,13,100,0,0
60212,-100,4,1,17,100,0,0
60348,-100,4,1,15,100,0,0
60485,-100,4,1,13,100,0,0
60621,-100,4,1,18,100,0,0
60757,-100,4,1,13,100,0,0
60894,-100,4,1,22,100,0,0
61166,-100,4,1,23,100,0,0
61576,-100,4,1,20,100,0,0
61985,-100,4,1,22,100,0,0
62394,-100,4,1,19,100,0,0
62803,-100,4,1,20,100,0,0
63076,-100,4,1,17,100,0,0
63348,-100,4,1,18,100,0,0
63485,-100,4,1,17,100,0,0
63553,-100,4,1,18,100,0,0
63621,-100,4,1,17,100,0,0
63689,-100,4,1,15,100,0,0
63757,-100,4,1,12,100,0,0
63826,-100,4,1,11,100,0,0
63894,-100,4,1,10,100,0,0
63962,-100,4,1,9,100,0,0
64030,-100,4,1,10,100,0,0
64098,-100,4,1,11,100,0,0
64166,-100,4,1,10,100,0,0
64235,-100,4,1,11,100,0,0
64303,-100,4,1,12,100,0,0
64371,-100,4,1,13,100,0,0
64439,-100,4,1,12,100,0,0
64576,-100,4,1,10,100,0,0
64712,-100,4,1,11,100,0,0
64848,-100,4,1,12,100,0,0
64985,-100,4,1,13,100,0,0
65257,-100,4,1,15,100,0,0
65530,-100,4,1,17,77,0,0
65939,-100,4,1,15,77,0,0
66348,-100,4,1,16,77,0,0
67166,-100,4,1,17,77,0,0
67439,-100,4,1,18,77,0,0
67712,-100,4,1,22,77,0,0
67985,-100,4,1,22,5,0,0
68530,-100,4,1,18,77,0,0
68666,-100,4,1,17,77,0,0
69485,-100,4,1,16,77,0,0
69621,-100,4,1,17,77,0,0
69757,-100,4,1,18,77,0,0
69894,-100,4,1,19,77,0,0
71121,-100,4,1,20,77,0,0
71530,-100,4,1,19,77,0,0
71803,-100,4,1,17,77,0,0
72007,-100,4,1,17,5,0,0
72076,-100,4,1,19,77,0,0
72212,-100,4,1,19,50,0,0
72348,-100,4,1,18,77,0,0
72757,-100,4,1,17,77,0,0
73030,-100,4,1,18,77,0,0
73985,-100,4,1,17,77,0,0
74257,-100,4,1,16,77,0,0
74394,-100,4,1,16,50,0,0
75076,-100,4,1,17,77,0,0
75212,-100,4,1,18,77,0,0
75348,-100,4,1,19,77,0,0
75621,-100,4,1,19,5,0,0
75757,-100,4,1,20,77,0,0
76166,-100,4,1,18,77,0,0
76439,-100,4,1,17,77,0,0
76712,-100,4,1,15,77,0,0
77121,-100,4,1,12,77,0,0
77394,-100,4,1,11,77,0,0
77530,-100,4,1,10,77,0,0
77803,-100,4,1,9,77,0,0
77939,-100,4,1,10,77,0,0
78076,-100,4,1,11,77,0,0
78212,-100,4,1,10,77,0,0
78348,-100,4,1,11,77,0,0
78485,-100,4,1,12,77,0,0
78621,-100,4,1,13,77,0,0
78757,-100,4,1,13,50,0,0
79439,-100,4,1,12,77,0,0
79848,-100,4,1,11,77,0,0
79985,-100,4,1,40,77,0,0
80121,-100,4,1,8,77,0,0
80257,-100,4,1,30,77,0,0
80394,-100,4,1,4,77,0,0
80530,-100,4,1,39,77,0,0
80803,-100,4,1,13,100,0,0
81007,-100,4,1,13,66,0,0
81076,-100,4,1,13,100,0,0
81416,-100,4,1,13,66,0,0
81485,-100,4,1,13,100,0,0
81621,-100,4,1,31,100,0,0
81757,-100,4,1,12,100,0,0
82439,-100,4,1,20,100,0,0
82712,-100,4,1,25,100,0,0
82985,-100,4,1,24,100,0,1
83394,-100,4,1,22,100,0,1
83803,-100,4,1,23,100,0,1
84348,-100,4,1,23,100,0,1
84621,-100,4,1,24,100,0,1
84894,-100,4,1,24,100,0,1
85166,-100,4,1,29,100,0,1
85985,-100,4,1,25,100,0,1
86121,-100,4,1,24,100,0,1
86939,-100,4,1,23,100,0,1
87076,-100,4,1,24,100,0,1
87212,-100,4,1,25,100,0,1
87348,-100,4,1,26,100,0,1
88576,-100,4,1,27,100,0,1
88985,-100,4,1,41,100,0,1
89257,-100,4,1,42,100,0,1
89530,-100,4,1,43,100,0,1
89803,-100,4,1,29,100,0,1
90212,-100,4,1,19,100,0,1
90280,-100,4,1,20,100,0,1
90348,-100,4,1,19,100,0,1
90485,-100,4,1,18,100,0,1
90621,-100,4,1,17,100,0,1
90689,-100,4,1,10,100,0,1
90757,-100,4,1,11,100,0,1
90826,-100,4,1,12,100,0,1
90894,-100,4,1,13,100,0,1
90962,-100,4,1,12,100,0,1
91030,-100,4,1,13,100,0,1
91098,-100,4,1,31,100,0,1
91166,-100,4,1,16,100,0,1
91235,-100,4,1,15,100,0,1
91303,-100,4,1,16,100,0,1
91371,-100,4,1,17,100,0,1
91439,-100,4,1,18,100,0,1
91507,-100,4,1,17,100,0,1
91576,-100,4,1,18,100,0,1
91644,-100,4,1,19,100,0,1
91712,-100,4,1,20,100,0,1
91803,-100,4,1,18,100,0,1
91894,-100,4,1,16,100,0,1
91985,-100,4,1,13,100,0,1
92076,-100,4,1,11,100,0,1
92166,-100,4,1,9,100,0,1
92257,-100,4,1,6,100,0,1
92348,-100,4,1,4,100,0,1
92439,-100,4,1,26,100,0,1
92530,-100,4,1,27,100,0,1
92621,-100,4,1,25,100,0,1
92712,-100,4,1,23,100,0,1
92803,-100,4,1,26,100,0,1
92894,-100,4,1,24,100,0,1
92985,-100,4,1,22,100,0,1
93076,-100,4,1,19,100,0,1
93166,-100,4,1,22,100,0,1
93257,-100,4,1,24,100,0,1
93348,-100,4,1,29,100,0,1
93439,-100,4,1,26,100,0,1
93530,-100,4,1,24,100,0,1
93621,-100,4,1,22,100,0,1
93712,-100,4,1,24,100,0,1
93803,-100,4,1,26,100,0,1
93985,-100,4,1,24,100,0,1
94076,-100,4,1,22,100,0,1
94166,-100,4,1,19,100,0,1
94257,-100,4,1,17,100,0,1
94348,-100,4,1,15,100,0,1
94439,-100,4,1,12,100,0,1
94576,-100,4,1,26,100,0,1
94644,-100,4,1,27,100,0,1
94712,-100,4,1,26,100,0,1
94848,-100,4,1,25,100,0,1
94985,-100,4,1,24,100,0,1
95053,-100,4,1,25,100,0,1
95121,-100,4,1,24,100,0,1
95189,-100,4,1,22,100,0,1
95257,-100,4,1,19,100,0,1
95326,-100,4,1,20,100,0,1
95394,-100,4,1,19,100,0,1
95462,-100,4,1,18,100,0,1
95530,-100,4,1,17,100,0,1
95598,-100,4,1,18,100,0,1
95666,-100,4,1,17,100,0,1
95735,-100,4,1,15,100,0,1
95803,-100,4,1,13,100,0,1
95871,-100,4,1,11,100,0,1
95939,-100,4,1,10,100,0,1
96007,-100,4,1,9,100,0,1
96076,-100,4,1,9,100,0,1
96485,-100,4,1,20,100,0,1
96757,-100,4,1,12,100,0,1
96826,-100,4,1,13,100,0,1
96894,-100,4,1,31,100,0,1
96962,-100,4,1,15,100,0,1
97030,-100,4,1,16,100,0,1
97098,-100,4,1,17,100,0,1
97166,-100,4,1,19,100,0,1
97576,-100,4,1,22,100,0,1
97848,-100,4,1,15,100,0,1
97916,-100,4,1,16,100,0,1
97985,-100,4,1,17,100,0,1
98053,-100,4,1,18,100,0,1
98121,-100,4,1,19,100,0,1
98189,-100,4,1,20,100,0,1
98257,-100,4,1,23,100,0,1
98803,-100,4,1,27,100,0,1
99348,-100,4,1,26,100,0,1
99439,-100,4,1,24,100,0,1
99530,-100,4,1,22,100,0,1
99621,-100,4,1,19,100,0,1
99712,-100,4,1,22,100,0,1
99803,-100,4,1,24,100,0,1
99894,-100,4,1,25,100,0,0
99985,-100,4,1,22,100,0,0
100076,-100,4,1,19,100,0,0
100166,-100,4,1,18,100,0,0
100257,-100,4,1,19,100,0,0
100348,-100,4,1,22,100,0,0
100439,-100,4,1,18,100,0,0
100848,-100,4,1,17,100,0,0
101257,-100,4,1,18,100,0,0
101666,-100,4,1,17,100,0,0
102076,-100,4,1,18,100,0,0
102348,-100,4,1,19,100,0,0
102621,-100,4,1,18,100,0,0
103030,-100,4,1,17,100,0,0
103439,-100,4,1,18,100,0,0
103848,-100,4,1,17,100,0,0
104257,-100,4,1,18,100,0,0
104530,-100,4,1,22,100,0,0
104803,-100,4,1,18,100,0,0
105212,-100,4,1,17,100,0,0
105621,-100,4,1,18,100,0,0
106030,-100,4,1,17,100,0,0
106439,-100,4,1,18,100,0,0
106712,-100,4,1,19,100,0,0
106985,-100,4,1,20,100,0,0
107394,-100,4,1,19,100,0,0
107803,-100,4,1,18,100,0,0
108076,-100,4,1,10,100,0,0
108144,-100,4,1,9,100,0,0
108212,-100,4,1,10,100,0,0
108280,-100,4,1,11,100,0,0
108348,-100,4,1,12,100,0,0
108416,-100,4,1,11,100,0,0
108485,-100,4,1,12,100,0,0
108553,-100,4,1,13,100,0,0
108621,-100,4,1,31,100,0,0
108689,-100,4,1,13,100,0,0
108757,-100,4,1,31,100,0,0
108826,-100,4,1,15,100,0,0
108894,-100,4,1,16,100,0,0
108962,-100,4,1,15,100,0,0
109030,-100,4,1,16,100,0,0
109098,-100,4,1,17,100,0,0
109166,-100,4,1,18,100,0,1
109303,-100,4,1,16,100,0,1
109439,-100,4,1,13,100,0,1
109576,-100,4,1,17,100,0,1
109712,-100,4,1,15,100,0,1
109848,-100,4,1,13,100,0,1
109985,-100,4,1,18,100,0,1
110121,-100,4,1,16,100,0,1
110257,-100,4,1,13,100,0,1
110394,-100,4,1,17,100,0,1
110530,-100,4,1,15,100,0,1
110666,-100,4,1,13,100,0,1
110803,-100,4,1,18,100,0,1
110939,-100,4,1,13,100,0,1
111076,-100,4,1,19,100,0,1
111212,-100,4,1,13,100,0,1
111348,-100,4,1,18,100,0,1
111485,-100,4,1,16,100,0,1
111621,-100,4,1,13,100,0,1
111757,-100,4,1,17,100,0,1
111894,-100,4,1,15,100,0,1
112030,-100,4,1,13,100,0,1
112166,-100,4,1,18,100,0,1
112303,-100,4,1,16,100,0,1
112439,-100,4,1,13,100,0,1
112576,-100,4,1,17,100,0,1
112712,-100,4,1,15,100,0,1
112848,-100,4,1,13,100,0,1
112985,-100,4,1,18,100,0,1
113121,-100,4,1,13,100,0,1
113257,-100,4,1,22,100,0,1
113394,-100,4,1,15,100,0,1
113530,-100,4,1,23,100,0,1
113939,-100,4,1,20,100,0,1
114348,-100,4,1,22,100,0,1
114757,-100,4,1,19,100,0,1
115166,-100,4,1,20,100,0,1
115303,-100,4,1,13,100,0,1
115439,-100,4,1,17,100,0,1
115576,-100,4,1,13,100,0,1
115712,-100,4,1,18,100,0,1
115848,-100,4,1,16,100,0,1
115985,-100,4,1,13,100,0,1
116121,-100,4,1,17,100,0,1
116257,-100,4,1,15,100,0,1
116394,-100,4,1,13,100,0,1
116530,-100,4,1,18,100,0,1
116666,-100,4,1,15,100,0,1
116803,-100,4,1,13,100,0,1
116939,-100,4,1,27,100,0,1
117076,-100,4,1,26,100,0,1
117212,-100,4,1,25,100,0,1
117348,-100,4,1,24,100,0,1
117485,-100,4,1,22,100,0,1
117621,-100,4,1,19,100,0,1
117757,-100,4,1,18,100,0,1
117894,-100,4,1,1,100,0,0
118439,-100,4,1,33,100,0,0
118507,-100,4,1,33,5,0,0

[Colours]
Combo1 : 198,151,204
Combo2 : 202,230,251
Combo3 : 154,189,248
Combo4 : 251,145,145
Combo5 : 245,143,118
Combo6 : 241,201,107
Combo7 : 201,179,232

[HitObjects]
260,80,1374,5,6,1:2:0:0:
260,80,1761,2,0,P|283:128|273:186,1,99.9999999999999,2|2,2:2|2:0,0:0:0:0:
206,227,2438,2,0,L|124:223,1,74.9999999999999,2|2,2:0|2:0,0:0:0:0:
31,218,3115,1,2,2:0:0:0:
31,218,3503,6,0,P|43:253|45:284,1,50,2|2,2:0|2:0,0:0:0:0:
21,352,3986,1,2,2:0:0:0:
107,329,4277,1,2,2:0:0:0:
225,352,4664,86,0,L|266:347,4,25,2|2|2|2|2,2:0|2:0|2:0|2:0|2:0,0:0:0:0:
343,335,5438,1,2,2:0:0:0:
394,270,5632,6,0,L|385:218,1,50,2|2,2:0|2:0,0:0:0:0:
379,181,6019,2,0,L|374:154,8,25,2|2|2|2|2|2|2|2|2,2:0|2:0|2:0|2:0|2:0|2:0|2:0|2:0|2:0,0:0:0:0:
401,63,7180,6,0,P|437:55|483:62,1,74.9999999999999,6|0,2:3|2:0,0:0:0:0:
488,86,7567,6,0,L|486:153,2,50,6|2|2,1:2|2:2|2:3,0:0:0:0:
431,35,8148,6,0,L|395:32,2,25,2|2|2,2:2|3:3|2:3,0:0:0:0:
378,107,8535,2,0,L|403:110,2,25,2|2|2,2:0|3:2|2:3,0:0:0:0:
411,194,8922,2,0,L|387:192,2,25,2|2|2,2:0|3:2|2:3,0:0:0:0:
358,276,9309,2,0,L|383:279,2,25,2|2|2,2:0|3:2|2:3,0:0:0:0:
389,373,9696,2,0,L|365:371,1,25,2|2,2:0|3:2,0:0:0:0:
290,333,9890,70,0,P|257:340|226:335,1,50,2|2,3:2|3:2,0:0:0:0:
155,296,10277,2,0,P|130:295|105:301,1,50,2|2,3:2|3:2,0:0:0:0:
27,355,10664,38,0,B|10:306|10:306|21:249,1,99.9999999999999,2|2,2:0|2:0,0:0:0:0:
86,208,11438,2,0,B|112:163|112:163|163:135,1,99.9999999999999,2|2,2:0|2:2,0:0:0:0:
236,158,12212,5,2,2:0:0:0:
275,151,12406,6,0,L|313:144,6,25,2|2|2|2|2|2|2,2:0|2:0|2:0|2:0|2:0|2:0|2:0,0:0:0:0:
390,183,13373,6,0,P|399:228|394:274,1,74.9999999999999,2|0,2:0|0:0,0:0:0:0:
387,288,13761,6,0,P|447:288|492:313,2,99.9999999999999,6|2|2,1:2|2:0|2:0,0:0:0:0:
319,330,14728,1,2,2:0:0:0:
294,328,14825,1,2,2:0:0:0:
269,326,14922,2,0,L|231:322,2,25,2|2|2,2:0|2:0|2:0,0:0:0:0:
175,368,15309,6,0,P|162:330|183:269,1,99.9999999999999,2|2,2:0|2:0,0:0:0:0:
212,237,15890,1,2,2:0:0:0:
252,207,16083,2,0,P|268:160|255:113,2,99.9999999999999,2|2|2,2:0|2:0|2:0,0:0:0:0:
137,220,17147,5,2,2:0:0:0:
112,210,17244,2,0,L|72:216,3,25,2|2|2|2,2:0|2:0|2:0|2:0,0:0:0:0:
16,178,17632,70,0,P|19:141|36:114,1,50,2|2,2:0|2:0,0:0:0:0:
37,80,18019,2,0,P|71:68|103:72,1,50,2|2,2:0|2:0,0:0:0:0:
130,49,18406,1,2,2:0:0:0:
215,109,18599,69,2,2:0:0:0:
220,84,18696,1,2,2:0:0:0:
225,59,18793,2,0,L|230:27,4,25,2|2|2|2|2,2:0|2:0|2:0|2:0|2:0,0:0:0:0:
299,109,19373,1,2,2:0:0:0:
379,69,19567,1,2,2:0:0:0:
453,118,19761,1,2,2:0:0:0:
492,31,19954,22,0,L|490:9,12,16.6666666666667,6|2|2|2|2|2|2|2|2|2|2|2|2,1:2|2:0|2:0|2:0|2:0|2:0|2:0|2:0|2:0|2:0|2:0|2:0|2:0,0:0:0:0:
512,172,21115,6,0,P|479:197|423:194,1,99.9999999999999,2|6,2:0|1:2,0:0:0:0:
355,106,21890,2,0,P|322:81|266:84,1,99.9999999999999,2|2,2:0|2:0,0:0:0:0:
183,156,22664,1,2,2:0:0:0:
161,48,23051,54,0,L|163:20,2,25,10|10|10,3:3|3:3|3:3,0:0:0:0:
118,111,23438,6,0,P|101:145|112:198,2,74.9999999999999,0|2|2,0:0|3:3|3:3,0:0:0:0:
196,85,24309,2,0,L|261:92,1,50,2|2,3:3|3:3,0:0:0:0:
296,68,24696,2,0,L|335:72,2,25,10|10|10,3:3|3:3|3:3,0:0:0:0:
399,35,25083,85,2,3:3:0:0:
387,119,25277,2,0,L|392:212,2,74.9999999999999,2|2|2,3:3|3:3|3:3,0:0:0:0:
316,213,26148,22,0,L|318:257,3,25,6|10|10|10,3:2|3:3|3:3|3:3,0:0:0:0:
273,147,26632,2,0,P|235:134|190:143,2,74.9999999999999,2|10|10,3:3|3:3|3:3,0:0:0:0:
301,194,27406,1,2,3:3:0:0:
276,291,27599,6,0,L|278:329,4,25,2|6|10|10|2,3:3|3:2|3:3|3:3|3:3,0:0:0:0:
227,223,28180,1,2,3:3:0:0:
131,288,28373,5,2,3:3:0:0:
112,285,28470,2,0,L|59:281,5,33.3333333333333,14|10|10|14|10|10,3:3|3:3|3:3|3:3|3:3|3:3,0:0:0:0:
256,192,29244,12,2,32341,2:2:0:0:
236,275,33115,54,0,B|237:301|300:324|332:215|241:179,1,175,6|0,1:2|2:0,0:0:0:0:
215,116,33890,6,0,B|137:98|143:201|23:177|23:177|91:190|114:235|108:286|88:305,1,375,2|0,2:2|2:0,0:0:0:0:
33,349,35438,6,0,B|81:398|144:372|164:335|164:335|182:300|238:266|292:292|292:292|304:324|332:353|376:354|416:331|416:331|393:308|385:281|390:252|390:252|410:236|419:212|416:187,1,599.999999999999,2|0,2:2|0:0,0:0:0:0:
417,199,38148,5,8,1:3:0:0:
417,199,38535,70,0,L|448:202,9,16.6666666666667,8|4|4|4|4|4|4|4|4|4,3:3|3:3|3:3|3:3|3:3|3:3|3:3|3:3|3:3|3:3,0:0:0:0:
362,131,39309,6,0,P|308:133|265:172,1,99.9999999999999,6|2,1:2|2:3,0:0:0:0:
213,240,40083,2,0,P|172:268|123:268,1,99.9999999999999,6|2,1:2|2:3,0:0:0:0:
46,204,40857,6,0,B|40:177|40:177|54:117,2,74.9999999999999,8|4|12,3:3|3:3|3:3,0:0:0:0:
26,279,41632,1,6,1:2:0:0:
256,192,41825,12,0,44728,0:0:0:0:
70,313,45503,38,0,P|68:341|57:367,4,50,2|2|2|2|2,2:0|2:0|2:0|2:0|2:0,0:0:0:0:
47,234,47077,6,0,L|54:131,1,99.9999999999999,2|2,2:0|2:0,0:0:0:0:
56,117,48076,54,0,P|100:91|157:100,1,99.9999999999999,6|2,2:2|2:2,0:0:0:0:
189,112,48485,2,0,P|238:115|280:90,1,99.9999999999999,2|2,2:2|2:2,0:0:0:0:
302,51,48894,2,0,L|306:162,1,99.9999999999999,2|2,2:2|2:2,0:0:0:0:
277,186,49303,2,0,L|273:297,1,99.9999999999999,2|2,2:2|2:2,0:0:0:0:
295,325,49712,2,0,P|325:320|355:324,2,50,2|2|2,2:2|2:2|2:2,0:0:0:0:
257,349,50121,1,2,2:2:0:0:
178,328,50257,6,0,L|77:321,1,99.9999999999999,2|2,2:2|2:2,0:0:0:0:
34,333,50666,2,0,P|11:289|32:236,1,99.9999999999999,2|2,2:2|2:2,0:0:0:0:
51,206,51076,2,0,P|65:159|42:116,1,99.9999999999999,2|2,2:2|2:2,0:0:0:0:
4,90,51485,2,0,L|117:97,1,99.9999999999999,2|2,2:2|2:2,0:0:0:0:
140,69,51894,86,0,P|132:43|118:22,2,50,2|2|2,2:2|2:2|2:2,0:0:0:0:
143,114,52303,1,2,2:2:0:0:
222,81,52439,6,0,P|267:79|318:117,1,99.9999999999999,6|2,2:2|2:2,0:0:0:0:
356,115,52848,2,0,P|373:156|355:217,1,99.9999999999999,2|2,2:2|2:2,0:0:0:0:
376,251,53257,2,0,L|266:266,1,99.9999999999999,2|2,2:2|2:2,0:0:0:0:
237,243,53666,2,0,L|127:258,1,99.9999999999999,2|2,2:2|2:2,0:0:0:0:
108,291,54076,2,0,P|114:318|108:347,2,50,6|2|2,2:2|2:2|2:2,0:0:0:0:
84,252,54485,1,2,2:2:0:0:
165,163,54621,86,0,L|274:169,1,99.9999999999999,6|2,2:2|2:2,0:0:0:0:
300,140,55030,2,0,L|409:146,1,99.9999999999999,2|2,2:2|2:2,0:0:0:0:
438,169,55439,2,0,P|449:211|448:233,1,50,2|2,2:2|2:2,0:0:0:0:
424,295,55712,54,0,L|375:281,1,50,6|10,2:2|3:3,0:0:0:0:
337,305,55985,2,0,P|316:297|288:291,1,50,2|10,2:3|3:3,0:0:0:0:
250,315,56257,2,0,P|230:303|201:301,1,50,2|10,2:3|3:3,0:0:0:0:
163,325,56530,1,10,2:2:0:0:
87,291,56803,6,0,P|78:324|85:359,2,50,6|6|10,1:2|1:3|1:3,0:0:0:0:
73,216,57212,2,0,P|41:230|19:258,2,50,6|6|6,1:3|1:3|1:3,0:0:0:0:
120,157,57621,2,0,P|98:144|73:140,2,50,10|6|6,1:3|1:3|1:3,0:0:0:0:
195,151,58030,2,0,P|190:126|177:105,2,50,6|10|6,1:3|1:3|1:3,0:0:0:0:
237,212,58439,6,0,L|305:208,1,50,6|6,1:3|1:3,0:0:0:0:
353,243,58712,2,0,L|421:239,1,50,10|6,1:3|1:3,0:0:0:0:
460,295,58985,70,0,P|469:328|462:363,2,50,6|6|10,1:3|1:3|1:3,0:0:0:0:
476,216,59394,2,0,P|507:230|529:258,2,50,6|6|6,1:3|1:3|1:3,0:0:0:0:
427,152,59803,2,0,P|457:137|493:138,2,50,10|6|6,1:3|1:3|1:3,0:0:0:0:
346,148,60212,2,0,P|354:114|378:88,2,50,6|10|6,1:3|1:3|1:3,0:0:0:0:
273,195,60621,6,0,L|204:189,1,50,6|6,1:3|1:3,0:0:0:0:
175,126,60894,2,0,L|106:120,1,50,10|6,1:3|1:3,0:0:0:0:
53,167,61166,6,0,P|42:198|45:233,1,50,6|6,1:2|1:3,0:0:0:0:
78,280,61439,1,10,1:3:0:0:
149,256,61576,2,0,L|208:262,2,50,6|6|6,1:3|1:3|1:3,0:0:0:0:
90,303,61985,2,0,L|31:309,2,50,10|6|6,1:3|1:3|1:3,0:0:0:0:
147,351,62394,2,0,P|172:360|206:357,1,50,6|10,1:3|1:3,0:0:0:0:
256,316,62666,1,6,1:3:0:0:
342,356,62803,70,0,P|354:300|352:242,1,99.9999999999999,6|6,1:2|1:2,0:0:0:0:
308,125,63348,5,6,1:2:0:0:
356,60,63485,2,0,L|363:21,2,25,2|2|10,3:3|3:2|3:3,0:0:0:0:
278,43,63757,2,0,L|271:4,10,25,6|2|2|2|10|2|6|2|2|2|10,3:3|3:2|3:2|3:2|3:3|0:0|3:3|3:2|3:2|3:2|3:3,0:0:0:0:
223,102,64576,1,6,1:3:0:0:
152,64,64712,2,0,P|126:57|85:61,2,50,6|10|10,1:3|1:3|3:3,0:0:0:0:
274,167,65257,22,0,P|281:212|271:277,1,99.9999999999999,10|2,3:3|2:2,0:0:0:0:
274,265,65939,22,0,B|230:255|116:270,1,150,2|2,2:2|2:2,0:0:0:0:
124,268,66894,2,0,P|139:225|126:169,2,99.9999999999999,2|2|2,2:2|2:2|2:2,0:0:0:0:
64,317,67712,1,2,2:2:0:0:
64,317,68530,6,0,L|72:381,1,50,2|2,2:2|2:2,0:0:0:0:
70,366,69485,86,0,P|32:374|15:384,2,50,2|2|2,2:2|2:2|2:2,0:0:0:0:
150,358,69894,2,0,P|177:373|210:375,3,50,2|2|2|2,2:2|2:2|2:2|2:2,0:0:0:0:
157,239,70439,2,0,P|130:254|112:282,3,50,2|2|2|2,2:2|2:2|2:2|2:2,0:0:0:0:
256,304,71121,2,0,P|264:278|264:249,1,50,2|2,2:2|2:2,0:0:0:0:
233,160,71530,6,0,P|225:114|240:59,2,99.9999999999999,2|2|2,2:2|2:2|2:2,0:0:0:0:
301,232,72348,2,0,L|361:234,1,50,2|2,2:2|2:2,0:0:0:0:
437,284,72757,2,0,P|448:226|433:177,1,99.9999999999999,2|2,2:2|2:2,0:0:0:0:
438,187,73712,86,0,P|391:174|339:189,1,99.9999999999999,2|2,2:2|2:2,0:0:0:0:
263,248,74257,1,2,2:2:0:0:
263,248,74939,2,0,P|228:241|202:242,2,50,2|2|2,2:2|2:2|2:2,0:0:0:0:
304,276,75348,6,0,P|381:291|444:250,1,150,2|2,2:2|2:2,0:0:0:0:
439,255,76166,1,2,2:2:0:0:
418,157,76439,1,2,2:2:0:0:
482,80,76712,2,0,L|491:25,1,50,2|2,2:2|2:2,0:0:0:0:
394,61,77121,86,0,P|361:72|330:70,2,50,2|2|2,2:2|2:2|2:2,0:0:0:0:
417,16,77530,1,2,2:2:0:0:
317,0,77803,6,0,P|285:-2|248:6,1,50,2|2,2:2|2:2,0:0:0:0:
186,2,78076,2,0,L|191:57,3,50,2|2|2|2,2:2|2:2|2:2|2:2,0:0:0:0:
161,133,78621,1,2,2:2:0:0:
161,133,79439,86,0,L|166:194,1,50,2|2,2:2|2:2,0:0:0:0:
111,267,79848,2,0,P|78:273|51:287,2,50,2|2|2,2:2|2:2|2:2,0:0:0:0:
167,287,80257,1,2,2:2:0:0:
212,326,80394,2,0,L|283:314,1,50,2|2,2:2|2:2,0:0:0:0:
343,230,80803,70,0,P|423:240|456:300,2,150,6|4|6,3:2|3:2|3:3,0:0:0:0:
298,290,81757,2,0,B|221:308|221:308|145:277,1,150,2|8,0:2|3:3,0:0:0:0:
115,43,82439,22,0,P|139:19|126:55,1,99.9999999999999,2|2,2:0|2:0,0:0:0:0:
33,143,82985,22,0,P|53:203|48:257,1,99.9999999999999,6|8,3:2|3:3,0:0:0:0:
89,304,83394,2,0,P|143:286|186:288,1,99.9999999999999,6|8,3:3|3:3,0:0:0:0:
229,348,83803,6,0,B|234:280|234:280|244:257|244:257|251:177,1,150,6|4,3:2|3:3,0:0:0:0:
291,138,84348,6,0,P|329:132|390:158,2,99.9999999999999,6|6|10,3:3|3:3|3:3,0:0:0:0:
163,216,85166,70,0,B|90:209|90:209|74:217|74:217|5:211,2,150,6|0|10,3:3|0:0|3:3,0:0:0:0:
226,257,86121,2,0,B|298:263|298:263|314:255|314:255|383:261,2,150,2|0|6,0:2|0:0|3:3,0:0:0:0:
203,185,87076,2,0,P|197:154|203:126,1,50,10|6,3:3|3:3,0:0:0:0:
254,85,87348,6,0,B|293:70|293:70|311:53|311:53|336:65|336:65|355:48|355:48|397:32,2,150,6|6|10,3:2|3:3|3:3,0:0:0:0:
192,42,88303,2,0,P|151:44|96:94,1,99.9999999999999,6|6,3:3|3:3,0:0:0:0:
81,149,88712,1,10,3:3:0:0:
166,272,88985,6,0,B|161:319|161:319|164:332|164:332|160:379,2,99.9999999999999,6|10|6,3:3|3:3|3:3,0:0:0:0:
279,223,89803,2,0,P|313:219|341:224,1,50,10|6,3:3|3:3,0:0:0:0:
450,342,90212,70,0,L|452:301,2,25,6|2|10,3:3|0:2|3:3,0:0:0:0:
383,281,90485,1,2,0:2:0:0:
448,236,90621,38,0,L|446:197,7,25,6|2|6|2|10|2|6|2,3:3|2:2|3:3|2:2|3:3|2:2|3:3|2:2,0:0:0:0:
463,177,91166,2,0,L|461:138,7,25,6|2|6|2|10|2|14|2,3:3|2:2|3:3|2:2|3:3|2:2|1:3|2:2,0:0:0:0:
448,116,91712,54,0,P|408:92|354:99,1,99.9999999999999,6|10,3:3|3:3,0:0:0:0:
246,199,92257,1,10,3:3:0:0:
170,133,92530,2,0,L|172:94,2,33.3333333333333,10|6|6,3:3|3:3|3:3,0:0:0:0:
132,167,92803,2,0,L|129:219,5,33.3333333333333,10|10|10|6|6|6,3:3|3:3|3:3|3:3|3:3|3:3,0:0:0:0:
70,109,93348,2,0,L|73:57,5,33.3333333333333,10|10|10|6|6|6,3:3|3:3|3:3|3:3|3:3|3:3,0:0:0:0:
23,178,93894,6,0,P|17:225|41:275,1,99.9999999999999,6|14,3:3|3:3,0:0:0:0:
185,298,94439,1,6,3:3:0:0:
254,267,94576,2,0,L|299:272,2,25,2|2|6,2:0|2:0|2:2,0:0:0:0:
236,194,94848,1,2,0:3:0:0:
303,133,94985,6,0,L|307:100,7,25,6|2|2|2|10|2|6|6,2:2|2:0|2:3|2:0|2:3|2:0|2:3|2:3,0:0:0:0:
286,76,95530,2,0,L|282:43,7,25,10|2|2|2|10|2|6|2,2:3|2:0|2:3|2:0|2:3|0:0|2:3|2:0,0:0:0:0:
236,103,96076,70,0,B|153:95|179:144|71:135,2,150,6|6|10,2:2|3:3|2:3,0:0:0:0:
305,129,97030,1,2,2:0:0:0:
355,184,97166,6,0,B|349:251|349:251|359:272|359:272|353:336,2,150,6|6|10,3:3|3:3|2:3,0:0:0:0:
396,121,98121,1,2,2:0:0:0:
468,101,98257,2,0,P|449:69|390:47,1,99.9999999999999,6|8,3:2|3:3,0:0:0:0:
320,67,98666,1,8,3:3:0:0:
264,117,98803,2,0,P|216:133|154:106,1,99.9999999999999,6|8,3:3|3:3,0:0:0:0:
63,13,99348,38,0,L|65:57,5,33.3333333333333,6|10|10|10|10|10,3:3|3:3|3:3|3:3|3:3|3:3,0:0:0:0:
36,88,99894,2,0,L|34:132,5,33.3333333333333,6|10|10|10|10|10,3:3|3:3|3:3|3:3|3:3|3:3,0:0:0:0:
74,151,100439,86,0,P|101:185|85:254,1,99.9999999999999,6|10,1:2|3:3,0:0:0:0:
29,274,100848,2,0,P|22:322|51:361,1,99.9999999999999,6|6,3:3|3:3,0:0:0:0:
125,345,101257,2,0,L|236:339,1,99.9999999999999,10|6,3:3|3:3,0:0:0:0:
294,368,101666,2,0,L|405:362,1,99.9999999999999,6|6,3:3|3:3,0:0:0:0:
454,317,102076,6,0,P|471:359|471:376,2,50,6|6|10,3:3|3:3|3:3,0:0:0:0:
395,269,102485,1,6,3:3:0:0:
451,162,102621,86,0,P|464:117|437:62,1,99.9999999999999,6|10,3:3|3:3,0:0:0:0:
404,5,103030,2,0,P|357:0|307:36,1,99.9999999999999,6|6,3:3|3:3,0:0:0:0:
239,41,103439,2,0,L|246:151,1,99.9999999999999,10|6,3:3|3:3,0:0:0:0:
310,178,103848,2,0,L|317:288,1,99.9999999999999,6|6,3:3|3:3,0:0:0:0:
354,342,104257,2,0,P|384:342|420:359,2,50,6|6|10,3:3|3:3|3:3,0:0:0:0:
280,358,104666,1,6,3:3:0:0:
163,322,104803,6,0,P|110:316|72:278,1,99.9999999999999,6|10,3:2|3:3,0:0:0:0:
24,231,105212,2,0,P|39:179|83:149,1,99.9999999999999,6|6,3:3|3:3,0:0:0:0:
93,79,105621,2,0,L|201:82,1,99.9999999999999,10|6,3:3|3:3,0:0:0:0:
255,39,106030,2,0,L|363:42,1,99.9999999999999,6|6,3:3|3:3,0:0:0:0:
429,55,106439,2,0,P|434:28|450:1,2,50,6|6|10,3:3|3:3|3:3,0:0:0:0:
447,128,106848,1,6,3:3:0:0:
402,268,106985,86,0,P|354:249|295:259,1,99.9999999999999,6|10,1:2|3:3,0:0:0:0:
246,299,107394,2,0,P|198:318|139:308,1,99.9999999999999,6|6,3:3|3:3,0:0:0:0:
80,339,107803,2,0,P|63:324|46:292,1,50,10|6,3:3|3:3,0:0:0:0:
21,230,108076,22,0,L|-9:245,6,25,6|2|6|2|10|2|0,2:2|2:0|2:3|2:0|2:3|2:0|0:0,0:0:0:0:
108,188,108621,2,0,L|75:180,6,25,6|2|6|2|10|0|6,2:3|2:0|2:3|2:0|2:3|0:0|2:3,0:0:0:0:
183,116,109166,22,0,B|236:106|236:106|296:118,1,99.9999999999999,6|10,1:2|3:3,0:0:0:0:
341,160,109576,2,0,L|339:226,2,50,2|10|2,3:3|3:3|3:3,0:0:0:0:
351,85,109985,2,0,B|381:77|381:77|455:95,1,99.9999999999999,10|10,3:3|3:3,0:0:0:0:
478,162,110394,2,0,L|477:231,1,50,2|10,3:3|3:3,0:0:0:0:
475,285,110666,1,2,3:3:0:0:
394,345,110803,6,0,B|354:341|354:341|329:347|329:347|289:343,1,99.9999999999999,10|10,3:3|3:3,0:0:0:0:
242,290,111212,1,2,3:3:0:0:
187,340,111348,2,0,B|133:351|133:351|92:321,1,99.9999999999999,10|10,3:3|3:3,0:0:0:0:
114,251,111757,2,0,L|166:245,2,50,2|10|2,3:3|3:3|3:3,0:0:0:0:
66,192,112167,2,0,L|67:123,1,50,10|2,3:3|3:3,0:0:0:0:
68,68,112439,1,10,3:3:0:0:
139,43,112576,2,0,P|172:42|205:55,2,50,2|10|2,3:3|3:3|3:3,0:0:0:0:
207,123,112985,6,0,B|246:119|246:119|272:133|272:133|319:129,1,99.9999999999999,10|10,3:3|3:3,0:0:0:0:
358,79,113394,1,2,3:3:0:0:
408,181,113530,70,0,P|416:154|413:125,2,50,6|6|10,1:2|3:3|3:3,0:0:0:0:
427,258,113939,2,0,P|452:246|473:225,2,50,6|6|6,3:3|3:3|3:3,0:0:0:0:
381,324,114348,2,0,L|325:331,1,50,10|6,3:3|3:3,0:0:0:0:
256,339,114621,1,6,3:3:0:0:
196,287,114757,6,0,P|167:281|143:282,2,50,6|10|6,3:3|3:3|3:3,0:0:0:0:
258,235,115166,2,0,B|274:203|274:203|268:127,1,99.9999999999999,6|10,1:2|3:3,0:0:0:0:
260,58,115576,1,6,3:3:0:0:
131,44,115712,6,0,P|75:33|21:54,1,99.9999999999999,6|10,1:2|3:3,0:0:0:0:
41,125,116121,2,0,P|20:178|31:235,1,99.9999999999999,6|10,1:2|3:3,0:0:0:0:
100,247,116530,2,0,P|132:284|152:293,1,50,6|6,1:2|3:3,0:0:0:0:
212,292,116803,1,10,3:3:0:0:
327,362,116939,70,0,L|334:306,1,50,6|6,3:3|3:3,0:0:0:0:
342,237,117212,1,10,3:3:0:0:
410,195,117348,2,0,P|448:196|471:209,2,50,6|6|6,3:3|3:2|3:3,0:0:0:0:
339,156,117757,1,14,3:3:0:0:
256,308,118439,69,6,1:2:0:0:
256,192,118576,12,0,122257,0:0:0:0:
