osu file format v14

[General]
AudioFilename: audio.mp3
AudioLeadIn: 0
PreviewTime: 82398
Countdown: 0
SampleSet: Soft
StackLeniency: 0.5
Mode: 0
LetterboxInBreaks: 0
WidescreenStoryboard: 1

[Editor]
Bookmarks: 40470,90639,109184
DistanceSpacing: 0.3
BeatDivisor: 8
GridSize: 4
TimelineZoom: 2.1

[Metadata]
Title:Preserved Valkyria
TitleUnicode:Preserved Valkyria
Artist:penoreri
ArtistUnicode:ぺのれり
Creator:mithew
Version:Final Battle with the Embodiment of Evil
Source:SOUND VOLTEX III GRAVITY WARS
Tags:SDVX Ortlinde=NBLG=Valkyria gravitational radar episode 06 konami
BeatmapID:1076975
BeatmapSetID:506305

[Difficulty]
HPDrainRate:6
CircleSize:4.2
OverallDifficulty:8.5
ApproachRate:9.5
SliderMultiplier:1.8
SliderTickRate:1

[Events]
//Background and Video events
0,0,"bgPV.png",0,0
//Break Periods
//Storyboard Layer 0 (Background)
//Storyboard Layer 1 (Fail)
//Storyboard Layer 2 (Pass)
//Storyboard Layer 3 (Foreground)
//Storyboard Sound Samples

[TimingPoints]
-149,387.096774193548,4,2,0,60,1,0
1012,-166.666666666667,4,2,0,40,0,0
1302,-166.666666666667,4,2,0,5,0,0
1399,-125,4,2,3,60,0,0
1689,-125,4,2,0,5,0,0
1786,-111.111111111111,4,2,0,60,0,0
2076,-111.111111111111,4,2,0,5,0,0
2173,-111.111111111111,4,2,0,60,0,0
2367,-111.111111111111,4,2,0,5,0,0
2463,-111.111111111111,4,2,0,60,0,0
2657,-111.111111111111,4,2,0,5,0,0
2754,-142.857142857143,4,2,0,60,0,0
3528,-111.111111111111,4,2,0,40,0,0
3915,-111.111111111111,4,2,0,5,0,0
4012,-111.111111111111,4,2,0,40,0,0
4205,-111.111111111111,4,2,0,5,0,0
4302,-111.111111111111,4,2,0,60,0,0
4350,-111.111111111111,4,2,0,5,0,0
4689,-100,4,2,0,60,0,0
4883,-100,4,2,0,5,0,0
4980,-200,4,2,0,60,0,0
6141,-100,4,2,0,60,0,0
19205,-86.9565217391304,4,2,0,60,0,0
23076,-100,4,2,0,60,0,0
26076,-90.9090909090909,4,2,0,60,0,0
27818,-76.9230769230769,4,2,0,60,0,0
28399,-71.4285714285714,4,2,0,60,0,0
29270,-90.9090909090909,4,2,0,20,0,0
32367,-76.9230769230769,4,2,0,20,0,0
33141,-153.846153846154,4,2,0,60,0,0
33818,-153.846153846154,4,2,0,5,0,0
33915,-200,4,2,0,60,0,0
35367,-200,4,2,0,5,0,0
35463,-500,4,2,0,60,0,0
38431,-100,4,2,0,60,0,0
38560,-100,4,2,0,60,0,0
39334,-200,4,2,0,60,0,0
45528,-200,4,2,0,60,0,0
46299,400,4,2,0,70,1,0
46299,-200,4,2,0,70,0,0
46999,-200,4,2,0,5,0,0
47112,461.538461538462,4,2,0,70,1,0
47112,-250,4,2,0,70,0,0
47458,-200,4,2,0,5,0,0
47573,521.739130434783,4,2,0,70,1,0
47573,-500,4,2,0,70,0,0
47964,-500,4,2,0,5,0,0
48094,272.727272727273,4,2,0,90,1,0
48094,-100,4,2,2,90,0,0
48230,-100,4,2,0,90,0,0
48639,-111.111111111111,4,2,0,90,0,0
49048,-100,4,2,0,90,0,0
49457,-111.111111111111,4,2,0,90,0,0
50412,-100,4,2,0,90,0,0
50821,-111.111111111111,4,2,0,90,0,0
51366,-90.9090909090909,4,2,0,90,0,0
51639,-111.111111111111,4,2,0,90,0,0
52457,-95.2380952380952,4,2,0,90,0,0
53003,-111.111111111111,4,2,0,90,0,0
54094,-95.2380952380952,4,2,0,90,0,0
54639,-83.3333333333333,4,2,0,90,0,0
56275,-100,4,2,0,90,0,0
56821,-76.9230769230769,4,2,1,90,0,1
63639,-100,4,2,1,90,0,1
65548,-100,4,2,4,90,0,1
65957,-200,4,2,1,30,0,0
71480,-200,4,2,1,5,0,0
71548,-200,4,2,1,30,0,0
72503,-400,4,2,1,30,0,0
73184,-200,4,2,1,30,0,0
75366,-133.333333333333,4,2,1,30,0,0
76184,-200,4,2,1,30,0,0
80275,-166.666666666667,4,2,1,50,0,0
80548,-125,4,2,1,90,0,0
80821,-80,4,2,1,100,0,0
82457,-153.846153846153,4,2,1,90,0,1
82730,-111.111111111111,4,2,1,90,0,1
83003,-80,4,2,2,90,0,0
83275,-80,4,2,1,90,0,0
83957,-80,4,2,2,90,0,1
84230,-80,4,2,1,90,0,1
84366,-90.9090909090909,4,2,1,90,0,1
84639,-80,4,2,1,90,0,1
84912,-66.6666666666667,4,2,1,90,0,1
85184,-80,4,2,1,90,0,1
85730,-80,4,2,4,90,0,1
86003,-80,4,2,1,90,0,1
86275,-80,4,2,5,90,0,1
86548,-80,4,2,1,90,0,1
87366,-80,4,2,5,90,0,1
87503,-80,4,2,1,90,0,1
88321,-80,4,2,4,90,0,1
88594,-100,4,2,1,90,0,1
89003,-90.9090909090909,4,2,1,90,0,1
89275,-83.3333333333333,4,2,1,90,0,1
89548,-76.9230769230769,4,2,1,90,0,1
90094,-76.9230769230769,4,2,5,90,0,1
90230,-76.9230769230769,4,2,1,90,0,1
90639,-100,4,2,6,90,0,1
90707,-100,4,2,1,90,0,1
91730,-100,4,2,1,90,0,1
96094,-80,4,2,1,90,0,1
96707,-80,4,2,1,5,0,1
96775,-80,4,2,1,90,0,1
97798,-80,4,2,1,5,0,1
97866,-80,4,2,1,90,0,1
98275,-100,4,2,1,90,0,1
100457,-100,4,2,1,90,0,0
101003,-100,4,2,1,90,0,0
101412,-80,4,2,1,90,0,0
101821,-100,4,2,1,90,0,0
102639,-80,4,2,1,90,0,0
103184,-100,4,2,1,90,0,0
103594,-80,4,2,1,90,0,0
104003,-100,4,2,1,90,0,0
104821,-80,4,2,1,90,0,0
105366,-100,4,2,1,90,0,0
105775,-80,4,2,1,90,0,0
106184,-100,4,2,1,90,0,0
106457,-80,4,2,1,90,0,0
109457,-76.9230769230769,4,2,1,90,0,1
113548,-76.9230769230769,4,2,1,90,0,0
118525,-76.9230769230769,4,2,1,5,0,0

[Colours]
Combo1 : 192,192,192
Combo2 : 0,174,174
Combo3 : 255,83,83
Combo4 : 139,7,130
Combo5 : 255,201,147

[HitObjects]
380,277,1012,6,0,P|419:288|443:319,1,80.9999975280763,0|0,3:0|0:0,0:0:0:0:
305,327,1399,54,0,P|291:276|308:226,1,108,6|0,0:0|0:0,0:0:0:0:
382,176,1786,2,0,B|358:145|358:145|270:132,1,121.499996292114,2|2,0:0|0:0,0:0:0:0:
198,174,2173,2,0,P|186:135|196:96,1,80.9999975280763,2|0,0:0|0:0,0:0:0:0:
149,158,2463,2,0,P|164:120|197:97,1,80.9999975280763,2|0,0:0|0:0,0:0:0:0:
89,146,2754,2,0,P|135:104|197:97,1,125.999996154785,2|2,0:0|0:0,0:0:0:0:
340,219,3528,5,2,0:0:0:0:
340,219,3721,2,0,P|366:249|405:262,1,80.9999975280763,2|0,0:0|0:0,0:0:0:0:
327,133,4012,2,0,P|281:151|259:183,1,80.9999975280763,2|0,0:0|0:0,0:0:0:0:
419,171,4302,6,0,B|432:150,1,20.2499993820191,2|0,0:0|0:0,0:0:0:0:
254,265,4689,53,2,0:0:0:0:
254,265,4786,2,0,P|227:258|206:238,1,45,2|0,0:0|0:0,0:0:0:0:
106,188,4980,1,2,0:0:0:0:
106,188,5076,2,0,P|92:230|103:274,1,90,2|0,0:0|0:0,0:0:0:0:
256,192,5657,5,2,0:0:0:0:
256,320,5850,1,2,0:0:0:0:
409,274,6141,38,0,P|419:242|404:187,1,90
372,157,6431,1,0,0:0:0:0:
329,147,6528,1,0,0:0:0:0:
286,160,6624,1,0,0:0:0:0:
256,192,6721,1,0,0:0:0:0:
225,160,6818,6,0,P|160:149|107:188,1,135,2|0,0:0|0:0,0:0:0:0:
286,160,7205,2,0,P|351:149|405:188,1,135,2|0,0:0|0:0,0:0:0:0:
333,231,7592,38,0,L|319:273,1,45,2|0,0:0|0:0,0:0:0:0:
192,273,7786,2,0,L|179:231,1,45
191,44,7980,5,2,0:0:0:0:
191,44,8076,1,0,0:0:0:0:
191,44,8174,2,0,P|171:52|153:65,1,45
320,44,8367,1,2,0:0:0:0:
320,44,8463,1,0,0:0:0:0:
320,44,8561,2,0,P|340:53|358:66,1,45
153,171,8754,5,2,0:0:0:0:
153,171,8850,1,0,0:0:0:0:
153,171,8947,2,0,P|132:181|114:194,1,45
359,172,9141,1,2,0:0:0:0:
359,172,9238,1,0,0:0:0:0:
359,172,9334,2,0,P|379:181|397:194,1,45
256,332,9528,5,2,0:0:0:0:
256,332,9625,1,0,0:0:0:0:
256,332,9721,2,0,L|256:268,1,45
191,193,9915,6,0,P|171:184|153:171,1,45,2|0,0:0|0:0,0:0:0:0:
320,195,10109,2,0,P|340:185|359:172,1,45,2|0,0:0|0:0,0:0:0:0:
153,66,10302,2,0,P|133:57|115:44,1,45,2|0,0:0|0:0,0:0:0:0:
360,67,10496,2,0,P|380:57|398:44,1,45,2|0,0:0|0:0,0:0:0:0:
153,66,10689,5,2,0:0:0:0:
360,67,10818,1,0,0:0:0:0:
256,12,10947,1,0,0:0:0:0:
191,193,11076,5,2,0:0:0:0:
320,195,11205,1,0,0:0:0:0:
256,140,11334,1,0,0:0:0:0:
215,300,11463,5,2,0:0:0:0:
296,299,11592,1,0,0:0:0:0:
256,236,11721,1,0,0:0:0:0:
256,368,11850,5,2,0:0:0:0:
256,368,11980,1,0,0:0:0:0:
256,368,12109,1,0,0:0:0:0:
256,236,12238,5,2,0:0:0:0:
160,192,12431,5,0,0:0:0:0:
199,171,12527,1,0,0:0:0:0:
227,136,12624,1,0,0:0:0:0:
256,96,12721,1,0,0:0:0:0:
284,136,12818,1,0,0:0:0:0:
311,171,12915,1,0,0:0:0:0:
351,191,13011,5,2,0:0:0:0:
160,192,13399,1,2,0:0:0:0:
337,302,13786,6,0,B|305:342|258:336,1,90,6|0,0:0|0:0,0:0:0:0:
403,226,14173,2,0,B|443:258|437:305,1,90
270,253,14560,1,2,0:0:0:0:
128,345,14754,1,0,0:0:0:0:
128,345,14850,1,0,0:0:0:0:
128,345,14947,2,0,P|139:321|162:299,1,45
270,253,15141,2,0,P|259:229|236:207,1,45
130,123,15334,5,2,0:0:0:0:
116,153,15431,1,0,0:0:0:0:
83,144,15528,5,0,0:0:0:0:
83,144,15625,1,0,0:0:0:0:
73,175,15722,1,0,0:0:0:0:
76,208,15819,1,0,0:0:0:0:
86,239,15915,1,0,0:0:0:0:
83,272,16012,1,0,0:0:0:0:
60,299,16109,5,2,0:0:0:0:
66,266,16205,1,0,0:0:0:0:
86,239,16302,1,0,0:0:0:0:
115,224,16399,1,0,0:0:0:0:
149,223,16496,5,2,0:0:0:0:
186,240,16592,1,0,0:0:0:0:
224,257,16689,1,0,0:0:0:0:
266,256,16786,1,0,0:0:0:0:
302,238,16883,6,0,P|329:209|344:164,1,45,2|0,0:0|0:0,0:0:0:0:
243,71,17076,1,0,0:0:0:0:
243,71,17173,1,0,0:0:0:0:
243,71,17270,2,0,P|221:94|209:130,1,45
123,146,17463,2,0,P|115:168|115:190,1,45
49,294,17656,5,2,0:0:0:0:
82,325,17753,1,0,0:0:0:0:
125,335,17850,1,0,0:0:0:0:
169,325,17947,1,0,0:0:0:0:
202,295,18044,1,0,0:0:0:0:
235,265,18140,1,0,0:0:0:0:
279,255,18237,1,0,0:0:0:0:
322,265,18334,1,0,0:0:0:0:
354,293,18431,5,2,0:0:0:0:
311,285,18527,1,0,0:0:0:0:
279,255,18624,1,0,0:0:0:0:
267,212,18721,1,0,0:0:0:0:
279,169,18818,1,0,0:0:0:0:
314,141,18914,1,0,0:0:0:0:
323,96,19011,1,0,0:0:0:0:
306,53,19109,1,0,0:0:0:0:
269,27,19205,6,0,P|240:13|200:13,1,51.7500009870529,2|0,0:0|0:0,0:0:0:0:
119,97,19399,2,0,P|96:111|80:131,1,51.7500009870529,2|0,0:0|0:0,0:0:0:0:
106,263,19592,2,0,P|108:295|128:329,1,51.7500009870529,2|0,0:0|0:0,0:0:0:0:
243,357,19786,2,0,P|272:371|312:371,1,51.7500009870529,2|0,0:0|0:0,0:0:0:0:
440,358,19980,5,6,0:0:0:0:
446,333,20044,1,0,0:0:0:0:
439,308,20109,1,0,0:0:0:0:
431,283,20173,1,0,0:0:0:0:
439,259,20238,1,0,0:0:0:0:
446,235,20303,1,0,0:0:0:0:
438,211,20367,2,0,P|436:178|445:153,5,34.5000006580353
327,277,20754,1,0,0:0:0:0:
481,46,20947,5,2,0:0:0:0:
512,197,21141,1,2,0:0:0:0:
387,30,21334,1,2,0:0:0:0:
260,228,21528,6,0,P|301:198|353:196,1,103.500001974106,6|0,0:0|0:0,0:0:0:0:
235,340,21915,2,0,B|211:319|189:311|189:311|160:257,1,103.500001974106
327,277,22205,1,0,0:0:0:0:
327,277,22302,1,0,0:0:0:0:
69,282,22496,6,0,P|75:232|106:191,1,103.500001974106,2|0,3:2|0:0,0:0:0:0:
28,250,22786,2,0,P|58:209|105:191,1,103.500001974106,2|0,3:2|0:0,0:0:0:0:
186,153,23076,6,0,P|193:174|196:197,1,45,4|0,0:0|0:0,0:0:0:0:
112,93,23270,2,0,P|115:70|122:49,1,45
106,277,23560,5,0,0:0:0:0:
263,304,23754,1,0,0:0:0:0:
276,286,23850,1,0,0:0:0:0:
186,153,24044,1,0,0:0:0:0:
175,137,24140,1,0,0:0:0:0:
372,112,24334,5,0,0:0:0:0:
200,244,24528,1,0,0:0:0:0:
172,42,24721,1,0,0:0:0:0:
136,48,24818,1,0,0:0:0:0:
112,70,24914,1,0,0:0:0:0:
372,112,25109,5,0,0:0:0:0:
211,202,25302,1,0,0:0:0:0:
200,244,25398,1,0,0:0:0:0:
374,304,25592,1,0,0:0:0:0:
384,341,25688,1,0,0:0:0:0:
358,84,25883,5,0,0:0:0:0:
200,244,26076,2,0,L|162:185,1,49.5000015106202,4|4,0:3|0:0,0:0:0:0:
104,116,26270,1,0,0:0:0:0:
104,116,26367,2,0,P|86:133|70:160,1,49.5000015106202
22,367,26657,5,0,0:0:0:0:
229,290,26850,1,0,0:0:0:0:
200,244,26946,1,0,0:0:0:0:
4,144,27141,1,0,0:0:0:0:
32,100,27237,1,0,0:0:0:0:
136,347,27431,5,0,0:0:0:0:
192,96,27625,1,4,0:3:0:0:
192,96,27721,1,4,0:0:0:0:
192,96,27818,2,0,P|171:80|117:68,1,58.4999973220826
200,244,28012,1,0,0:0:0:0:
384,352,28205,5,0,0:0:0:0:
256,192,28399,2,0,L|256:128,1,62.9999980773926,4|4,2:3|0:0,0:0:0:0:
144,192,28625,5,10,0:0:0:0:
368,192,28754,1,10,0:0:0:0:
128,192,28883,1,10,0:0:0:0:
384,192,29012,1,10,0:0:0:0:
256,64,29141,1,10,0:0:0:0:
256,64,29270,54,0,L|256:16,12,24.7500007553101,2|0|0|0|0|0|0|0|0|0|0|0|0,0:0|0:0|0:0|0:0|0:0|0:0|0:0|0:0|0:0|0:0|0:0|0:0|0:0,0:0:0:0:
145,128,29947,1,0,0:0:0:0:
145,128,29996,1,0,0:0:0:0:
145,128,30044,2,0,L|103:104,12,24.7500007553101,2|0|0|0|0|0|0|0|0|0|0|0|0,0:0|0:0|0:0|0:0|0:0|0:0|0:0|0:0|0:0|0:0|0:0|0:0|0:0,0:0:0:0:
145,256,30721,1,0,0:0:0:0:
145,256,30770,1,0,0:0:0:0:
145,256,30818,2,0,L|103:280,12,24.7500007553101,2|0|0|0|0|0|0|0|0|0|0|0|0,0:0|0:0|0:0|0:0|0:0|0:0|0:0|0:0|0:0|0:0|0:0|0:0|0:0,0:0:0:0:
256,320,31496,1,0,0:0:0:0:
256,320,31544,1,0,0:0:0:0:
256,320,31592,2,0,L|256:368,12,24.7500007553101,2|0|0|0|0|0|0|0|0|0|0|0|0,0:0|0:0|0:0|0:0|0:0|0:0|0:0|0:0|0:0|0:0|0:0|0:0|0:0,0:0:0:0:
366,256,32270,1,0,0:0:0:0:
366,256,32318,1,0,0:0:0:0:
366,256,32367,2,0,L|411:282,14,29.2499986610413,2|0|0|0|0|0|0|0|0|0|0|0|0|0|0,0:0|0:0|0:0|0:0|0:0|0:0|0:0|0:0|0:0|0:0|0:0|0:0|0:0|0:0|0:0,0:0:0:0:
402,140,33141,54,0,B|437:162|481:155|481:155|513:204|490:275,1,204.749990627289,4|0,1:0|0:0,0:0:0:0:
494,364,33915,2,0,B|448:362|421:328|421:328|379:362|316:351|282:318|277:257|286:210|339:192,1,345,4|0,1:0|0:0,0:0:0:0:
371,268,35463,6,0,B|299:311|248:259|248:259|184:278|175:344,1,252,4|8,1:0|0:3,0:0:0:0:
372,297,38431,6,0,L|370:268,1,30,4|4,0:3|3:0,0:0:0:0:
312,200,38560,1,4,3:0:0:0:
336,183,38625,1,8,3:0:0:0:
365,175,38689,1,8,3:0:0:0:
394,180,38754,1,8,3:0:0:0:
418,197,38818,1,8,3:0:0:0:
447,202,38883,1,8,3:0:0:0:
475,192,38947,5,4,3:0:0:0:
495,169,39012,1,4,3:0:0:0:
503,140,39076,1,4,3:0:0:0:
494,110,39141,1,4,3:0:0:0:
471,90,39205,1,4,3:0:0:0:
441,81,39270,1,4,3:0:0:0:
412,88,39334,22,0,B|378:121|339:117|339:117|337:164|299:178,1,157.5,4|0,1:0|3:0,0:0:0:0:
418,197,40060,1,0,3:0:0:0:
418,197,40109,2,0,B|430:225|430:225|428:275,1,67.5,4|0,1:0|0:0,0:0:0:0:
407,183,40496,1,0,0:0:0:0:
256,336,40883,5,8,3:0:0:0:
176,224,41173,1,4,3:0:0:0:
336,224,41463,1,0,3:0:0:0:
256,64,41657,5,0,3:0:0:0:
256,192,41850,1,0,1:0:0:0:
256,320,42044,1,0,3:0:0:0:
256,320,42141,1,0,3:0:0:0:
336,224,42334,1,0,3:0:0:0:
336,224,42431,1,0,1:0:0:0:
176,224,42625,1,0,3:0:0:0:
176,224,42722,1,0,1:0:0:0:
256,128,42915,1,0,3:0:0:0:
256,94,43012,1,0,3:0:0:0:
256,60,43109,1,0,3:0:0:0:
256,26,43205,5,0,1:0:0:0:
112,109,43496,1,8,0:3:0:0:
112,275,43786,1,4,0:3:0:0:
256,358,44076,1,0,3:3:0:0:
400,275,44367,6,0,L|408:256,2,15,0|0|0,3:0|3:0|3:0,0:0:0:0:
321,216,44560,2,0,L|318:195,2,15,0|0|0,3:0|3:0|3:0,0:0:0:0:
0,334,45528,6,0,P|23:319|38:299,1,45,2|0,0:0|0:0,0:0:0:0:
124,236,45915,2,0,P|109:219|89:207,1,45,2|0,0:0|0:0,0:0:0:0:
264,384,46173,1,0,0:0:0:0:
264,384,46238,1,0,0:0:0:0:
264,384,46299,2,0,B|278:354|314:335|314:335|292:290|307:249,1,157.5,2|0,0:0|0:0,0:0:0:0:
224,160,47112,6,0,B|206:133|166:126,1,54,2|0,0:0|0:0,0:0:0:0:
289,227,47573,6,0,P|300:236|307:253,1,31.5,2|0,0:0|0:0,0:0:0:0:
91,84,48094,21,6,0:0:0:0:
91,84,48230,2,0,B|105:133|105:133|103:174,1,90
142,366,48503,1,2,0:0:0:0:
142,366,48639,2,0,B|142:315|142:315|154:275,1,80.9999975280763
282,142,48912,21,2,0:0:0:0:
282,142,49048,2,0,B|234:128|234:128|192:130,1,90
0,193,49321,1,2,0:0:0:0:
0,193,49457,2,0,B|51:193|51:193|91:181,1,80.9999975280763
235,331,49730,5,2,0:0:0:0:
235,331,49866,1,0,0:0:0:0:
384,160,50003,1,2,0:0:0:0:
384,160,50139,1,0,0:0:0:0:
485,384,50275,21,2,0:0:0:0:
485,384,50412,2,0,B|465:346|465:346|417:316,1,90
235,331,50684,1,2,0:0:0:0:
235,331,50821,2,0,B|281:328|281:328|312:312,1,80.9999975280763
407,146,51094,21,2,0:0:0:0:
407,146,51230,1,0,0:0:0:0:
407,146,51366,2,0,B|354:149|354:149|310:175,1,99.0000030212403
144,224,51639,2,0,B|154:263|154:263|180:295,1,80.9999975280763,2|0,0:0|0:0,0:0:0:0:
200,50,51912,5,2,0:0:0:0:
200,50,52048,1,0,0:0:0:0:
381,221,52184,1,2,0:0:0:0:
381,221,52321,1,0,0:0:0:0:
157,384,52457,38,0,P|109:316|155:217,1,188.999994232178,4|0,1:0|0:0,0:0:0:0:
290,296,52866,5,2,0:0:0:0:
290,296,53003,2,0,L|210:301,1,80.9999975280763
49,162,53275,1,2,0:0:0:0:
49,162,53412,2,0,L|129:157,1,80.9999975280763
290,28,53684,1,2,0:0:0:0:
290,28,53821,2,0,L|210:23,1,80.9999975280763
123,247,54094,6,0,P|186:228|205:113,1,188.999994232178,4|2,1:0|0:0,0:0:0:0:
298,242,54503,1,0,0:0:0:0:
129,156,54639,5,4,1:0:0:0:
129,156,54775,2,0,P|76:169|34:242,1,107.999996704102
383,156,55048,1,2,0:0:0:0:
383,156,55184,2,0,P|436:169|478:242,1,107.999996704102
256,368,55457,2,0,L|256:260,1,107.999996704102,2|0,0:0|0:0,0:0:0:0:
181,104,55730,5,2,0:0:0:0:
383,156,55866,1,0,0:0:0:0:
159,95,56003,1,2,0:0:0:0:
440,8,56139,1,0,0:0:0:0:
389,247,56275,37,2,0:0:0:0:
345,239,56343,1,0,0:0:0:0:
310,211,56411,1,0,0:0:0:0:
293,170,56479,1,0,0:0:0:0:
299,126,56547,1,2,0:0:0:0:
326,90,56615,1,0,0:0:0:0:
367,73,56684,1,0,0:0:0:0:
411,77,56752,1,0,0:0:0:0:
447,102,56821,6,0,B|446:156|446:156|470:215,1,116.999994644165,6|0,3:2|2:0,0:0:0:0:
256,48,57094,1,8,1:2:0:0:
296,304,57230,2,0,B|245:334|245:334|217:384,1,116.999994644165,2|0,0:0|3:0,0:0:0:0:
470,215,57503,1,0,3:0:0:0:
256,48,57639,5,10,1:2:0:0:
256,48,57775,2,0,L|121:80,1,116.999994644165,0|0,2:0|2:0,3:0:0:0:
28,246,58048,1,2,3:2:0:0:
28,246,58184,2,0,L|163:278,1,116.999994644165,8|0,1:2|0:0,0:0:0:0:
391,334,58457,5,2,3:2:0:0:
164,278,58594,1,0,3:0:0:0:
400,177,58730,1,10,1:2:0:0:
311,377,58866,1,0,3:0:0:0:
231,109,59003,6,0,P|198:56|133:25,1,116.999994644165,2|0,3:2|0:0,0:0:0:0:
296,304,59275,1,8,1:2:0:0:
29,193,59412,2,0,L|129:132,1,116.999994644165,2|0,0:0|3:0,0:0:0:0:
43,315,59684,1,0,3:0:0:0:
296,304,59821,5,10,1:2:0:0:
296,304,59958,2,0,L|193:244,1,116.999994644165,0|0,3:0|0:0,0:0:0:0:
243,33,60230,1,2,3:2:0:0:
243,33,60367,2,0,L|349:92,1,116.999994644165,8|0,1:2|0:0,0:0:0:0:
512,209,60639,5,0,3:0:0:0:
345,89,60775,1,0,3:0:0:0:
325,348,60912,1,8,1:2:0:0:
468,156,61048,1,0,3:0:0:0:
131,218,61184,5,0,3:0:0:0:
345,89,61321,1,0,0:0:0:0:
325,348,61457,1,8,1:2:0:0:
101,99,61594,5,0,0:0:0:0:
105,328,61730,1,0,3:0:0:0:
198,166,61866,1,0,3:0:0:0:
325,348,62003,5,8,1:2:0:0:
345,89,62139,1,0,3:0:0:0:
478,233,62275,1,0,3:0:0:0:
143,239,62412,5,0,3:0:0:0:
434,183,62548,1,8,1:2:0:0:
298,262,62684,1,0,0:0:0:0:
482,118,62821,6,0,L|449:4,1,116.999994644165,2|0,3:2|3:0,0:0:0:0:
298,262,63094,2,0,L|331:376,1,116.999994644165,10|0,1:2|0:0,0:0:0:0:
102,202,63366,6,0,L|69:88,1,116.999994644165,0|0,3:0|0:0,0:0:0:0:
77,81,63571,1,0,0:0:0:0:
85,71,63639,1,8,1:2:0:0:
360,150,63775,5,0,3:0:0:0:
360,150,63844,1,0,0:0:0:0:
360,150,63912,2,0,P|342:184|341:210,1,45
203,325,64048,1,8,1:2:0:0:
203,325,64116,1,0,0:0:0:0:
203,325,64184,2,0,P|192:298|192:272,1,45,0|0,3:0|0:0,0:0:0:0:
261,147,64321,2,0,P|258:125|249:105,1,45,0|0,3:0|0:0,0:0:0:0:
51,53,64457,6,0,L|59:161,1,90,8|0,1:2|3:0,0:0:0:0:
144,335,64730,2,0,L|150:245,1,90,0|8,0:0|1:2,0:0:0:0:
276,80,65003,2,0,L|341:55,2,60,0|0|0,3:0|3:0|3:0,0:0:0:0:
149,245,65275,2,0,L|84:270,2,60,0|0|0,3:0|3:0|3:0,0:0:0:0:
394,141,65548,5,6,1:0:0:0:
378,173,65957,1,0,0:0:0:0:
256,80,66366,1,0,0:0:0:0:
271,99,66912,5,0,0:0:0:0:
360,192,67184,1,0,0:0:0:0:
300,305,67457,1,0,0:0:0:0:
160,290,67730,6,0,L|150:302,1,11.25,2|0,0:0|0:0,0:0:0:0:
342,318,68548,5,0,0:0:0:0:
150,264,68684,1,0,0:0:0:0:
64,320,69503,5,0,0:0:0:0:
150,264,69639,1,0,0:0:0:0:
64,208,69775,1,0,0:0:0:0:
150,152,69912,5,0,0:0:0:0:
181,130,70048,1,0,0:0:0:0:
213,108,70184,1,0,0:0:0:0:
246,87,70321,1,0,0:0:0:0:
279,66,70457,1,0,0:0:0:0:
312,46,70594,1,0,0:0:0:0:
345,25,70730,1,0,0:0:0:0:
378,6,70866,1,0,0:0:0:0:
312,228,71139,5,0,0:0:0:0:
312,228,71275,2,0,P|288:204|257:192,1,67.5
257,192,71548,1,0,0:0:0:0:
143,359,71821,1,0,0:0:0:0:
146,186,72094,6,0,P|151:165|163:146,1,45
256,64,72366,1,0,0:0:0:0:
348,146,72503,2,0,P|360:166|365:188,2,45
208,262,73184,6,0,P|200:283|200:305,1,45
291,345,73457,2,0,P|298:323|298:301,1,45
348,146,73730,5,0,0:0:0:0:
322,109,74003,1,0,0:0:0:0:
296,72,74275,1,0,0:0:0:0:
258,120,74957,6,0,P|257:97|265:76,1,45
348,188,75230,1,0,0:0:0:0:
512,190,75366,2,0,B|485:196|454:187|454:187|427:201|348:188|348:188|399:180,1,202.500007724762
441,302,76184,6,0,P|398:326|377:368,1,90
382,182,76730,1,0,0:0:0:0:
382,182,76866,1,0,0:0:0:0:
207,227,77139,5,0,0:0:0:0:
129,151,77276,1,0,0:0:0:0:
109,255,77412,1,0,0:0:0:0:
252,161,77548,6,0,P|275:181|287:212,1,45
335,329,77821,2,0,P|340:287|349:271,1,45
440,174,78094,2,0,P|417:194|405:225,1,45
252,161,78366,2,0,P|239:142|221:128,1,45
61,82,78639,6,0,B|50:107|54:142|54:142|31:187|35:219|35:219|60:190,1,180
148,354,79457,1,0,0:0:0:0:
148,354,79594,1,0,0:0:0:0:
284,162,79866,5,0,0:0:0:0:
284,162,80003,2,0,P|256:155|231:153,1,45
342,259,80275,2,0,P|318:276|298:306,1,53.9999983520508
452,233,80548,2,0,P|452:268|479:317,1,72,0|0,2:0|2:0,2:0:0:0:
434,22,80821,6,0,P|411:139|464:246,1,225,4|8,3:0|1:2,2:0:0:0:
252,117,81230,2,0,P|274:226|236:330,1,225,4|8,3:0|1:2,2:0:0:0:
193,48,81639,2,0,P|244:27|298:37,1,112.5,4|0,3:0|3:0,0:0:0:0:
298,37,81844,1,0,1:0:0:0:
298,37,81912,1,8,1:2:0:0:
436,347,82048,1,8,3:0:0:0:
101,308,82184,1,8,3:0:0:0:
298,37,82320,1,8,3:0:0:0:
277,246,82457,6,0,P|311:275|323:331,1,87.749995983124,2|0,0:0|0:0,0:0:0:0:
277,246,82730,2,0,P|335:231|392:253,1,121.499996292114,2|0,0:0|0:0,0:0:0:0:
236,330,83003,6,0,P|183:238|251:156,1,225,6|8,1:0|1:2,0:0:0:0:
453,52,83412,2,0,B|450:88|470:124|470:124|448:177|469:227|469:227|435:199,1,225,4|8,1:0|1:2,0:0:0:0:
130,143,83821,1,0,0:0:0:0:
236,330,83957,6,0,P|183:238|251:156,1,225,6|8,1:0|1:2,0:0:0:0:
428,318,84366,2,0,L|468:228,1,99.0000030212403,8|0,1:2|0:0,0:0:0:0:
172,238,84639,2,0,L|236:330,1,112.5,0|0,3:0|0:0,0:0:0:0:
387,39,84912,2,0,L|251:51,1,135.000005149842,8|0,1:2|0:0,0:0:0:0:
87,266,85184,6,0,P|106:176|240:177,1,225,2|8,3:2|1:2,0:0:0:0:
236,330,85594,1,0,3:0:0:0:
390,237,85730,2,0,B|388:268|363:286|363:286|368:313|357:339,1,112.5,6|0,0:0|3:0,0:0:0:0:
410,66,86003,5,10,1:2:0:0:
352,365,86139,1,2,0:0:0:0:
458,167,86275,2,0,B|426:171|404:150|404:150|378:160|350:154,1,112.5,6|0,0:0|3:0,0:0:0:0:
159,384,86548,2,0,P|205:353|224:300,1,112.5,8|0,1:2|0:0,0:0:0:0:
216,285,86753,1,0,0:0:0:0:
207,272,86821,1,0,0:0:0:0:
356,339,86957,5,2,3:2:0:0:
132,299,87094,1,10,1:2:0:0:
390,237,87230,1,2,0:0:0:0:
105,384,87366,5,6,3:2:0:0:
178,122,87503,1,2,0:0:0:0:
356,339,87639,1,10,0:0:0:0:
84,215,87776,1,2,3:2:0:0:
345,154,87912,1,2,0:0:0:0:
244,384,88048,1,2,3:2:0:0:
34,133,88185,1,10,2:0:0:0:
390,237,88321,6,0,B|388:268|363:286|363:286|368:313|357:339,1,112.5,6|0,0:0|3:0,0:0:0:0:
84,215,88594,5,0,3:0:0:0:
84,215,88730,2,0,P|119:173|159:162,1,90,10|0,1:2|0:0,0:0:0:0:
93,338,89003,2,0,P|39:328|4:295,1,99.0000030212403,2|0,3:2|0:0,0:0:0:0:
41,30,89275,2,0,P|94:39|133:79,1,107.999996704102,10|0,1:2|0:0,0:0:0:0:
304,293,89548,6,0,P|252:311|188:287,1,116.999994644165,2|0,3:2|0:0,0:0:0:0:
390,237,89821,1,8,1:2:0:0:
390,237,89957,2,0,P|408:291|391:347,1,116.999994644165,2|6,3:2|0:0,0:0:0:0:
56,242,90230,5,2,3:2:0:0:
56,242,90298,1,2,0:2:0:0:
56,242,90366,2,0,B|82:227|99:207|99:207|133:207|158:194,1,116.999994644165,10|0,1:2|3:0,0:0:0:0:
256,16,90639,1,6,3:2:0:0:
256,16,90707,1,0,3:0:0:0:
256,16,90775,1,0,3:0:0:0:
299,26,90843,1,0,3:0:0:0:
335,53,90911,1,8,1:2:0:0:
358,91,90979,1,0,3:0:0:0:
364,135,91047,1,0,3:0:0:0:
353,178,91115,1,0,3:0:0:0:
326,214,91184,5,8,3:0:0:0:
291,257,91253,1,0,3:0:0:0:
287,312,91320,1,0,3:0:0:0:
315,360,91388,1,0,3:0:0:0:
365,383,91456,1,8,1:2:0:0:
420,374,91524,1,0,3:0:0:0:
460,336,91593,1,0,3:0:0:0:
471,282,91661,1,0,3:0:0:0:
448,230,91730,6,0,P|431:205|405:190,2,60,4|0|0,3:2|0:0|0:0,0:0:0:0:
354,316,92003,2,0,P|338:341|315:360,2,60,0|0|0,3:2|0:0|0:0,0:0:0:0:
275,201,92275,1,0,3:2:0:0:
215,197,92365,1,0,0:0:0:0:
163,224,92456,1,0,0:0:0:0:
132,275,92548,2,0,P|121:298|113:344,2,60,8|0|0,3:0|0:0|0:0,0:0:0:0:
219,68,92821,5,4,3:2:0:0:
263,106,92911,1,0,0:0:0:0:
322,116,93002,1,0,0:0:0:0:
376,92,93094,2,0,P|407:82|450:84,2,60,0|0|0,3:2|0:0|0:0,0:0:0:0:
281,287,93366,5,4,3:0:0:0:
329,343,93456,1,0,0:0:0:0:
403,352,93547,1,0,0:0:0:0:
469,316,93638,1,0,3:0:0:0:
492,244,93729,1,0,0:0:0:0:
472,171,93821,1,0,0:0:0:0:
494,99,93912,6,0,P|508:69|528:45,2,60,4|0|0,3:0|0:0|0:0,0:0:0:0:
362,211,94184,2,0,P|380:234|392:261,2,60,0|0|0,3:0|0:0|0:0,0:0:0:0:
246,105,94457,2,0,P|217:137|205:196,1,90,0|2,3:0|0:0,0:0:0:0:
208,196,94662,1,2,0:0:0:0:
214,208,94730,1,2,0:0:0:0:
165,360,94866,1,2,0:0:0:0:
353,275,95003,5,4,1:0:0:0:
397,304,95071,1,0,0:0:0:0:
450,303,95139,1,0,0:0:0:0:
494,272,95207,1,0,0:0:0:0:
512,222,95275,1,12,1:2:0:0:
499,170,95343,1,0,0:0:0:0:
459,135,95412,1,0,0:0:0:0:
406,129,95480,1,0,0:0:0:0:
359,153,95548,5,4,1:0:0:0:
320,176,95616,1,0,0:0:0:0:
276,181,95684,1,0,0:0:0:0:
233,169,95752,1,0,0:0:0:0:
199,140,95821,2,0,P|180:121|165:93,1,45,12|0,1:2|0:0,0:0:0:0:
281,285,95957,2,0,P|297:299|317:309,1,45,0|0,3:0|0:0,0:0:0:0:
120,181,96094,6,0,P|80:115|179:15,1,225,4|8,1:0|1:2,0:0:0:0:
353,108,96503,2,0,B|318:159|318:159|330:192|330:192|294:268,1,168.75,4|0,1:0|0:0,0:0:0:0:
281,285,96775,1,0,3:0:0:0:
255,307,96843,1,0,0:0:0:0:
224,318,96911,1,8,1:2:0:0:
190,317,96979,1,0,0:0:0:0:
160,304,97047,1,0,0:0:0:0:
136,280,97115,1,0,0:0:0:0:
123,250,97184,6,0,P|129:197|-13:122,1,225,4|8,1:0|1:2,0:0:0:0:
33,314,97594,2,0,B|62:311|123:345|123:345|226:301,1,168.75,4|0,1:0|0:0,0:0:0:0:
205,286,97866,1,0,3:0:0:0:
218,255,97934,1,0,0:0:0:0:
241,230,98002,1,8,1:2:0:0:
270,214,98070,1,0,0:0:0:0:
303,207,98138,1,0,0:0:0:0:
336,212,98206,1,0,0:0:0:0:
366,227,98275,6,0,P|393:251|406:288,2,60,0|0|0,3:0|0:0|0:0,0:0:0:0:
260,119,98548,2,0,P|278:100|318:83,2,60,0|0|0,3:0|0:0|0:0,0:0:0:0:
336,309,98821,1,0,3:0:0:0:
298,248,98911,1,0,0:0:0:0:
235,214,99002,1,0,0:0:0:0:
164,216,99093,1,0,3:0:0:0:
103,252,99184,1,0,0:0:0:0:
67,314,99275,1,0,0:0:0:0:
128,278,99366,5,0,3:0:0:0:
164,216,99457,1,0,3:0:0:0:
167,146,99548,1,0,3:0:0:0:
133,83,99639,1,0,3:0:0:0:
72,45,99729,1,0,3:0:0:0:
0,31,99821,1,0,3:0:0:0:
61,69,99912,5,8,3:0:0:0:
133,83,100004,1,8,3:0:0:0:
205,69,100094,1,8,3:0:0:0:
266,31,100185,1,8,3:0:0:0:
338,17,100275,1,8,3:0:0:0:
410,31,100365,1,8,3:0:0:0:
471,69,100457,6,0,B|475:108|512:139|512:139|490:183|505:238,1,180,12|8,3:0|1:2,0:0:0:0:
291,338,100866,1,0,0:0:0:0:
291,338,101003,2,0,P|288:292|303:242,1,90,0|0,3:0|3:0,0:0:0:0:
348,31,101275,5,8,1:2:0:0:
348,31,101412,2,0,P|295:29|208:62,1,112.5,0|0,3:0|0:0,0:0:0:0:
69,209,101684,1,0,3:0:0:0:
69,209,101821,2,0,P|115:212|165:197,1,90,8|0,1:2|0:0,0:0:0:0:
374,156,102094,1,0,3:0:0:0:
179,197,102230,1,0,3:0:0:0:
408,175,102366,1,8,1:2:0:0:
164,75,102502,1,0,3:0:0:0:
418,303,102639,5,0,3:0:0:0:
418,303,102775,2,0,P|425:233|441:193,1,112.5,0|8,0:0|1:2,0:0:0:0:
367,21,103048,1,0,0:0:0:0:
367,21,103184,2,0,P|357:71|336:109,1,90,0|0,3:0|3:0,0:0:0:0:
193,301,103457,5,8,1:2:0:0:
193,301,103594,1,0,3:0:0:0:
193,301,103730,2,0,P|200:231|216:191,1,112.5,6|0,0:0|3:0,0:0:0:0:
142,19,104003,2,0,P|132:69|111:107,1,90,8|0,1:2|3:0,0:0:0:0:
29,306,104275,1,0,3:0:0:0:
108,117,104412,1,0,3:0:0:0:
273,267,104548,1,8,1:2:0:0:
0,193,104684,1,0,3:0:0:0:
199,358,104821,5,6,3:2:0:0:
199,358,104957,2,0,B|239:338|239:338|277:357|334:328,1,112.5,0|8,0:0|1:2,0:0:0:0:
476,219,105230,1,0,0:0:0:0:
476,219,105366,2,0,L|379:211,1,90,0|0,3:0|3:0,0:0:0:0:
148,120,105639,5,8,1:2:0:0:
148,120,105775,2,0,L|267:105,1,112.5,0|0,3:0|0:0,0:0:0:0:
486,34,106048,1,0,3:0:0:0:
486,34,106184,2,0,L|389:26,1,90,8|0,1:2|0:0,0:0:0:0:
86,36,106457,6,0,P|43:121|112:219,1,225,6|8,3:2|1:2,0:0:0:0:
148,120,106866,1,0,3:0:0:0:
0,313,107003,5,6,3:2:0:0:
176,289,107139,2,0,P|201:230|188:170,1,112.5,0|8,0:0|1:2,0:0:0:0:
81,384,107412,5,0,0:0:0:0:
280,195,107548,2,0,P|264:132|217:92,1,112.5,0|0,3:0|3:0,0:0:0:0:
254,328,107821,1,8,1:2:0:0:
254,328,107957,1,0,3:0:0:0:
148,120,108094,2,0,P|152:64|202:18,1,112.5,6|0,0:0|3:0,0:0:0:0:
371,48,108366,5,8,1:2:0:0:
380,53,108434,1,0,3:0:0:0:
391,60,108503,1,0,3:0:0:0:
419,101,108571,1,0,3:0:0:0:
427,150,108639,1,0,3:0:0:0:
412,198,108707,1,0,3:0:0:0:
377,234,108775,1,0,3:0:0:0:
329,250,108843,1,0,3:0:0:0:
279,244,108912,1,8,1:2:0:0:
230,218,108980,1,0,3:0:0:0:
174,214,109048,1,0,3:0:0:0:
122,235,109116,1,0,3:0:0:0:
83,274,109184,5,0,3:0:0:0:
188,23,109321,1,0,3:0:0:0:
323,151,109457,1,8,1:2:0:0:
64,54,109594,5,0,3:0:0:0:
391,60,109730,1,8,1:2:0:0:
207,143,109866,1,0,3:0:0:0:
495,232,110003,5,8,1:2:0:0:
391,60,110139,1,0,3:0:0:0:
331,330,110275,1,8,1:2:0:0:
397,192,110412,5,0,3:0:0:0:
191,294,110548,1,8,1:2:0:0:
470,354,110684,1,0,3:0:0:0:
203,108,110821,6,0,L|223:233,1,116.999994644165,8|0,1:2|3:0,0:0:0:0:
470,354,111094,2,0,L|448:231,1,116.999994644165,8|0,1:2|3:0,0:0:0:0:
501,47,111366,5,8,1:2:0:0:
316,255,111503,1,0,3:0:0:0:
205,111,111639,1,8,1:2:0:0:
440,179,111775,5,0,3:0:0:0:
217,227,111912,1,8,1:2:0:0:
460,190,112048,1,0,3:0:0:0:
340,347,112184,5,8,1:2:0:0:
126,180,112321,1,0,3:0:0:0:
66,334,112457,5,8,1:2:0:0:
21,236,112594,1,0,3:0:0:0:
83,343,112730,5,8,1:2:0:0:
93,104,112866,1,0,3:0:0:0:
102,352,113003,5,8,1:2:0:0:
192,18,113139,1,0,3:0:0:0:
326,239,113275,5,8,1:2:0:0:
22,152,113412,1,0,3:0:0:0:
241,83,113548,37,4,3:2:0:0:
276,309,113685,1,0,0:0:0:0:
62,222,113821,1,8,1:2:0:0:
256,192,113957,5,0,0:0:0:0:
173,258,114094,1,0,3:0:0:0:
154,151,114230,1,0,0:0:0:0:
456,162,114366,5,8,1:2:0:0:
276,309,114503,1,0,3:0:0:0:
241,83,114639,1,0,0:0:0:0:
358,233,114775,5,0,3:0:0:0:
256,192,114911,1,8,1:2:0:0:
154,151,115048,1,0,0:0:0:0:
456,162,115184,6,0,P|473:217|454:302,1,116.999994644165,0|0,3:0|0:0,0:0:0:0:
56,222,115457,2,0,P|39:167|58:82,1,116.999994644165,8|0,1:2|3:0,0:0:0:0:
353,82,115730,6,0,B|404:56|404:56|467:46,2,116.999994644165,4|0|8,3:0|0:0|1:2,0:0:0:0:
166,257,116139,2,0,B|115:231|115:231|52:221,2,116.999994644165,4|0|8,3:0|0:0|1:2,0:0:0:0:
396,366,116548,1,4,3:0:0:0:
392,348,116616,1,4,3:0:0:0:
388,330,116684,1,4,3:0:0:0:
384,312,116753,1,4,3:0:0:0:
380,294,116821,1,4,3:0:0:0:
353,82,116957,5,8,1:2:0:0:
160,128,117094,1,8,1:2:0:0:
328,179,117230,1,8,1:2:0:0:
189,217,117366,1,8,1:2:0:0:
299,268,117503,1,8,1:2:0:0:
214,314,117639,1,8,1:2:0:0:
256,384,117775,1,8,1:2:0:0:
160,128,117912,6,0,B|129:152|129:152|113:187,1,77.9999964294435,8|8,3:0|3:0,3:0:0:0:
352,256,118094,2,0,B|383:232|383:232|399:197,1,77.9999964294435,8|8,3:0|3:0,3:0:0:0:
256,40,118366,5,4,3:0:0:0:
256,32,118412,1,4,3:0:0:0:
256,24,118457,1,12,3:2:0:0:
256,192,118525,12,0,122241,0:0:0:0:
