osu file format v14

[General]
AudioFilename: song.mp3
AudioLeadIn: 0
PreviewTime: 47080
Countdown: 0
SampleSet: Soft
StackLeniency: 0.7
Mode: 0
LetterboxInBreaks: 0
WidescreenStoryboard: 0

[Editor]
DistanceSpacing: 0.7
BeatDivisor: 4
GridSize: 4
TimelineZoom: 4

[Metadata]
Title:Preserved Valkyria
TitleUnicode:Preserved Valkyria
Artist:penoreri
ArtistUnicode:ぺのれり
Creator:lightr
Version:Back Hero
Source:SOUND VOLTEX III GRAVITY WARS
Tags:bemani Lasse -Tochi Feb Smoothie World
BeatmapID:853879
BeatmapSetID:392094

[Difficulty]
HPDrainRate:8
CircleSize:4.3
OverallDifficulty:8.7
ApproachRate:9.8
SliderMultiplier:2.2
SliderTickRate:1

[Events]
//Background and Video events
0,0,"BG1.jpg",0,0
//Break Periods
//Storyboard Layer 0 (Background)
//Storyboard Layer 1 (Fail)
//Storyboard Layer 2 (Pass)
//Storyboard Layer 3 (Foreground)
//Storyboard Sound Samples

[TimingPoints]
1363,387.096774193548,4,2,1,30,1,0
1363,-200,4,2,1,30,0,0
7556,-100,4,2,1,30,0,0
12975,-200,4,2,1,30,0,0
13750,-100,4,2,1,30,0,0
23040,-100,4,2,1,40,0,0
27395,-100,4,2,1,60,0,0
29233,-100,4,2,1,15,0,0
33104,-200,4,2,1,50,0,0
45492,-100,4,2,1,20,0,0
47080,500,4,2,1,20,1,0
48080,272.727272727273,4,2,1,30,1,0
48080,-111.111111111111,4,2,1,50,0,0
56807,-100,4,2,1,60,0,0
65534,-200,4,2,1,20,0,0
80807,-86.9565217391304,4,2,1,60,0,0
82443,-142.857142857143,4,2,1,60,0,0
82716,-111.111111111111,4,2,1,60,0,0
82989,-100,4,2,1,70,0,1
96489,-86.9565217391304,4,2,1,70,0,1
97170,-100,4,2,1,70,0,1
97580,-80,4,2,1,70,0,1
98261,-100,4,2,1,70,0,1
100443,-111.111111111111,4,2,1,60,0,0
118443,-200,4,2,1,60,0,0
118989,-100,4,2,1,50,0,0
120080,-100,4,2,1,40,0,0
121170,-100,4,2,1,30,0,0
122261,-200,4,2,1,5,0,0

[Colours]
Combo1 : 85,255,85
Combo2 : 255,143,32
Combo3 : 0,227,227

[HitObjects]
176,336,1363,6,0,L|288:320,1,110,6|2,1:2|0:0,0:0:0:0:
312,316,2137,1,2,0:0:0:0:
440,248,2427,1,2,0:0:0:0:
304,168,2717,2,0,L|192:184,1,110,2|2,0:0|0:0,0:0:0:0:
440,212,3492,6,0,L|508:236,1,55,2|0,0:0|0:0,0:0:0:0:
340,288,3975,2,0,L|432:324,1,82.5,2|0,0:0|0:0,0:0:0:0:
160,248,4653,5,2,0:0:0:0:
128,252,4750,1,0,0:0:0:0:
104,268,4846,1,0,0:0:0:0:
100,300,4943,1,0,0:0:0:0:
112,328,5040,2,0,P|160:348|224:312,1,110,2|0,0:0|0:0,0:0:0:0:
312,240,5621,1,0,0:0:0:0:
284,112,5814,1,2,0:0:0:0:
284,112,6104,5,2,0:0:0:0:
260,132,6201,1,0,0:0:0:0:
228,136,6298,1,0,0:0:0:0:
200,120,6395,1,0,0:0:0:0:
112,84,6492,1,0,0:0:0:0:
84,68,6589,1,0,0:0:0:0:
52,72,6686,1,0,0:0:0:0:
28,92,6782,2,0,B|8:140|52:148|32:200,1,110,2|0,0:0|0:0,0:0:0:0:
268,340,7556,6,0,P|327:336|392:352,1,110,6|0,0:0|0:0,0:0:0:0:
448,240,7846,5,0,0:0:0:0:
452,220,7943,2,0,P|452:148|444:100,1,110,2|0,0:0|0:0,0:0:0:0:
288,184,8233,5,0,0:0:0:0:
268,192,8330,2,0,P|212:192|152:184,1,110,2|0,0:0|0:0,0:0:0:0:
28,92,8621,5,0,0:0:0:0:
48,84,8718,2,0,P|104:84|164:92,1,110,2|0,0:0|0:0,0:0:0:0:
64,244,9008,5,0,0:0:0:0:
56,264,9104,2,0,P|72:328|96:368,1,110,2|0,0:0|0:0,0:0:0:0:
264,308,9395,5,0,0:0:0:0:
288,308,9492,2,0,P|339:310|400:324,1,110,2|0,0:0|0:0,0:0:0:0:
488,204,9782,5,0,0:0:0:0:
488,180,9879,2,0,L|488:120,1,55,2|0,0:0|0:0,0:0:0:0:
336,228,10072,2,0,L|332:296,1,55,2|0,0:0|0:0,0:0:0:0:
384,104,10266,2,0,L|384:44,1,55,2|0,0:0|0:0,0:0:0:0:
232,152,10459,2,0,L|228:220,1,55,2|0,0:0|0:0,0:0:0:0:
273,313,10653,5,2,0:0:0:0:
304,155,10782,1,0,0:0:0:0:
152,208,10911,1,0,0:0:0:0:
330,235,11040,1,2,0:0:0:0:
209,130,11169,1,0,0:0:0:0:
180,289,11298,1,0,0:0:0:0:
244,216,11427,5,2,0:0:0:0:
104,130,11556,1,0,0:0:0:0:
102,290,11685,1,0,0:0:0:0:
200,140,11814,1,2,0:0:0:0:
51,212,11943,1,0,0:0:0:0:
187,300,12072,1,0,0:0:0:0:
144,212,12201,5,2,0:0:0:0:
187,300,12395,1,2,0:0:0:0:
232,280,12492,1,0,0:0:0:0:
280,284,12588,1,0,0:0:0:0:
316,316,12685,1,0,0:0:0:0:
356,344,12782,1,0,0:0:0:0:
404,336,12879,1,0,0:0:0:0:
440,304,12975,6,0,L|448:188,1,110,2|2,0:0|0:0,0:0:0:0:
136,72,13750,6,0,L|76:104,1,55,6|0,1:2|0:0,0:0:0:0:
212,148,13943,2,0,L|261:172,1,55
96,208,14137,2,0,L|36:240,1,55,2|0,0:0|0:0,0:0:0:0:
192,276,14330,2,0,L|241:300,1,55
368,312,14524,5,2,0:0:0:0:
408,296,14621,1,0,0:0:0:0:
444,268,14717,1,0,0:0:0:0:
464,228,14814,1,0,0:0:0:0:
472,184,14911,1,2,0:0:0:0:
468,140,15008,1,0,0:0:0:0:
452,100,15104,1,0,0:0:0:0:
428,64,15201,1,0,0:0:0:0:
384,48,15298,6,0,L|316:76,3,55,2|0|0|0,0:0|0:0|0:0|0:0,0:0:0:0:
124,96,15685,2,0,L|192:124,3,55,2|0|0|0,0:0|0:0|0:0|0:0,0:0:0:0:
280,216,16072,5,2,0:0:0:0:
284,260,16169,1,0,0:0:0:0:
272,304,16266,1,0,0:0:0:0:
244,336,16362,1,0,0:0:0:0:
204,356,16459,1,2,0:0:0:0:
160,352,16556,1,0,0:0:0:0:
124,328,16653,1,0,0:0:0:0:
100,292,16750,1,0,0:0:0:0:
128,240,16846,5,2,0:0:0:0:
120,180,16943,1,0,0:0:0:0:
68,148,17040,1,0,0:0:0:0:
44,92,17137,1,0,0:0:0:0:
68,36,17233,1,2,0:0:0:0:
124,16,17330,1,0,0:0:0:0:
180,36,17427,1,0,0:0:0:0:
212,88,17524,1,0,0:0:0:0:
204,148,17621,6,0,L|192:216,1,55,2|0,0:0|0:0,0:0:0:0:
300,120,17814,2,0,L|296:52,1,55
116,104,18008,2,0,L|120:172,1,55,2|0,0:0|0:0,0:0:0:0:
388,152,18201,2,0,L|400:84,1,55
288,308,18395,5,2,0:0:0:0:
304,316,18492,1,0,0:0:0:0:
320,320,18588,1,0,0:0:0:0:
336,324,18685,1,0,0:0:0:0:
400,320,18782,1,2,0:0:0:0:
448,272,18879,1,0,0:0:0:0:
452,208,18975,1,0,0:0:0:0:
424,148,19072,1,0,0:0:0:0:
364,124,19169,6,0,P|340:120|304:128,1,55,2|0,0:0|0:0,0:0:0:0:
148,260,19362,2,0,P|172:264|208:256,1,55,2|0,0:0|0:0,0:0:0:0:
200,84,19556,2,0,P|194:110|198:137,1,55,2|0,0:0|3:0,3:0:0:0:
312,300,19750,2,0,P|317:273|313:246,1,55,2|0,0:0|3:0,3:0:0:0:
76,208,19943,6,0,L|24:212,7,27.5,6|0|0|0|0|0|0|0,1:2|0:0|0:0|0:0|0:0|0:0|0:0|0:0,0:0:0:0:
128,196,20330,1,2,0:0:0:0:
188,200,20427,1,0,0:0:0:0:
248,212,20524,1,0,0:0:0:0:
308,204,20621,1,0,0:0:0:0:
364,180,20717,1,2,0:0:0:0:
424,168,20814,1,0,0:0:0:0:
476,200,20911,2,0,L|492:320,2,110,2|2|2,0:0|0:0|0:0,0:0:0:0:
100,52,21492,5,6,1:2:0:0:
68,104,21588,1,0,0:0:0:0:
68,164,21685,1,0,0:0:0:0:
104,212,21782,1,0,0:0:0:0:
160,236,21879,1,2,0:0:0:0:
220,228,21975,1,0,0:0:0:0:
264,188,22072,1,0,0:0:0:0:
316,156,22169,1,0,0:0:0:0:
376,156,22266,1,2,0:0:0:0:
424,192,22362,1,0,0:0:0:0:
440,252,22459,5,4,1:2:0:0:
100,292,22750,1,4,1:2:0:0:
356,196,23040,5,2,0:0:0:0:
364,148,23137,1,0,0:0:0:0:
372,100,23233,1,0,0:0:0:0:
380,52,23330,1,0,0:0:0:0:
332,336,23524,5,2,0:0:0:0:
264,144,23717,1,2,0:0:0:0:
248,96,23814,1,0,0:0:0:0:
176,284,24008,1,2,0:0:0:0:
160,236,24105,1,0,0:0:0:0:
332,336,24298,5,2,0:0:0:0:
152,132,24492,1,2,0:0:0:0:
120,228,24685,1,2,0:0:0:0:
136,180,24782,1,0,0:0:0:0:
152,132,24879,1,0,0:0:0:0:
216,368,25072,5,2,0:0:0:0:
300,168,25266,1,2,0:0:0:0:
316,120,25363,1,0,0:0:0:0:
388,308,25557,1,2,0:0:0:0:
404,260,25654,1,0,0:0:0:0:
216,368,25846,5,2,0:0:0:0:
152,156,26040,1,2,0:0:0:0:
136,108,26137,2,0,L|116:52,1,55,4|0,1:2|0:0,0:0:0:0:
64,224,26330,2,0,L|40:156,1,55,2|0,0:0|0:0,0:0:0:0:
108,364,26621,5,2,0:0:0:0:
248,168,26814,1,2,0:0:0:0:
264,120,26911,1,0,0:0:0:0:
344,260,27104,1,2,0:0:0:0:
360,212,27201,1,0,0:0:0:0:
236,368,27395,5,2,0:0:0:0:
180,168,27588,1,2,0:0:0:0:
164,120,27685,2,0,L|144:56,1,55,4|0,1:2|0:0,0:0:0:0:
288,216,27879,2,0,L|268:152,1,55,2|0,0:0|0:0,0:0:0:0:
116,348,28169,5,2,0:0:0:0:
396,158,28362,2,0,L|404:104,1,55,2|0,0:0|0:0,0:0:0:0:
372,260,28588,5,2,1:2:0:0:
304,336,28717,1,2,1:2:0:0:
204,364,28846,1,2,1:2:0:0:
104,344,28975,1,2,1:2:0:0:
36,264,29104,1,2,1:2:0:0:
56,116,29233,6,0,L|48:72,7,27.5,2|0|0|0|0|0|0|0,0:0|0:0|0:0|0:0|0:0|0:0|0:0|0:0,0:0:0:0:
152,240,29621,2,0,L|160:284,7,27.5,2|0|0|0|0|0|0|0,0:0|0:0|0:0|0:0|0:0|0:0|0:0|0:0,0:0:0:0:
208,108,30008,6,0,L|200:64,7,27.5,2|0|0|0|0|0|0|0,0:0|0:0|0:0|0:0|0:0|0:0|0:0|0:0,0:0:0:0:
288,244,30395,2,0,L|296:288,7,27.5,2|0|0|0|0|0|0|0,0:0|0:0|0:0|0:0|0:0|0:0|0:0|0:0,0:0:0:0:
364,108,30782,6,0,L|356:64,7,27.5,2|0|0|0|0|0|0|0,0:0|0:0|0:0|0:0|0:0|0:0|0:0|0:0,0:0:0:0:
448,232,31169,2,0,L|456:276,7,27.5,2|0|0|0|0|0|0|0,0:0|0:0|0:0|0:0|0:0|0:0|0:0|0:0,0:0:0:0:
284,108,31556,6,0,L|276:64,7,27.5,2|0|0|0|0|0|0|0,0:0|0:0|0:0|0:0|0:0|0:0|0:0|0:0,0:0:0:0:
216,248,31943,2,0,L|224:292,7,27.5,2|0|0|0|0|0|0|0,0:0|0:0|0:0|0:0|0:0|0:0|0:0|0:0,0:0:0:0:
128,120,32330,6,0,L|120:76,7,27.5,2|0|0|0|0|0|0|0,0:0|0:0|0:0|0:0|0:0|0:0|0:0|0:0,0:0:0:0:
84,260,32717,2,0,L|92:304,7,27.5,2|0|0|0|0|0|0|0,0:0|0:0|0:0|0:0|0:0|0:0|0:0|0:0,0:0:0:0:
8,216,33104,6,0,B|0:128|80:116|80:116|128:156,1,192.5,6|0,1:2|0:0,0:0:0:0:
132,248,33879,2,0,B|180:288|180:288|248:232|324:244|324:244|324:300|360:332|408:340|440:328|464:300,1,412.5,2|0,0:0|0:0,0:0:0:0:
424,200,35427,2,0,B|364:-8|76:16|76:16|160:136|100:244|100:244|16:296,1,770,2|8,0:0|0:0,0:0:0:0:
252,224,38524,6,0,L|260:204,7,13.75,0|0|0|0|0|0|0|0,3:0|3:0|3:0|3:0|3:0|3:0|3:0|3:0,0:0:0:0:
180,184,38911,2,0,L|168:164,7,13.75,0|0|0|0|0|0|0|0,3:0|3:0|3:0|3:0|3:0|3:0|3:0|3:0,0:0:0:0:
180,260,39298,6,0,B|192:328|120:344|120:344|64:276,1,192.5,6|0,1:2|0:0,0:0:0:0:
100,176,40072,2,0,P|228:60|388:220,1,440,6|2,0:0|1:2,0:0:0:0:
256,192,41717,12,0,44717,0:0:0:0:
289,296,45492,5,2,0:0:0:0:
365,192,45685,1,0,0:0:0:0:
289,87,45879,1,2,0:0:0:0:
167,127,46072,1,0,0:0:0:0:
167,256,46266,1,2,0:0:0:0:
256,192,47080,5,2,0:0:0:0:
256,192,47580,1,2,0:0:0:0:
464,336,48080,5,6,1:2:0:0:
276,308,48216,1,0,0:0:0:0:
452,224,48352,1,0,0:0:0:0:
336,364,48489,1,2,0:0:0:0:
300,200,48625,1,0,0:0:0:0:
200,356,48761,1,0,0:0:0:0:
56,228,48898,5,2,0:0:0:0:
196,260,49034,1,0,0:0:0:0:
336,288,49170,1,0,0:0:0:0:
470,177,49307,1,2,0:0:0:0:
332,216,49443,1,0,0:0:0:0:
196,260,49579,1,0,0:0:0:0:
312,124,49716,6,0,P|320:64|320:16,1,98.9999969787599,2|0,0:0|0:0,0:0:0:0:
196,260,49989,2,0,P|188:320|188:364,1,98.9999969787599,2|0,0:0|0:0,0:0:0:0:
152,64,50261,5,2,0:0:0:0:
64,192,50398,1,0,0:0:0:0:
20,40,50534,1,0,0:0:0:0:
204,128,50670,1,2,0:0:0:0:
116,256,50807,1,0,0:0:0:0:
72,104,50943,1,0,0:0:0:0:
220,200,51080,5,2,0:0:0:0:
376,132,51216,1,0,0:0:0:0:
300,12,51352,2,0,P|212:28|116:96,1,197.99999395752,2|0,0:0|0:0,0:0:0:0:
304,252,51761,1,0,0:0:0:0:
456,208,51898,6,0,L|460:80,1,98.9999969787599,2|0,0:0|0:0,0:0:0:0:
152,196,52170,2,0,L|148:324,1,98.9999969787599,2|0,0:0|0:0,0:0:0:0:
340,56,52443,6,0,B|288:52|288:52|224:64,1,98.9999969787599,6|0,1:2|0:0,0:0:0:0:
332,244,52716,1,0,0:0:0:0:
104,172,52852,2,0,B|83:220|83:220|77:284,1,98.9999969787599,2|0,0:0|0:0,0:0:0:0:
344,220,53125,1,0,0:0:0:0:
188,124,53261,5,2,0:0:0:0:
212,316,53398,1,0,0:0:0:0:
308,124,53534,1,0,0:0:0:0:
136,220,53670,1,2,0:0:0:0:
316,288,53807,1,0,0:0:0:0:
188,124,53943,1,0,0:0:0:0:
416,96,54080,6,0,L|420:208,1,98.9999969787599,6|0,1:2|0:0,0:0:0:0:
96,288,54352,2,0,L|92:176,1,98.9999969787599,2|0,0:0|0:0,0:0:0:0:
268,72,54625,5,6,1:2:0:0:
323,200,54761,1,0,0:0:0:0:
238,313,54898,1,0,0:0:0:0:
98,296,55034,1,2,0:0:0:0:
44,166,55170,1,0,0:0:0:0:
128,54,55307,1,0,0:0:0:0:
184,188,55443,5,2,0:0:0:0:
128,54,55580,1,0,0:0:0:0:
352,108,55716,2,0,P|400:116|476:112,1,98.9999969787599,2|0,0:0|1:0,0:0:0:0:
184,188,55989,2,0,L|180:304,1,98.9999969787599,2|0,0:0|1:0,0:0:0:0:
440,336,56261,5,10,0:2:0:0:
432,296,56330,1,8,0:2:0:0:
416,260,56398,1,8,0:2:0:0:
388,232,56466,1,8,0:2:0:0:
352,216,56534,1,10,0:2:0:0:
312,212,56602,1,8,0:2:0:0:
272,220,56670,1,8,0:2:0:0:
236,240,56739,1,8,0:2:0:0:
212,268,56807,6,0,L|172:376,1,110,2|0,1:2|0:0,0:0:0:0:
44,184,57080,1,8,0:0:0:0:
192,60,57216,2,0,B|248:56|248:56|320:64,1,110,2|0,0:0|1:0,0:0:0:0:
448,136,57489,1,0,0:0:0:0:
172,160,57625,6,0,B|164:220|164:220|172:284,2,110,10|0|0,0:0|0:0|1:0,0:0:0:0:
432,96,58034,2,0,B|440:156|440:156|432:220,1,110,2|8,0:0|0:0,0:0:0:0:
268,356,58307,1,0,0:0:0:0:
136,160,58443,6,0,L|4:172,1,110,2|0,1:2|0:0,0:0:0:0:
376,224,58716,2,0,L|508:212,1,110,10|0,0:0|0:0,0:0:0:0:
228,264,58989,5,2,1:2:0:0:
336,88,59125,1,0,0:0:0:0:
404,300,59261,1,8,0:0:0:0:
240,136,59398,1,2,0:0:0:0:
312,340,59534,1,0,1:0:0:0:
412,168,59670,1,0,0:0:0:0:
156,264,59807,6,0,P|100:280|20:288,1,110,10|0,0:0|0:0,0:0:0:0:
144,72,60080,1,0,1:0:0:0:
252,188,60216,1,2,0:0:0:0:
388,52,60352,1,8,0:0:0:0:
424,256,60489,1,0,0:0:0:0:
132,184,60625,6,0,P|76:168|16:172,1,110,2|0,1:2|0:0,0:0:0:0:
392,148,60898,2,0,P|440:108|464:60,1,110,10|0,0:0|0:0,0:0:0:0:
204,12,61170,5,6,1:2:0:0:
304,140,61307,1,0,0:0:0:0:
204,280,61443,1,8,0:0:0:0:
188,24,61580,1,2,0:0:0:0:
238,178,61717,1,0,1:0:0:0:
100,272,61853,1,0,0:0:0:0:
16,144,61989,5,10,0:0:0:0:
112,8,62125,1,0,0:0:0:0:
252,96,62261,1,0,1:0:0:0:
32,212,62398,1,2,0:0:0:0:
128,76,62534,1,8,0:0:0:0:
268,164,62670,1,0,0:0:0:0:
164,340,62807,6,0,B|152:284|152:284|156:224,1,110,2|0,1:2|0:0,0:0:0:0:
460,176,63080,2,0,B|472:232|472:232|468:292,1,110,10|0,0:0|0:0,0:0:0:0:
288,76,63352,5,2,1:2:0:0:
248,36,63420,1,0,0:0:0:0:
192,32,63489,1,0,0:0:0:0:
144,60,63557,1,0,0:0:0:0:
124,112,63625,1,10,0:0:0:0:
136,164,63693,1,0,0:0:0:0:
180,200,63761,1,0,1:0:0:0:
236,200,63830,1,0,0:0:0:0:
284,172,63898,6,0,P|312:148|352:136,1,55,2|0,0:0|0:0,0:0:0:0:
460,180,64034,2,0,P|432:204|392:216,1,55,8|0,0:0|0:0,0:0:0:0:
396,88,64170,2,0,P|432:80|472:89,1,55,2|0,0:0|0:0,0:0:0:0:
336,256,64307,2,0,P|299:263|259:254,1,55
172,252,64443,5,10,0:0:0:0:
272,16,64580,1,0,1:0:0:0:
412,216,64716,1,2,0:0:0:0:
100,268,64852,1,10,0:0:0:0:
356,112,64989,5,2,1:2:0:0:
208,360,65261,5,2,1:2:0:0:
64,48,65534,5,6,0:0:0:0:
400,256,65943,1,2,0:0:0:0:
24,288,66352,1,2,0:0:0:0:
24,288,66898,5,2,0:0:0:0:
180,104,67170,1,2,0:0:0:0:
356,272,67443,1,2,0:0:0:0:
476,56,67716,1,2,0:0:0:0:
488,36,68534,6,0,L|456:96,1,55,2|2,0:0|0:0,0:0:0:0:
84,97,69489,6,0,L|80:32,2,55,2|0|0,0:0|0:0|0:0,0:0:0:0:
100,184,69898,1,2,0:0:0:0:
140,264,70034,1,0,0:0:0:0:
220,296,70170,1,2,0:0:0:0:
308,280,70307,1,0,0:0:0:0:
372,220,70443,1,2,0:0:0:0:
384,132,70580,1,0,0:0:0:0:
344,56,70716,1,2,0:0:0:0:
260,16,70852,1,2,0:0:0:0:
260,16,71125,6,0,L|192:28,1,55,2|2,0:0|0:0,0:0:0:0:
344,56,71534,1,0,0:0:0:0:
384,132,71807,1,0,0:0:0:0:
372,220,72080,5,2,0:0:0:0:
308,280,72216,1,0,0:0:0:0:
220,296,72353,1,2,0:0:0:0:
140,264,72489,1,2,0:0:0:0:
100,184,72761,5,0,0:0:0:0:
84,97,73034,1,0,0:0:0:0:
28,264,73716,5,2,0:0:0:0:
43,350,73989,1,2,0:0:0:0:
28,264,74261,2,0,B|72:236|120:248|160:280|160:280|200:308|248:300|288:280,1,275,2|2,0:0|0:0,0:0:0:0:
440,216,75216,5,2,0:0:0:0:
440,216,75352,2,0,P|364:200|324:116,1,165,2|2,0:0|0:0,0:0:0:0:
433,106,76170,5,2,0:0:0:0:
433,106,76443,2,0,L|441:234,1,110,2|2,0:0|0:0,0:0:0:0:
439,215,76852,1,2,0:0:0:0:
316,352,77125,5,2,0:0:0:0:
248,296,77261,1,0,0:0:0:0:
332,268,77398,1,0,0:0:0:0:
264,212,77534,2,0,P|224:212|168:268,1,110,2|2,0:0|0:0,0:0:0:0:
180,344,77943,5,2,0:0:0:0:
104,300,78080,1,2,0:0:0:0:
96,212,78216,1,0,0:0:0:0:
168,164,78352,1,2,0:0:0:0:
248,204,78489,1,2,0:0:0:0:
252,292,78625,1,2,0:0:0:0:
256,192,78693,12,0,80670,0:0:0:0:
88,72,80807,6,0,B|60:192|60:192|72:336,1,253.000004825592,6|8,1:0|0:0,0:0:0:0:
424,312,81216,2,0,B|452:192|452:192|440:48,1,253.000004825592,6|8,1:0|0:0,0:0:0:0:
200,172,81625,2,0,P|236:252|276:140,1,253.000004825592,2|8,1:0|0:0,0:0:0:0:
224,48,82034,5,8,0:0:0:0:
116,344,82170,1,8,0:0:0:0:
440,264,82307,1,8,0:0:0:0:
200,172,82443,6,0,B|164:156|132:200|80:176,1,115.49999647522,2|0,0:1|0:0,0:0:0:0:
20,136,82716,6,0,P|48:216|20:296,1,148.49999546814,2|0,0:1|0:0,0:0:0:0:
0,352,82989,6,0,B|108:304|108:392|224:332,1,220,6|8,1:2|0:0,0:1:0:0:
508,232,83398,2,0,B|402:286|402:198|294:246,1,220,2|8,1:2|0:0,0:0:0:0:
80,160,83807,2,0,P|87:70|198:104,1,220,8|0,0:0|1:0,0:0:0:0:
295,245,84216,1,0,0:0:0:0:
112,332,84352,6,0,P|52:324|-4:288,1,110,10|0,0:0|0:0,0:0:0:0:
380,280,84625,2,0,P|440:288|496:324,1,110,2|0,1:2|0:0,0:0:0:0:
96,216,84898,2,0,P|72:160|72:96,1,110,10|0,0:0|0:0,0:0:0:0:
324,104,85170,1,2,1:2:0:0:
160,280,85307,1,0,0:0:0:0:
224,72,85443,1,8,0:0:0:0:
276,312,85580,1,0,0:0:0:0:
120,132,85716,6,0,L|72:24,1,110,2|0,1:2|0:0,0:0:0:0:
440,112,85989,2,0,L|416:252,1,110,10|0,0:0|0:0,0:0:0:0:
276,312,86261,1,2,1:2:0:0:
504,272,86398,1,0,0:0:0:0:
276,312,86534,1,8,0:0:0:0:
504,272,86670,1,0,0:0:0:0:
332,176,86807,1,2,1:2:0:0:
420,368,86943,2,0,B|428:312|428:312|420:240,2,110,0|8|0,0:0|0:0|0:0,0:0:0:0:
192,120,87352,5,6,1:2:0:0:
188,288,87489,1,0,0:0:0:0:
320,200,87625,1,8,0:0:0:0:
108,184,87761,1,0,1:2:0:0:
296,304,87898,1,2,0:0:0:0:
288,80,88034,1,0,1:0:0:0:
144,332,88170,1,8,0:0:0:0:
444,304,88307,6,0,B|480:256|480:256|484:180|412:104,1,220,2|0,1:2|1:0,0:0:0:0:
80,224,88716,2,0,B|44:176|44:176|40:100|112:24,1,220,10|0,0:0|0:0,0:0:0:0:
280,168,89125,1,0,1:0:0:0:
180,336,89261,1,10,0:0:0:0:
4,232,89398,1,0,0:0:0:0:
320,316,89534,6,0,B|380:292|380:292|416:132,1,220,6|8,1:2|0:0,0:0:0:0:
116,160,89943,2,0,L|-8:184,1,110,2|0,1:2|0:0,0:0:0:0:
384,204,90216,2,0,L|508:228,2,110,2|8|0,0:0|0:0|0:0,0:0:0:0:
76,328,90625,5,2,0:0:0:0:
120,320,90693,1,0,0:0:0:0:
156,300,90761,1,0,1:0:0:0:
180,264,90830,1,0,0:0:0:0:
192,220,90898,1,8,0:0:0:0:
184,176,90966,1,0,0:0:0:0:
164,136,91034,1,0,0:0:0:0:
132,108,91102,1,0,0:0:0:0:
92,92,91170,5,2,1:2:0:0:
72,132,91239,1,0,0:0:0:0:
72,176,91307,1,0,1:0:0:0:
84,220,91375,1,0,0:0:0:0:
112,252,91443,1,8,0:0:0:0:
148,276,91511,1,0,0:0:0:0:
192,284,91580,1,0,0:0:0:0:
236,276,91648,1,0,0:0:0:0:
276,260,91716,6,0,P|312:240|336:212,3,73.3333333333333,6|0|0|8,1:2|0:0|0:0|0:0,0:0:0:0:
184,60,92080,1,0,0:0:0:0:
124,84,92170,1,0,0:0:0:0:
80,132,92260,1,0,1:0:0:0:
64,196,92351,1,0,0:0:0:0:
84,260,92442,1,0,0:0:0:0:
128,308,92533,1,10,0:0:0:0:
188,336,92625,2,0,P|224:352|260:356,1,73.3333333333333
468,256,92807,5,2,1:2:0:0:
460,192,92898,1,0,0:0:0:0:
440,128,92989,1,0,0:0:0:0:
408,72,93080,1,8,0:0:0:0:
356,32,93170,2,0,P|321:17|276:8,1,73.3333333333333
88,156,93352,5,2,1:2:0:0:
116,216,93443,1,0,0:0:0:0:
172,252,93534,1,0,0:0:0:0:
232,276,93625,1,8,0:0:0:0:
296,280,93716,2,0,P|340:276|376:260,1,73.3333333333333
204,96,93898,5,2,1:2:0:0:
140,104,93989,1,0,0:0:0:0:
84,136,94080,1,0,0:0:0:0:
52,192,94170,1,8,0:0:0:0:
48,256,94261,1,0,0:0:0:0:
76,316,94352,2,0,P|104:348|136:368,1,73.3333333333333
408,324,94580,5,0,0:0:0:0:
408,324,94648,1,0,0:0:0:0:
408,324,94716,2,0,P|408:272|392:208,1,110,10|0,0:0|0:0,0:0:0:0:
88,264,94989,5,2,1:2:0:0:
60,228,95057,1,0,0:0:0:0:
56,184,95125,1,0,0:0:0:0:
72,144,95193,1,0,0:0:0:0:
104,116,95261,1,8,0:0:0:0:
148,104,95330,1,0,0:0:0:0:
192,112,95398,1,0,0:0:0:0:
228,136,95466,1,0,0:0:0:0:
260,168,95534,5,2,0:0:0:0:
300,188,95602,1,0,0:0:0:0:
344,192,95670,1,0,0:0:0:0:
388,184,95739,1,0,0:0:0:0:
424,156,95807,1,8,0:0:0:0:
444,116,95875,1,0,0:0:0:0:
444,72,95943,1,0,0:0:0:0:
424,32,96011,1,0,0:0:0:0:
380,16,96080,6,0,P|348:108|424:244,1,220,2|8,1:2|0:0,0:0:0:0:
391,217,96489,2,0,B|300:200|300:200|240:228|240:228|140:204,1,253.000004825592,2|0,0:0|0:0,0:0:0:0:
16,56,96898,1,8,0:0:0:0:
16,56,97170,6,0,L|32:284,1,220,2|8,1:2|0:0,0:0:0:0:
31,275,97580,2,0,B|164:208|164:336|300:256,1,275,2|0,0:0|0:0,0:0:0:0:
484,144,97989,1,8,0:0:0:0:
136,24,98261,5,2,1:2:0:0:
128,36,98330,1,0,0:0:0:0:
120,52,98398,1,0,0:0:0:0:
116,72,98466,1,0,0:0:0:0:
116,100,98534,1,8,0:0:0:0:
120,132,98602,1,0,0:0:0:0:
132,168,98670,1,0,0:0:0:0:
160,204,98739,1,0,0:0:0:0:
204,228,98807,5,2,0:0:0:0:
260,236,98875,1,0,0:0:0:0:
320,228,98943,1,0,0:0:0:0:
376,196,99011,1,0,0:0:0:0:
404,128,99080,1,8,0:0:0:0:
400,52,99148,1,0,0:0:0:0:
324,20,99216,1,0,0:0:0:0:
240,44,99284,1,0,0:0:0:0:
204,124,99352,6,0,L|216:212,2,73.3333333333333,2|8|8,1:2|0:0|0:0,0:0:0:0:
44,208,99625,2,0,L|56:296,2,73.3333333333333,10|8|8,0:0|0:0|0:0,0:0:0:0:
188,328,99898,1,2,1:2:0:0:
256,304,99989,1,8,3:0:0:0:
328,320,100080,1,8,3:0:0:0:
396,348,100170,1,8,0:0:0:0:
468,336,100261,1,8,3:0:0:0:
504,272,100352,1,8,3:0:0:0:
488,200,100443,6,0,P|408:156|328:256,1,197.99999395752,6|8,1:2|0:0,0:0:0:0:
416,272,100852,1,2,0:0:0:0:
224,160,100989,1,0,1:0:0:0:
404,68,101125,1,0,0:0:0:0:
224,160,101261,6,0,L|88:140,1,98.9999969787599,10|0,0:0|0:0,0:0:0:0:
124,332,101534,2,0,L|4:368,1,98.9999969787599,0|2,1:0|0:0,0:0:0:0:
384,328,101807,2,0,L|504:364,1,98.9999969787599,8|0,0:0|0:0,0:0:0:0:
452,136,102080,5,2,1:2:0:0:
452,136,102216,1,0,0:0:0:0:
256,44,102352,1,10,0:0:0:0:
256,44,102489,1,0,0:0:0:0:
100,208,102625,6,0,P|100:256|116:320,1,98.9999969787599,2|0,1:2|0:0,0:0:0:0:
352,308,102898,1,8,0:0:0:0:
188,248,103034,1,2,0:0:0:0:
400,220,103170,1,0,1:2:0:0:
228,160,103307,1,0,0:0:0:0:
268,336,103443,1,10,0:0:0:0:
332,120,103580,1,0,0:0:0:0:
76,204,103716,6,0,L|188:248,1,98.9999969787599,2|0,1:2|0:0,0:0:0:0:
436,180,103989,2,0,L|324:136,1,98.9999969787599,10|0,0:0|0:0,0:0:0:0:
24,128,104261,2,0,L|136:104,1,98.9999969787599,2|0,1:2|0:0,0:0:0:0:
488,256,104534,2,0,L|376:280,1,98.9999969787599,10|0,0:0|0:0,0:0:0:0:
64,344,104807,6,0,B|52:292|52:292|52:216,1,98.9999969787599,6|0,1:2|0:0,0:0:0:0:
128,56,105080,1,8,0:0:0:0:
376,136,105216,2,0,B|326:156|326:156|252:170,1,98.9999969787599,2|0,0:0|1:2,0:0:0:0:
60,136,105489,1,0,0:0:0:0:
240,240,105625,6,0,L|356:240,1,98.9999969787599,10|0,0:0|0:0,0:0:0:0:
504,160,105898,1,0,1:0:0:0:
200,152,106034,2,0,L|80:184,1,98.9999969787599,2|8,0:0|0:0,0:0:0:0:
8,324,106307,1,0,0:0:0:0:
104,176,106443,6,0,P|100:120|80:68,1,98.9999969787599,2|0,1:2|0:0,0:0:0:0:
176,276,106716,2,0,P|180:332|200:384,1,98.9999969787599,10|0,0:0|0:0,0:0:0:0:
368,168,106989,5,6,1:2:0:0:
184,116,107125,1,0,0:0:0:0:
284,296,107261,1,8,0:0:0:0:
264,68,107398,1,2,0:0:0:0:
144,288,107534,1,0,1:0:0:0:
384,244,107670,1,0,0:0:0:0:
88,216,107807,2,0,P|60:252|40:320,1,98.9999969787599,10|0,0:0|0:0,0:0:0:0:
352,172,108080,5,2,1:2:0:0:
388,152,108148,1,0,0:0:0:0:
408,120,108216,1,0,1:0:0:0:
416,80,108284,1,0,0:0:0:0:
408,40,108352,1,8,0:0:0:0:
376,16,108420,1,0,0:0:0:0:
336,12,108489,1,0,0:0:0:0:
300,28,108557,1,0,0:0:0:0:
280,60,108625,5,2,1:2:0:0:
264,112,108693,1,0,0:0:0:0:
244,164,108761,1,0,1:0:0:0:
216,212,108830,1,0,0:0:0:0:
176,252,108898,1,8,0:0:0:0:
128,276,108966,1,0,0:0:0:0:
76,280,109034,1,0,1:0:0:0:
28,252,109102,1,0,0:0:0:0:
12,200,109170,6,0,L|27:102,1,98.9999969787599,14|2,0:0|1:2,0:0:0:0:
440,184,109443,2,0,L|455:86,1,98.9999969787599,8|2,0:0|1:2,0:0:0:0:
112,128,109716,2,0,L|132:4,1,98.9999969787599,8|2,0:0|1:2,0:0:0:0:
340,240,109989,2,0,L|360:116,1,98.9999969787599,8|2,0:0|1:2,0:0:0:0:
36,296,110261,2,0,L|51:198,1,98.9999969787599,8|2,0:0|1:2,0:0:0:0:
464,280,110534,2,0,L|479:182,1,98.9999969787599,8|2,0:0|1:2,0:0:0:0:
132,108,110807,6,0,L|8:136,1,98.9999969787599,8|2,0:0|1:2,0:0:0:0:
382,160,111080,2,0,L|506:188,1,98.9999969787599,8|2,0:0|1:2,0:0:0:0:
100,344,111352,6,0,L|115:246,1,98.9999969787599,8|2,0:0|1:2,0:0:0:0:
244,28,111625,2,0,L|229:126,1,98.9999969787599,8|2,0:0|1:2,0:0:0:0:
312,360,111898,2,0,L|327:262,1,98.9999969787599,8|2,0:0|1:2,0:0:0:0:
456,44,112171,2,0,L|441:142,1,98.9999969787599,8|2,0:0|1:2,0:0:0:0:
476,356,112444,5,8,0:0:0:0:
356,192,112580,1,2,1:2:0:0:
476,356,112716,1,8,0:0:0:0:
356,192,112852,1,2,1:2:0:0:
356,340,112989,5,8,0:0:0:0:
464,108,113125,1,2,1:2:0:0:
356,340,113261,1,8,0:0:0:0:
464,108,113398,1,2,1:2:0:0:
168,136,113534,5,6,1:2:0:0:
432,200,113670,1,0,0:0:0:0:
244,348,113807,1,8,0:0:0:0:
256,80,113943,1,2,0:0:0:0:
397,311,114079,1,0,1:0:0:0:
159,283,114216,1,0,0:0:0:0:
408,144,114352,5,10,0:0:0:0:
142,112,114489,1,0,0:0:0:0:
299,370,114625,1,0,1:0:0:0:
368,54,114761,1,2,1:2:0:0:
83,252,114898,1,8,0:0:0:0:
456,360,115034,1,0,0:0:0:0:
212,72,115170,6,0,L|220:196,1,98.9999969787599,2|0,1:2|0:0,0:0:0:0:
299,370,115443,2,0,L|291:246,1,98.9999969787599,10|0,0:0|0:0,0:0:0:0:
136,144,115716,5,2,1:2:0:0:
32,260,115852,1,0,0:0:0:0:
48,64,115989,1,8,0:0:0:0:
228,224,116125,2,0,P|304:208|344:80,1,197.99999395752,2|8,1:2|0:0,0:0:0:0:
40,168,116534,2,0,B|16:216|16:216|4:368,1,197.99999395752,2|8,1:2|0:0,0:0:0:0:
404,336,116943,5,2,0:0:0:0:
108,284,117080,1,2,0:0:0:0:
372,236,117216,5,2,0:0:0:0:
144,176,117352,1,2,0:0:0:0:
336,128,117489,5,2,0:0:0:0:
188,72,117625,1,2,0:0:0:0:
304,28,117761,5,2,0:0:0:0:
188,72,117898,2,0,L|96:104,3,65.9999979858399,8|8|8|8,0:0|0:0|0:0|0:0,0:0:0:0:
256,332,118352,1,0,1:0:0:0:
256,352,118398,1,0,1:0:0:0:
256,368,118443,1,2,1:2:0:0:
256,192,118511,12,0,122261,0:0:0:0:
