osu file format v14

[General]
AudioFilename: Preserved Valkyria.mp3
AudioLeadIn: 0
PreviewTime: 48061
Countdown: 0
SampleSet: Normal
StackLeniency: 0.2
Mode: 0
LetterboxInBreaks: 1
WidescreenStoryboard: 1

[Editor]
Bookmarks: 11079,27429,42236,44687,57986,66440
DistanceSpacing: 1.5
BeatDivisor: 6
GridSize: 4
TimelineZoom: 2.4

[Metadata]
Title:Preserved Valkyria
TitleUnicode:Preserved Valkyria
Artist:penoreri
ArtistUnicode:ぺのれり
Creator:aqr91
Version:Raging Fury
Source:SOUND VOLTEX III GRAVITY WARS
Tags:
BeatmapID:1180789
BeatmapSetID:555024

[Difficulty]
HPDrainRate:6.5
CircleSize:4.5
OverallDifficulty:9.2
ApproachRate:9.6
SliderMultiplier:2.4
SliderTickRate:1

[Events]
//Background and Video events
0,0,"bg.jpg",0,0
//Break Periods
//Storyboard Layer 0 (Background)
//Storyboard Layer 1 (Fail)
//Storyboard Layer 2 (Pass)
//Storyboard Layer 3 (Foreground)
//Storyboard Layer 4 (Overlay)
//Storyboard Sound Samples

[TimingPoints]
1402,387.096774193548,4,1,1,100,1,0
1402,-142.857142857143,4,1,1,50,0,0
7595,-125,4,1,1,50,0,0
13789,-76.9230769230769,4,1,1,50,0,0
19982,300,4,1,1,100,1,0
19982,-100,4,1,1,50,0,0
20946,387.096774193548,4,1,1,100,1,0
29272,-100,4,1,0,30,0,0
32365,-200,4,1,0,30,0,0
33075,-142.857142857143,4,1,4,50,0,0
33914,-142.857142857143,4,1,0,50,0,0
35462,-142.857142857143,4,1,4,50,0,0
39333,-100,4,1,1,50,0,0
41660,-100,4,1,4,50,0,0
41853,-100,4,1,1,50,0,0
42236,-66.6666666666667,4,1,1,50,0,0
43591,-58.8235294117647,4,1,1,50,0,0
45531,-100,4,1,0,25,0,0
46305,400,4,1,1,100,1,0
46305,-100,4,1,0,50,0,0
46705,413.793103448276,4,1,1,100,1,0
47118,461.538461538462,4,1,1,100,1,0
47118,-100,4,2,0,50,0,0
47579,521.739130434783,4,1,1,100,1,0
47579,-100,4,2,0,50,0,0
48100,272.727272727273,4,1,1,100,1,0
48100,-100,4,1,1,50,0,0
55736,-200,4,1,1,50,0,0
56009,-133.333333333333,4,1,1,50,0,0
56281,-100,4,1,1,50,0,0
56827,-90.9090909090909,4,1,1,50,0,1
63372,-100,4,1,1,50,0,1
65281,-166.666666666667,4,2,1,10,0,0
65554,-166.666666666667,4,2,4,10,0,0
72509,-142.857142857143,4,2,4,5,0,0
76463,-166.666666666667,4,2,4,30,0,0
80827,-90.9090909090909,4,1,1,50,0,0
82463,-166.666666666667,4,2,0,20,0,0
82736,-111.111111111111,4,2,0,20,0,0
83009,-90.9090909090909,4,1,4,80,0,1
83281,-90.9090909090909,4,1,4,50,0,1
83963,-76.9230769230769,4,1,1,80,0,1
84372,-90.9090909090909,4,1,0,80,0,1
96100,-90.9090909090909,4,1,4,80,0,1
96509,-90.9090909090909,4,1,0,80,0,1
97190,-90.9090909090909,4,1,4,80,0,1
97600,-90.9090909090909,4,1,0,80,0,1
100463,-90.9090909090909,4,1,1,65,0,0
117781,-200,4,1,1,65,0,0
117985,-100,4,1,1,50,0,0
118085,-100,4,1,1,5,0,0
118463,-100,4,2,4,50,0,0
122213,-100,4,1,1,5,0,0

[Colours]
Combo1 : 18,124,255
Combo2 : 9,193,193
Combo3 : 18,124,255
Combo4 : 255,255,255

[HitObjects]
128,72,1402,6,0,P|184:128|272:132,1,167.999994873047,2|0,0:0|0:0,0:0:0:0:
88,208,2176,2,0,L|224:220,2,125.999996154785,2|2|2,0:0|0:0|0:0,0:0:0:0:
408,344,3144,6,0,P|352:288|264:284,1,167.999994873047,2|0,0:0|0:0,0:0:0:0:
448,208,3724,2,0,L|312:196,2,125.999996154785,2|2|2,0:0|0:0|0:0,0:0:0:0:
96,256,4692,1,0,0:0:0:0:
108,236,4789,1,0,0:0:0:0:
192,92,4982,1,0,0:0:0:0:
180,112,5079,2,0,P|112:148|28:116,1,167.999994873047
148,32,5660,1,2,0:0:0:0:
228,232,5853,1,2,0:0:0:0:
408,328,6143,5,0,0:0:0:0:
389,311,6239,1,0,0:0:0:0:
371,293,6336,1,0,0:0:0:0:
353,276,6433,1,0,0:0:0:0:
335,258,6530,1,0,0:0:0:0:
317,241,6626,1,0,0:0:0:0:
299,223,6723,1,0,0:0:0:0:
281,205,6820,1,0,0:0:0:0:
260,184,7208,5,2,0:0:0:0:
377,313,7595,2,0,P|335:336|288:340,1,96
184,280,7885,1,0,0:0:0:0:
184,280,7982,2,0,P|132:280|88:304,1,96
280,212,8272,1,0,0:0:0:0:
280,212,8369,2,0,P|328:212|376:180,1,96
176,144,8660,1,0,0:0:0:0:
176,144,8757,2,0,P|124:144|80:168,1,96
272,76,9047,1,0,0:0:0:0:
272,76,9144,2,0,P|320:76|368:44,1,96
184,0,9434,1,0,0:0:0:0:
184,0,9531,2,0,P|132:0|88:24,1,96
224,112,9821,1,0,0:0:0:0:
232,120,9917,6,0,P|255:121|279:116,1,48
227,184,10111,2,0,P|233:207|231:231,1,48
159,187,10305,2,0,P|135:189|112:184,1,48
160,120,10499,2,0,P|154:96|156:72,1,48
256,68,10692,5,0,0:0:0:0:
358,106,10821,2,0,P|340:140|316:156,1,64
256,316,11079,5,0,0:0:0:0:
154,278,11208,2,0,P|172:244|196:228,1,64
308,140,11466,5,0,0:0:0:0:
317,207,11595,2,0,P|287:207|259:190,1,64
224,252,11853,5,0,0:0:0:0:
198,185,11982,2,0,P|232:181|261:192,1,64
259,191,12240,5,0,0:0:0:0:
231,97,12434,1,0,0:0:0:0:
271,72,12530,1,0,0:0:0:0:
319,70,12627,1,0,0:0:0:0:
361,92,12724,1,0,0:0:0:0:
387,130,12821,1,0,0:0:0:0:
392,178,12917,1,0,0:0:0:0:
379,225,13014,1,0,0:0:0:0:
379,225,13401,1,0,0:0:0:0:
379,225,13789,5,0,0:0:0:0:
240,128,13982,1,0,0:0:0:0:
284,288,14176,1,0,0:0:0:0:
344,132,14369,1,0,0:0:0:0:
212,224,14563,1,0,0:0:0:0:
379,225,14756,5,0,0:0:0:0:
421,242,14852,1,0,0:0:0:0:
446,277,14949,1,0,0:0:0:0:
451,321,15046,1,0,0:0:0:0:
431,360,15143,1,0,0:0:0:0:
392,383,15239,1,0,0:0:0:0:
348,383,15336,1,0,0:0:0:0:
311,359,15433,1,0,0:0:0:0:
290,321,15531,5,0,0:0:0:0:
277,277,15627,1,0,0:0:0:0:
281,233,15724,1,0,0:0:0:0:
294,193,15821,1,0,0:0:0:0:
312,154,15918,1,0,0:0:0:0:
321,110,16014,1,0,0:0:0:0:
307,70,16111,1,0,0:0:0:0:
281,35,16208,1,0,0:0:0:0:
242,17,16305,5,0,0:0:0:0:
200,31,16401,1,0,0:0:0:0:
171,64,16498,1,0,0:0:0:0:
154,102,16595,1,0,0:0:0:0:
159,147,16692,1,0,0:0:0:0:
173,187,16789,1,0,0:0:0:0:
183,228,16885,1,0,0:0:0:0:
183,272,16982,1,0,0:0:0:0:
166,315,17079,5,0,0:0:0:0:
141,350,17175,1,0,0:0:0:0:
101,368,17272,1,0,0:0:0:0:
58,360,17369,1,0,0:0:0:0:
25,329,17466,1,0,0:0:0:0:
16,286,17562,1,0,0:0:0:0:
32,246,17659,1,0,0:0:0:0:
67,220,17756,1,0,0:0:0:0:
111,217,17853,5,0,0:0:0:0:
155,215,17949,1,0,0:0:0:0:
200,221,18046,1,0,0:0:0:0:
240,237,18143,1,0,0:0:0:0:
281,258,18240,1,0,0:0:0:0:
321,275,18336,1,0,0:0:0:0:
365,282,18433,1,0,0:0:0:0:
409,273,18530,1,0,0:0:0:0:
443,245,18627,5,0,0:0:0:0:
462,206,18723,1,0,0:0:0:0:
463,162,18820,1,0,0:0:0:0:
445,121,18917,1,0,0:0:0:0:
414,91,19014,1,0,0:0:0:0:
371,76,19111,1,0,0:0:0:0:
328,68,19208,6,0,P|292:64|248:80,1,77.9999964294435
161,226,19401,2,0,P|200:236|240:224,1,77.9999964294435
244,148,19595,6,0,P|204:148|168:160,1,77.9999964294435
296,192,19789,2,0,P|336:200|372:196,1,77.9999964294435
408,168,19982,5,0,0:0:0:0:
421,122,20057,1,0,0:0:0:0:
410,76,20132,1,0,0:0:0:0:
377,42,20207,1,0,0:0:0:0:
331,31,20282,1,0,0:0:0:0:
286,44,20357,1,0,0:0:0:0:
254,79,20432,1,0,0:0:0:0:
244,126,20507,1,0,0:0:0:0:
256,168,20582,1,0,0:0:0:0:
260,184,20657,1,0,0:0:0:0:
260,200,20732,1,0,0:0:0:0:
256,212,20807,1,0,0:0:0:0:
252,220,20882,1,0,0:0:0:0:
248,228,20946,6,0,L|312:232,1,60
348,184,21140,6,0,L|284:188,1,60
300,132,21333,6,0,L|364:136,1,60
376,72,21527,38,0,L|256:84,1,120
248,156,21817,1,0,0:0:0:0:
240,152,21914,2,0,L|368:164,1,120
400,224,22204,1,0,0:0:0:0:
413,220,22300,2,0,L|297:252,1,120
298,313,22591,1,0,0:0:0:0:
320,324,22687,2,0,P|205:308|140:204,1,240
140,147,23171,5,0,0:0:0:0:
140,135,23268,1,0,0:0:0:0:
140,123,23365,1,0,0:0:0:0:
256,219,23558,5,0,0:0:0:0:
363,157,23752,6,0,L|419:117,1,60
149,227,24042,6,0,L|93:267,1,60
314,82,24333,5,0,0:0:0:0:
362,281,24527,1,0,0:0:0:0:
184,142,24720,5,0,0:0:0:0:
168,130,24817,1,0,0:0:0:0:
154,119,24914,1,0,0:0:0:0:
40,320,25107,5,0,0:0:0:0:
163,236,25300,6,0,L|247:176,1,60
349,148,25591,6,0,L|265:208,1,60
208,292,25881,2,0,P|140:300|96:264,1,120
80,204,26171,1,0,0:0:0:0:
80,161,26268,1,0,0:0:0:0:
112,112,26365,1,0,0:0:0:0:
111,154,26462,1,0,0:0:0:0:
336,304,26656,37,0,0:0:0:0:
312,156,26849,6,0,L|288:84,1,60
240,316,27139,2,0,L|264:388,1,60
304,92,27429,2,0,P|372:84|416:120,1,120
432,184,27719,1,0,0:0:0:0:
432,231,27816,1,0,0:0:0:0:
388,280,27913,1,0,0:0:0:0:
389,234,28010,1,0,0:0:0:0:
440,336,28204,5,0,0:0:0:0:
291,214,28397,6,0,L|335:170,1,60
249,28,28623,5,0,0:0:0:0:
172,52,28752,5,0,0:0:0:0:
172,132,28881,5,0,0:0:0:0:
249,157,29010,5,0,0:0:0:0:
296,92,29139,5,0,0:0:0:0:
256,192,29268,12,0,32171,0:0:0:0:
225,264,32365,6,0,P|319:288|409:206,1,210
312,112,33139,6,0,P|256:212|356:156,1,307.999990600586
360,72,33913,2,0,P|192:120|404:124,1,643.99998034668
398,143,35462,38,0,B|397:180|438:214|445:292|292:322|278:252|265:205|287:160|287:160|252:148|220:173|211:205|211:205|185:288|103:325|-26:270|-46:191|-23:35|92:24|163:50|200:84|200:84|164:99|118:128|107:169,1,1091.99996667481,0|0,0:3|0:0,0:0:0:0:
108,168,38171,1,0,0:0:0:0:
332,32,38558,1,0,0:0:0:0:
305,23,38622,1,0,0:0:0:0:
276,22,38687,1,0,0:0:0:0:
249,31,38751,1,0,0:0:0:0:
227,48,38816,1,0,0:0:0:0:
210,72,38880,1,0,0:0:0:0:
202,99,38945,1,0,0:0:0:0:
204,127,39009,1,0,0:0:0:0:
214,154,39074,1,0,0:0:0:0:
231,176,39138,1,0,0:0:0:0:
255,191,39203,1,0,0:0:0:0:
283,198,39267,1,0,0:0:0:0:
312,196,39333,6,0,P|336:88|200:196,1,420
192,184,40107,6,0,B|236:200|236:200|340:163|340:163|320:50|162:-34|-1:157|46:246|172:441|344:280,1,840,0|0,0:3|0:0,0:0:0:0:
372,236,41655,2,0,L|340:288,1,60
356,156,41849,2,0,L|336:120,1,40
436,180,42042,2,0,L|489:165,1,40
280,192,42236,1,0,0:0:0:0:
249,196,42300,1,0,0:0:0:0:
220,185,42365,1,0,0:0:0:0:
203,159,42429,1,0,0:0:0:0:
201,128,42494,1,0,0:0:0:0:
217,101,42558,1,0,0:0:0:0:
245,87,42623,1,0,0:0:0:0:
283,91,42687,6,0,P|210:141|121:145,1,180.000006866455
32,228,43010,2,0,L|48:128,1,90.0000034332277
130,91,43204,1,0,0:0:0:0:
120,144,43268,1,0,0:0:0:0:
110,197,43333,1,0,0:0:0:0:
101,250,43397,1,0,0:0:0:0:
92,304,43494,6,0,P|176:332|264:199,2,270.000010299683
180,187,44236,6,0,P|225:138|296:118,1,136.000002593994
325,178,44429,5,0,0:0:0:0:
291,176,44493,1,0,0:0:0:0:
259,188,44558,1,0,0:0:0:0:
233,210,44622,1,0,0:0:0:0:
218,240,44687,1,0,0:0:0:0:
316,80,45526,5,0,0:0:0:0:
198,248,45719,1,0,0:0:0:0:
354,167,45913,1,0,0:0:0:0:
132,172,46107,1,0,0:0:0:0:
132,172,46171,1,0,0:0:0:0:
132,172,46236,1,0,0:0:0:0:
132,172,46300,1,0,0:0:0:0:
132,172,47118,5,0,0:0:0:0:
380,212,47579,5,0,0:0:0:0:
96,120,48100,5,0,0:0:0:0:
140,184,48236,2,0,P|200:200|268:188,1,120
417,120,48509,5,0,0:0:0:0:
373,184,48645,2,0,P|313:200|245:188,1,120
256,192,48918,5,0,0:0:0:0:
256,72,49054,2,0,L|256:192,1,120
256,192,49327,5,0,0:0:0:0:
256,312,49463,2,0,L|256:192,1,120
144,312,49736,5,0,0:0:0:0:
256,192,49872,1,0,0:0:0:0:
364,312,50009,1,0,0:0:0:0:
256,264,50145,1,0,0:0:0:0:
256,68,50281,5,0,0:0:0:0:
140,192,50417,2,0,P|80:184|23:200,1,120
256,68,50690,5,0,0:0:0:0:
372,192,50826,2,0,P|431:184|488:200,1,120
256,316,51100,5,0,0:0:0:0:
140,192,51236,2,0,P|124:134|131:75,1,120
256,316,51509,5,0,0:0:0:0:
372,192,51645,2,0,P|387:134|380:75,1,120
96,52,51918,5,0,0:0:0:0:
152,232,52054,1,0,0:0:0:0:
44,160,52190,1,0,0:0:0:0:
176,108,52327,1,0,0:0:0:0:
180,304,52463,5,0,0:0:0:0:
112,136,52600,1,0,0:0:0:0:
304,176,52736,1,0,0:0:0:0:
108,216,52872,1,0,0:0:0:0:
196,52,53009,5,0,0:0:0:0:
260,252,53145,1,0,0:0:0:0:
400,120,53281,1,0,0:0:0:0:
344,312,53418,1,0,0:0:0:0:
200,168,53554,1,0,0:0:0:0:
420,212,53690,1,0,0:0:0:0:
220,320,53827,1,0,0:0:0:0:
332,152,53963,1,0,0:0:0:0:
128,160,54100,5,0,0:0:0:0:
200,212,54236,1,0,0:0:0:0:
288,232,54372,1,0,0:0:0:0:
356,292,54509,1,0,0:0:0:0:
420,348,54645,5,0,0:0:0:0:
372,221,54781,1,0,0:0:0:0:
243,284,54918,2,0,P|177:284|130:252,1,120
356,68,55190,2,0,P|342:126|299:167,1,120
208,248,55463,1,0,0:0:0:0:
288,344,55600,1,0,0:0:0:0:
412,300,55736,5,0,0:0:0:0:
415,270,55804,1,0,0:0:0:0:
420,240,55872,1,0,0:0:0:0:
427,211,55940,1,0,0:0:0:0:
437,183,56008,1,0,0:0:0:0:
448,155,56076,1,0,0:0:0:0:
462,128,56145,1,0,0:0:0:0:
477,103,56213,1,0,0:0:0:0:
427,132,56281,5,0,0:0:0:0:
371,149,56349,1,0,0:0:0:0:
313,151,56417,1,0,0:0:0:0:
256,140,56485,1,0,0:0:0:0:
208,104,56554,2,8,P|200:140|176:176,1,60
116,172,56690,2,8,P|124:136|148:100,1,60
212,224,56827,2,10,P|248:252|347:246,1,132.00000402832
436,132,57100,1,0,0:0:0:0:
340,248,57236,1,10,0:0:0:0:
212,224,57372,2,0,P|176:196|77:202,1,132.00000402832
56,348,57645,5,10,0:0:0:0:
212,224,57781,1,0,0:0:0:0:
40,144,57918,1,0,0:0:0:0:
148,298,58054,1,10,0:0:0:0:
208,124,58190,5,0,0:0:0:0:
316,278,58327,1,0,0:0:0:0:
92,240,58463,5,10,0:0:0:0:
144,120,58600,1,0,0:0:0:0:
148,298,58736,1,10,0:0:0:0:
224,60,58872,1,0,0:0:0:0:
308,216,59009,5,10,0:0:0:0:
464,184,59145,1,0,0:0:0:0:
200,128,59281,1,0,0:0:0:0:
464,60,59418,5,10,0:0:0:0:
352,284,59554,1,0,0:0:0:0:
320,104,59690,1,0,0:0:0:0:
224,300,59827,5,10,0:0:0:0:
448,124,59963,1,0,0:0:0:0:
236,200,60100,1,0,0:0:0:0:
484,264,60236,1,10,0:0:0:0:
376,88,60372,5,0,0:0:0:0:
328,280,60509,1,0,0:0:0:0:
412,176,60645,1,2,0:0:0:0:
224,252,60781,1,2,0:0:0:0:
352,120,60918,6,2,P|416:108|477:129,1,132.00000402832
204,248,61190,2,2,P|138:244|81:213,1,132.00000402832
72,204,61463,5,0,0:0:0:0:
176,336,61600,1,10,0:0:0:0:
300,236,61736,1,0,0:0:0:0:
208,108,61872,1,0,0:0:0:0:
260,296,62009,37,10,0:0:0:0:
116,204,62145,1,0,0:0:0:0:
396,216,62281,1,8,0:0:0:0:
200,320,62418,5,10,0:0:0:0:
180,176,62554,1,0,0:0:0:0:
54,112,62690,1,0,0:0:0:0:
200,320,62827,38,2,P|240:356|320:368,1,132.00000402832
196,104,63100,6,2,P|156:68|68:56,1,132.00000402832
184,203,63372,5,8,0:0:0:0:
228,206,63440,1,8,0:0:0:0:
271,193,63509,1,8,0:0:0:0:
315,183,63577,1,8,0:0:0:0:
358,195,63645,1,8,0:0:0:0:
392,224,63713,1,8,0:0:0:0:
403,266,63781,1,8,0:0:0:0:
384,306,63850,5,8,0:0:0:0:
345,325,63918,1,8,0:0:0:0:
302,314,63986,1,8,0:0:0:0:
276,278,64054,1,8,0:0:0:0:
280,234,64122,1,8,0:0:0:0:
304,196,64190,1,8,0:0:0:0:
330,160,64258,1,8,0:0:0:0:
333,116,64326,1,8,0:0:0:0:
313,76,64394,5,8,0:0:0:0:
275,53,64462,1,8,0:0:0:0:
231,55,64530,1,8,0:0:0:0:
194,80,64599,1,8,0:0:0:0:
176,120,64667,1,8,0:0:0:0:
183,164,64735,1,8,0:0:0:0:
212,198,64803,1,8,0:0:0:0:
254,215,64871,1,8,0:0:0:0:
298,221,64940,5,8,0:0:0:0:
334,247,65008,1,8,0:0:0:0:
345,289,65076,1,8,0:0:0:0:
325,329,65144,1,8,0:0:0:0:
284,345,65212,1,8,0:0:0:0:
243,331,65281,6,0,P|224:296|248:264,1,71.9999978027345
308,200,65553,2,0,L|184:121,1,143.999995605469
168,60,65962,2,0,L|212:204,1,143.999995605469
176,256,66372,2,0,L|280:152,1,143.999995605469
412,144,66918,5,0,0:0:0:0:
432,216,67190,1,0,0:0:0:0:
344,240,67463,5,0,0:0:0:0:
324,312,67735,1,0,0:0:0:0:
176,136,68554,5,0,0:0:0:0:
393,75,68690,1,0,0:0:0:0:
412,152,69509,1,0,0:0:0:0:
379,118,69645,1,0,0:0:0:0:
333,117,69781,1,0,0:0:0:0:
300,150,69918,1,0,0:0:0:0:
264,211,70054,1,0,0:0:0:0:
197,231,70190,1,0,0:0:0:0:
134,199,70327,1,0,0:0:0:0:
110,133,70463,1,0,0:0:0:0:
138,69,70599,1,0,0:0:0:0:
203,41,70736,1,0,0:0:0:0:
269,65,70872,2,0,P|304:96|308:124,1,71.9999978027344
424,120,71145,5,0,0:0:0:0:
224,220,71281,1,0,0:0:0:0:
480,344,71554,5,0,0:0:0:0:
240,36,71827,1,0,0:0:0:0:
80,156,72100,6,0,L|88:232,1,71.9999978027345
160,92,72372,1,2,0:0:0:0:
216,284,72509,2,0,P|312:320|344:264,2,167.999994873047
288,184,73190,5,0,0:0:0:0:
432,180,73327,2,0,P|477:174|530:131,2,83.9999974365235
288,184,73736,5,0,0:0:0:0:
260,200,74009,1,0,0:0:0:0:
232,220,74281,1,0,0:0:0:0:
320,312,74963,6,0,P|316:270|294:235,1,83.9999974365235
224,200,75236,1,0,0:0:0:0:
148,224,75372,2,0,L|64:276,2,83.9999974365235
344,96,75781,2,0,L|194:191,1,167.999994873047
360,88,76190,1,0,0:0:0:0:
152,220,76463,5,0,0:0:0:0:
372,192,76736,5,4,0:0:0:0:
188,60,76872,1,4,0:0:0:0:
220,288,77145,5,0,0:0:0:0:
274,142,77281,1,0,0:0:0:0:
264,236,77418,1,0,0:0:0:0:
226,92,77554,1,0,0:0:0:0:
392,144,77827,5,0,0:0:0:0:
232,200,77963,1,0,0:0:0:0:
332,84,78100,1,0,0:0:0:0:
204,224,78236,1,0,0:0:0:0:
424,128,78372,1,0,0:0:0:0:
176,252,78509,1,0,0:0:0:0:
164,117,78645,6,0,P|216:60|240:56,1,71.9999978027344
348,267,78918,2,0,P|296:324|272:332,1,71.9999978027344
124,296,79191,1,2,0:0:0:0:
368,68,79463,5,4,0:0:0:0:
112,128,79600,1,4,0:0:0:0:
364,240,79872,5,0,0:0:0:0:
204,276,80009,1,0,0:0:0:0:
256,124,80145,1,0,0:0:0:0:
284,268,80281,1,0,0:0:0:0:
336,116,80417,1,0,0:0:0:0:
268,180,80554,1,0,0:0:0:0:
284,268,80690,1,0,0:0:0:0:
132,152,80827,6,4,P|150:250|269:355,1,264.000008056641,4|8,0:0|0:0,0:0:0:0:
268,196,81236,2,4,P|234:103|86:26,1,264.000008056641,4|8,0:0|0:0,0:0:0:0:
200,184,81645,1,4,0:0:0:0:
200,184,81781,2,4,P|136:164|0:292,1,264.000008056641,4|8,0:0|0:0,0:0:0:0:
136,296,82190,1,8,0:0:0:0:
256,208,82327,1,8,0:0:0:0:
112,144,82463,6,0,P|143:125|177:116,1,71.9999978027344
276,172,82736,6,0,P|240:192|172:204,1,107.999996704102
332,220,83009,6,4,P|424:160|556:220,1,264.000008056641
276,120,83418,6,0,P|376:124|460:256,1,264.000008056641
156,32,83827,6,0,P|268:33|344:268,1,396.000012084961
168,176,84372,6,0,P|136:136|148:36,1,132.00000402832
240,248,84645,2,0,P|296:216|328:136,1,132.00000402832
168,336,84918,2,0,P|128:284|128:200,1,132.00000402832
392,104,85190,5,0,0:0:0:0:
192,152,85327,1,0,0:0:0:0:
360,240,85463,2,0,P|405:258|502:255,1,132.00000402832
252,172,85736,2,0,P|207:154|110:157,1,132.00000402832
212,316,86009,1,0,0:0:0:0:
328,176,86145,2,0,P|344:96|324:32,2,132.00000402832
212,92,86554,2,0,P|98:125|64:261,1,264.000008056641
164,200,86963,5,0,0:0:0:0:
240,308,87100,1,0,0:0:0:0:
280,96,87236,1,0,0:0:0:0:
448,224,87372,37,4,0:0:0:0:
332,144,87509,1,0,0:0:0:0:
424,320,87645,1,0,0:0:0:0:
244,160,87781,1,0,0:0:0:0:
364,360,87918,1,0,0:0:0:0:
160,268,88054,1,0,0:0:0:0:
344,144,88190,1,0,0:0:0:0:
244,356,88327,1,0,0:0:0:0:
208,132,88463,5,0,0:0:0:0:
244,280,88600,1,0,0:0:0:0:
356,172,88736,2,0,P|368:104|340:48,1,132.00000402832
264,128,89009,2,0,P|248:188|284:248,1,132.00000402832
440,124,89281,2,0,P|452:68|416:0,1,132.00000402832
176,164,89554,2,0,P|160:224|196:284,1,132.00000402832
320,128,89827,2,0,P|312:84|292:44,1,66.0000020141602
272,192,89963,2,0,P|280:256|312:324,1,132.00000402832
428,164,90236,5,0,0:0:0:0:
432,148,90304,1,0,0:0:0:0:
432,124,90372,1,0,0:0:0:0:
424,104,90440,1,0,0:0:0:0:
396,76,90509,1,0,0:0:0:0:
351,68,90577,1,0,0:0:0:0:
309,93,90645,1,0,0:0:0:0:
289,137,90713,1,0,0:0:0:0:
299,185,90781,1,0,0:0:0:0:
334,219,90850,1,0,0:0:0:0:
384,232,90918,1,0,0:0:0:0:
426,214,90986,1,0,0:0:0:0:
453,174,91054,1,0,0:0:0:0:
452,125,91122,1,0,0:0:0:0:
422,87,91190,1,0,0:0:0:0:
376,72,91259,1,0,0:0:0:0:
328,76,91327,5,0,0:0:0:0:
305,125,91395,1,0,0:0:0:0:
308,180,91463,1,0,0:0:0:0:
334,228,91531,1,0,0:0:0:0:
378,259,91599,1,0,0:0:0:0:
432,267,91667,1,0,0:0:0:0:
484,251,91736,6,0,P|508:216|524:152,2,88.000002685547
436,188,92009,6,0,P|412:223|396:287,2,88.000002685547
352,180,92281,6,0,P|376:145|392:81,2,88.000002685547
268,184,92554,6,0,P|192:172|132:120,1,132.00000402832
204,48,92827,5,0,0:0:0:0:
245,103,92917,1,0,0:0:0:0:
240,172,93008,1,0,0:0:0:0:
192,221,93099,1,0,0:0:0:0:
124,228,93190,1,0,0:0:0:0:
67,189,93281,1,0,0:0:0:0:
44,116,93372,5,0,0:0:0:0:
78,185,93462,1,0,0:0:0:0:
147,221,93553,1,0,0:0:0:0:
224,208,93644,1,0,0:0:0:0:
278,152,93735,1,0,0:0:0:0:
288,75,93826,1,0,0:0:0:0:
352,136,93918,5,0,0:0:0:0:
378,195,94009,1,0,0:0:0:0:
360,257,94100,1,0,0:0:0:0:
306,293,94190,1,0,0:0:0:0:
242,287,94281,1,0,0:0:0:0:
197,241,94372,1,0,0:0:0:0:
191,177,94463,1,0,0:0:0:0:
212,116,94554,2,0,P|193:99|132:96,2,88.000002685547
220,184,94872,6,0,P|272:224|384:200,1,132.00000402832
376,232,95077,1,0,0:0:0:0:
417,225,95145,1,0,0:0:0:0:
449,198,95213,1,0,0:0:0:0:
461,158,95281,1,0,0:0:0:0:
452,117,95350,1,0,0:0:0:0:
422,88,95418,1,0,0:0:0:0:
381,78,95486,1,0,0:0:0:0:
341,92,95554,1,0,0:0:0:0:
384,148,95622,5,0,0:0:0:0:
356,196,95690,1,0,0:0:0:0:
314,234,95759,1,0,0:0:0:0:
260,230,95827,1,0,0:0:0:0:
221,191,95895,1,0,0:0:0:0:
221,135,95963,1,0,0:0:0:0:
255,94,96031,1,0,0:0:0:0:
308,84,96100,2,0,P|400:111|432:264,1,264.000008056641
312,320,96509,1,0,0:0:0:0:
275,334,96577,1,0,0:0:0:0:
237,344,96645,1,0,0:0:0:0:
197,341,96713,1,0,0:0:0:0:
161,323,96781,1,0,0:0:0:0:
134,295,96849,1,0,0:0:0:0:
118,258,96918,1,0,0:0:0:0:
116,218,96986,1,0,0:0:0:0:
128,180,97054,1,0,0:0:0:0:
152,149,97122,1,0,0:0:0:0:
184,128,97190,6,0,P|316:84|476:108,1,264.000008056641,4|0,0:0|0:0,0:0:0:0:
428,188,97600,5,0,0:0:0:0:
393,167,97668,1,0,0:0:0:0:
355,159,97736,1,0,0:0:0:0:
315,161,97804,1,0,0:0:0:0:
278,174,97872,1,0,0:0:0:0:
247,198,97940,1,0,0:0:0:0:
230,238,98009,1,0,0:0:0:0:
224,280,98100,6,0,P|232:332|252:368,1,66.0000020141602
212,132,98281,6,0,P|251:120|308:136,1,88.000002685547
112,248,98463,6,0,P|114:280|96:332,1,88.000002685547
52,100,98645,6,0,P|23:83|-8:40,1,88.000002685547
168,124,98827,5,0,0:0:0:0:
234,152,98918,1,0,0:0:0:0:
306,152,99009,1,0,0:0:0:0:
376,143,99099,1,0,0:0:0:0:
442,166,99190,1,0,0:0:0:0:
467,232,99281,1,0,0:0:0:0:
440,300,99372,1,0,0:0:0:0:
374,325,99463,1,0,0:0:0:0:
310,294,99554,1,0,0:0:0:0:
277,232,99645,1,0,0:0:0:0:
218,193,99736,1,0,0:0:0:0:
147,186,99827,1,0,0:0:0:0:
95,236,99918,1,0,0:0:0:0:
84,306,100009,1,0,0:0:0:0:
124,366,100100,1,0,0:0:0:0:
193,379,100190,1,0,0:0:0:0:
256,349,100281,1,0,0:0:0:0:
264,279,100372,1,0,0:0:0:0:
232,212,100463,6,0,P|172:183|108:212,1,132.00000402832
172,260,100736,1,0,0:0:0:0:
172,260,100872,2,0,P|235:286|295:269,1,132.00000402832
428,212,101145,1,0,0:0:0:0:
428,212,101281,2,0,P|371:186|304:203,1,132.00000402832
184,104,101554,5,0,0:0:0:0:
305,201,101690,1,0,0:0:0:0:
328,64,101827,1,0,0:0:0:0:
168,208,101963,1,0,0:0:0:0:
404,300,102100,1,0,0:0:0:0:
268,124,102236,1,0,0:0:0:0:
292,280,102372,1,0,0:0:0:0:
212,192,102509,1,0,0:0:0:0:
168,304,102645,37,2,0:0:0:0:
112,256,102781,2,0,L|104:120,1,132.00000402832
192,240,103054,1,2,0:0:0:0:
208,167,103190,2,0,L|296:68,1,132.00000402832
284,216,103463,1,2,0:0:0:0:
344,168,103600,2,0,L|480:160,1,132.00000402832
392,248,103872,5,0,0:0:0:0:
280,112,104009,1,0,0:0:0:0:
288,328,104145,1,0,0:0:0:0:
344,168,104281,1,0,0:0:0:0:
212,280,104418,1,0,0:0:0:0:
344,256,104554,1,0,0:0:0:0:
272,196,104690,1,0,0:0:0:0:
320,116,104827,5,2,0:0:0:0:
392,192,104963,2,0,P|408:256|400:328,1,132.00000402832
312,184,105236,1,2,0:0:0:0:
296,281,105372,2,0,P|268:328|204:368,1,132.00000402832
240,224,105645,1,2,0:0:0:0:
160,280,105781,2,0,P|91:282|24:268,1,132.00000402832
172,56,106054,5,0,0:0:0:0:
240,224,106190,1,0,0:0:0:0:
56,196,106327,1,0,0:0:0:0:
268,133,106463,1,0,0:0:0:0:
311,319,106600,1,0,0:0:0:0:
324,54,106736,1,0,0:0:0:0:
509,220,106872,1,0,0:0:0:0:
368,139,107009,5,0,0:0:0:0:
417,352,107145,1,0,0:0:0:0:
285,272,107281,1,0,0:0:0:0:
368,139,107418,2,0,P|412:95|416:23,1,132.00000402832
144,245,107690,1,0,0:0:0:0:
144,245,107827,2,0,P|100:289|96:361,1,132.00000402832
376,248,108100,6,0,L|508:208,1,132.00000402832
196,124,108372,6,0,L|64:88,1,132.00000402832
72,272,108645,5,0,0:0:0:0:
40,234,108713,1,0,0:0:0:0:
25,187,108781,1,0,0:0:0:0:
31,138,108850,1,0,0:0:0:0:
56,96,108918,1,0,0:0:0:0:
96,67,108986,1,0,0:0:0:0:
144,57,109054,1,0,0:0:0:0:
192,67,109122,1,0,0:0:0:0:
232,96,109190,5,10,0:0:0:0:
264,200,109327,1,0,0:0:0:0:
164,184,109463,1,0,0:0:0:0:
380,116,109600,5,10,0:0:0:0:
340,272,109736,1,0,0:0:0:0:
220,160,109872,1,0,0:0:0:0:
156,312,110009,5,10,0:0:0:0:
228,88,110145,1,0,0:0:0:0:
256,248,110281,1,0,0:0:0:0:
336,80,110418,5,10,0:0:0:0:
96,224,110554,1,0,0:0:0:0:
296,176,110690,1,0,0:0:0:0:
88,112,110827,5,10,0:0:0:0:
192,312,110963,1,0,0:0:0:0:
152,32,111100,1,10,0:0:0:0:
240,236,111236,1,0,0:0:0:0:
304,72,111372,5,10,0:0:0:0:
64,152,111509,1,0,0:0:0:0:
284,268,111645,1,0,0:0:0:0:
168,44,111781,1,10,0:0:0:0:
152,248,111918,1,0,0:0:0:0:
344,168,112054,1,0,0:0:0:0:
304,344,112190,5,10,0:0:0:0:
260,152,112327,1,0,0:0:0:0:
112,352,112463,1,0,0:0:0:0:
264,262,112600,5,10,0:0:0:0:
133,84,112736,1,0,0:0:0:0:
53,273,112873,1,10,0:0:0:0:
284,72,113009,5,0,0:0:0:0:
224,324,113145,1,10,0:0:0:0:
404,216,113281,1,2,0:0:0:0:
124,172,113418,1,0,0:0:0:0:
340,292,113554,5,2,0:0:0:0:
180,92,113690,1,8,0:0:0:0:
224,240,113827,1,2,0:0:0:0:
372,96,113963,5,2,0:0:0:0:
144,240,114100,1,8,0:0:0:0:
240,100,114236,1,8,0:0:0:0:
192,352,114372,5,2,0:0:0:0:
220,176,114509,1,8,0:0:0:0:
64,256,114645,1,2,0:0:0:0:
320,260,114781,5,2,0:0:0:0:
435,174,114918,1,8,0:0:0:0:
300,112,115054,1,8,0:0:0:0:
396,304,115190,5,2,0:0:0:0:
252,176,115327,1,8,0:0:0:0:
108,304,115463,5,2,0:0:0:0:
316,248,115600,1,8,0:0:0:0:
96,168,115736,5,10,0:0:0:0:
216,336,115872,1,8,0:0:0:0:
332,155,116009,1,8,0:0:0:0:
96,240,116145,5,10,0:0:0:0:
244,76,116281,1,8,0:0:0:0:
320,264,116418,1,8,0:0:0:0:
80,108,116554,5,10,0:0:0:0:
316,192,116690,1,8,0:0:0:0:
120,188,116827,5,4,0:0:0:0:
372,112,116963,1,6,0:0:0:0:
164,264,117100,1,4,0:0:0:0:
308,56,117236,1,4,0:0:0:0:
260,292,117372,1,4,0:0:0:0:
200,56,117509,1,4,0:0:0:0:
340,284,117645,1,4,0:0:0:0:
256,176,117781,6,0,L|255:112,1,60
255,108,117986,1,8,0:0:0:0:
255,96,118054,1,8,0:0:0:0:
255,84,118122,1,8,0:0:0:0:
255,72,118190,1,8,0:0:0:0:
255,12,118463,5,4,2:2:0:0:
256,192,118554,12,0,122281,3:3:0:0:
