osu file format v14

[General]
AudioFilename: audio.mp3
AudioLeadIn: 0
PreviewTime: 82469
Countdown: 0
SampleSet: Soft
StackLeniency: 0.2
Mode: 0
LetterboxInBreaks: 0
WidescreenStoryboard: 1

[Editor]
Bookmarks: 35437,37760,58431
DistanceSpacing: 2.7
BeatDivisor: 16
GridSize: 4
TimelineZoom: 2.2

[Metadata]
Title:Preserved Valkyria
TitleUnicode:Preserved Valkyria
Artist:penoreri
ArtistUnicode:penoreri
Creator:Quite Cynical
Version:VALHALLA
Source:SOUND VOLTEX III GRAVITY WARS
Tags:i think this is from sound voltex shiirn for bn shiirn for bn shiirn for bn shiirn for bn shiirn for bn
BeatmapID:1165258
BeatmapSetID:550153

[Difficulty]
HPDrainRate:5
CircleSize:4
OverallDifficulty:8
ApproachRate:9.8
SliderMultiplier:2.6
SliderTickRate:1

[Events]
//Background and Video events
0,0,"Konachan.com - 164374 animal bird chitose_rin dress fish flowers grass landscape original scenic signed tree wings.jpg",0,0
Video,45500,"thebeststoryboardiveevermade.avi"
//Break Periods
2,59040,82498
//Storyboard Layer 0 (Background)
//Storyboard Layer 1 (Fail)
//Storyboard Layer 2 (Pass)
//Storyboard Layer 3 (Foreground)
//Storyboard Sound Samples

[TimingPoints]
1373,387.096774193548,4,2,0,60,1,0
4469,-200,4,2,0,60,0,0
5824,-100,4,2,0,60,0,0
6792,-200,4,2,0,60,0,0
7179,-100,4,2,0,60,0,0
7566,-100,4,2,0,60,0,0
10663,-76.9230769230769,4,2,0,60,0,0
11050,-83.3333333333333,4,2,0,45,0,0
11437,-90.9090909090909,4,2,0,30,0,0
11824,-100,4,2,0,20,0,0
13760,-83.3333333333333,4,2,0,60,0,0
14534,-200,4,2,0,60,0,0
19179,-117.647058823529,4,2,0,60,0,0
23050,-100,4,2,0,60,0,0
24502,-90.9090909090909,4,2,0,65,0,0
26050,-83.3333333333333,4,2,0,75,0,0
26824,-76.9230769230769,4,2,0,85,0,0
27598,-66.6666666666667,4,2,0,100,0,0
28372,-50,4,2,0,100,0,0
32340,-100,4,2,0,60,0,0
33114,-200,4,2,0,40,0,0
33792,-200,4,2,0,5,0,0
33889,-200,4,2,0,40,0,0
35340,-200,4,2,0,5,0,0
35437,-281,4,2,0,80,0,0
37760,-281,4,2,0,5,0,0
38147,-200,4,3,0,60,0,0
38534,-100,4,3,0,60,0,0
39308,-200,4,3,0,60,0,0
39792,-200,4,3,0,5,0,0
39953,-200,4,3,0,60,0,0
41631,-100,4,3,0,60,0,0
43179,-142.857142857143,4,3,0,60,0,0
43372,-142.857142857143,4,3,0,5,0,0
43469,-142.857142857143,4,3,0,60,0,0
45502,-142.857142857143,4,2,0,20,0,0
46300,-142.857142857143,4,2,0,5,0,0
47098,472.44094488189,4,2,0,60,1,0
48068,272.727272727273,4,2,0,60,1,0
48068,-142.857142857143,4,2,0,60,0,1
48204,-142.857142857143,4,2,0,60,0,0
52431,-142.857142857143,4,2,0,60,0,1
52568,-142.857142857143,4,2,0,60,0,0
54613,-111.111111111111,4,2,0,60,0,0
56795,-111.111111111111,4,2,0,60,0,1

[HitObjects]
228,88,1373,6,0,P|225:183|162:254,1,195
130,266,1760,1,0,0:0:0:0:
82,116,2147,2,0,P|133:79|202:75,1,130
228,88,2438,2,0,P|278:131|342:132,1,130
367,116,2728,1,0,0:0:0:0:
434,261,3115,5,0,0:0:0:0:
300,227,3502,5,0,0:0:0:0:
278,207,3696,1,0,0:0:0:0:
156,260,3986,5,0,0:0:0:0:
60,183,4277,5,0,0:0:0:0:
278,77,4664,1,0,0:0:0:0:
278,109,4760,1,0,0:0:0:0:
278,142,4857,1,0,0:0:0:0:
278,174,4954,1,0,0:0:0:0:
278,207,5051,1,0,0:0:0:0:
278,207,5631,5,0,0:0:0:0:
165,245,5825,2,0,P|114:236|72:73,1,195
163,137,6212,1,0,0:0:0:0:
172,167,6309,1,0,0:0:0:0:
174,199,6406,1,0,0:0:0:0:
166,230,6502,1,0,0:0:0:0:
153,260,6599,1,0,0:0:0:0:
153,292,6696,1,0,0:0:0:0:
165,321,6792,2,0,P|239:367|253:367,1,97.5
368,323,7179,6,0,P|407:232|326:146,1,195,4|0,0:0|0:0,0:0:0:0:
114,110,7566,5,0,0:0:0:0:
151,234,7760,1,0,0:0:0:0:
275,74,7953,2,0,L|247:232,1,130
346,111,8243,5,0,0:0:0:0:
371,136,8340,2,0,L|425:301,1,130
293,193,8631,5,0,0:0:0:0:
262,210,8727,2,0,L|227:351,1,130
141,156,9018,5,0,0:0:0:0:
113,182,9114,2,0,L|129:360,1,130
256,137,9405,5,0,0:0:0:0:
294,115,9502,2,0,P|392:117|448:237,1,195
219,262,9889,1,0,0:0:0:0:
388,46,10082,1,0,0:0:0:0:
378,321,10276,1,0,0:0:0:0:
225,93,10469,1,0,0:0:0:0:
345,165,10663,5,2,0:0:0:0:
352,243,10792,1,0,0:0:0:0:
300,302,10921,1,0,0:0:0:0:
429,234,11050,5,2,0:0:0:0:
400,301,11179,1,0,0:0:0:0:
328,315,11308,1,0,0:0:0:0:
474,294,11437,5,2,0:0:0:0:
432,346,11566,1,0,0:0:0:0:
365,347,11695,1,0,0:0:0:0:
352,243,11824,5,2,0:0:0:0:
313,289,11953,1,0,0:0:0:0:
256,311,12082,1,0,0:0:0:0:
195,308,12211,5,8,0:0:0:0:
137,132,12405,5,0,0:0:0:0:
156,106,12502,1,0,0:0:0:0:
184,90,12598,1,0,0:0:0:0:
215,80,12695,1,0,0:0:0:0:
247,83,12792,1,0,0:0:0:0:
274,100,12889,1,0,0:0:0:0:
301,118,12986,2,0,P|390:116|296:51,1,260
225,181,13760,5,8,0:0:0:0:
411,276,13953,1,0,0:0:0:0:
345,138,14147,1,0,0:0:0:0:
195,309,14340,1,0,0:0:0:0:
121,203,14533,5,0,0:0:0:0:
117,163,14631,1,0,0:0:0:0:
131,126,14727,1,0,0:0:0:0:
155,95,14824,1,0,0:0:0:0:
198,76,14921,1,0,0:0:0:0:
244,74,15018,1,0,0:0:0:0:
287,90,15114,2,0,P|304:103|320:128,1,32.5
387,252,15308,6,0,L|429:267,3,32.5
324,296,15695,2,0,L|330:344,3,32.5
248,302,16082,5,0,0:0:0:0:
215,303,16179,1,0,0:0:0:0:
182,300,16276,1,0,0:0:0:0:
150,291,16372,1,0,0:0:0:0:
116,208,16469,1,0,0:0:0:0:
135,177,16566,1,0,0:0:0:0:
138,138,16663,1,0,0:0:0:0:
126,97,16760,1,0,0:0:0:0:
50,146,16856,5,2,0:0:0:0:
82,191,16953,1,0,0:0:0:0:
132,213,17050,1,0,0:0:0:0:
187,216,17147,1,0,0:0:0:0:
240,205,17243,1,0,0:0:0:0:
295,204,17340,1,0,0:0:0:0:
347,221,17437,1,0,0:0:0:0:
392,252,17534,5,0,0:0:0:0:
391,203,17631,1,0,0:0:0:0:
409,158,17727,1,0,0:0:0:0:
406,109,17824,1,0,0:0:0:0:
374,72,17921,1,0,0:0:0:0:
325,66,18018,1,0,0:0:0:0:
286,95,18114,1,0,0:0:0:0:
273,142,18211,1,0,0:0:0:0:
287,188,18308,1,0,0:0:0:0:
280,239,18405,5,0,0:0:0:0:
249,281,18502,1,0,0:0:0:0:
201,300,18598,1,0,0:0:0:0:
148,301,18695,1,0,0:0:0:0:
101,270,18792,1,0,0:0:0:0:
78,219,18889,1,0,0:0:0:0:
82,164,18985,1,0,0:0:0:0:
116,120,19082,1,0,0:0:0:0:
167,100,19179,2,0,L|228:124,1,55.2500010538101
457,89,19373,2,0,L|396:116,1,55.2500010538101
182,205,19566,2,0,L|246:231,1,55.2500010538101
469,215,19760,2,0,L|389:246,1,55.2500010538101
278,289,19953,5,4,0:0:0:0:
228,301,20017,1,0,0:0:0:0:
179,301,20082,1,0,0:0:0:0:
138,284,20146,1,0,0:0:0:0:
111,253,20211,1,0,0:0:0:0:
106,216,20275,1,0,0:0:0:0:
124,188,20340,1,0,0:0:0:0:
151,177,20404,1,0,0:0:0:0:
174,188,20469,1,0,0:0:0:0:
182,205,20534,1,0,0:0:0:0:
176,222,20599,1,0,0:0:0:0:
163,230,20663,1,0,0:0:0:0:
152,233,20728,1,0,0:0:0:0:
330,82,20921,5,0,0:0:0:0:
451,271,21114,1,0,0:0:0:0:
259,213,21308,2,0,P|230:184|222:132,1,55.2500010538101
253,96,21502,2,0,P|188:100|144:186,1,165.75000316143,4|0,0:0|0:0,0:0:0:0:
198,238,21888,2,0,B|269:269|295:189|381:218,1,165.75000316143
461,267,22276,1,0,0:0:0:0:
340,311,22469,6,0,L|340:358,1,27.6250005269051,4|0,0:0|0:0,0:0:0:0:
221,265,22760,2,0,L|221:303,1,27.6250005269051,4|0,0:0|0:0,0:0:0:0:
112,74,23050,5,0,0:0:0:0:
141,87,23147,1,0,0:0:0:0:
170,100,23243,1,0,0:0:0:0:
199,113,23340,1,0,0:0:0:0:
199,113,23534,1,0,0:0:0:0:
360,193,23727,5,0,0:0:0:0:
337,216,23824,1,0,0:0:0:0:
225,215,24018,1,0,0:0:0:0:
201,237,24115,1,0,0:0:0:0:
72,182,24308,1,0,0:0:0:0:
304,123,24502,5,4,0:0:0:0:
390,229,24695,1,0,0:0:0:0:
374,260,24792,1,0,0:0:0:0:
360,293,24889,1,0,0:0:0:0:
122,262,25082,5,0,0:0:0:0:
221,178,25276,1,0,0:0:0:0:
240,207,25372,1,0,0:0:0:0:
325,97,25566,1,0,0:0:0:0:
343,127,25663,1,0,0:0:0:0:
127,87,25856,5,0,0:0:0:0:
204,209,26050,1,4,0:0:0:0:
185,243,26147,1,0,0:0:0:0:
166,277,26243,1,0,0:0:0:0:
147,311,26340,1,0,0:0:0:0:
129,345,26437,1,0,0:0:0:0:
62,212,26631,5,0,0:0:0:0:
236,114,26824,1,0,0:0:0:0:
258,149,26921,1,0,0:0:0:0:
425,228,27114,1,0,0:0:0:0:
395,258,27211,1,0,0:0:0:0:
191,305,27405,1,0,0:0:0:0:
140,98,27598,5,4,0:0:0:0:
342,182,27793,1,0,0:0:0:0:
316,226,27889,1,0,0:0:0:0:
288,269,27985,1,0,0:0:0:0:
279,25,28179,5,0,0:0:0:0:
425,100,28372,5,0,0:0:0:0:
386,175,28469,1,4,0:0:0:0:
316,226,28598,1,4,0:0:0:0:
252,253,28727,1,4,0:0:0:0:
200,251,28856,1,4,0:0:0:0:
168,236,28985,1,4,0:0:0:0:
156,222,29114,1,4,0:0:0:0:
256,192,29243,12,0,32340,0:0:0:0:
325,248,33114,6,0,P|338:161|305:192,1,227.5,4|0,0:0|0:0,0:0:0:0:
252,231,33889,2,0,B|236:246|221:254|207:255|192:254|181:249|171:242|163:236|158:226|154:219|153:212|152:204|152:189|153:184|158:173|167:160|167:160|183:144|183:144|193:133|203:116|207:94|203:76|194:61|177:46|155:41|134:43|129:63|106:65|99:80|96:98|102:121|113:137|129:148|146:152|164:151|185:140,1,487.5,4|0,0:0|0:0,0:0:0:0:
276,106,35437,6,0,P|388:86|272:306,1,552.5,4|0,0:0|0:0,0:0:0:0:
283,313,38147,6,0,P|292:264|341:216,1,108.333333333333,8|0,0:0|0:0,0:0:0:0:
354,203,38534,1,0,0:0:0:0:
379,187,38598,1,0,0:0:0:0:
398,163,38663,1,0,0:0:0:0:
408,134,38727,1,0,0:0:0:0:
408,103,38792,1,0,0:0:0:0:
398,74,38856,1,0,0:0:0:0:
375,53,38921,1,0,0:0:0:0:
347,41,38985,1,0,0:0:0:0:
316,40,39050,1,0,0:0:0:0:
289,53,39114,1,0,0:0:0:0:
270,75,39179,1,0,0:0:0:0:
258,103,39243,1,0,0:0:0:0:
258,133,39308,6,0,P|176:180|124:147,1,162.5
175,79,39953,5,0,0:0:0:0:
185,90,40018,1,0,0:0:0:0:
189,103,40082,1,8,0:0:0:0:
296,266,40857,6,0,B|354:257|392:310,2,97.5
114,290,41631,1,0,0:0:0:0:
239,164,41825,1,0,0:0:0:0:
283,151,41922,1,0,0:0:0:0:
327,164,42018,1,0,0:0:0:0:
353,202,42115,1,8,0:0:0:0:
104,120,42308,5,0,0:0:0:0:
81,80,42405,1,2,0:0:0:0:
260,111,42599,1,0,0:0:0:0:
283,151,42696,1,8,0:0:0:0:
155,344,42889,5,0,0:0:0:0:
110,347,42985,1,8,0:0:0:0:
67,330,43082,1,0,0:0:0:0:
43,291,43179,2,0,P|39:235|65:193,1,90.9999972229005
124,133,43469,1,8,0:0:0:0:
372,40,43760,1,8,0:0:0:0:
330,308,44050,1,8,0:0:0:0:
235,194,44340,1,4,0:0:0:0:
238,148,44437,1,4,0:0:0:0:
283,138,44534,1,4,0:0:0:0:
306,177,44631,1,4,0:0:0:0:
276,211,44727,1,4,0:0:0:0:
441,296,45502,5,0,0:0:0:0:
358,258,45695,1,0,0:0:0:0:
268,276,45889,1,0,0:0:0:0:
185,238,46082,1,0,0:0:0:0:
95,254,46275,2,0,L|82:244,3,11.3749996528626
221,32,47098,5,0,0:0:0:0:
247,42,47570,1,0,0:0:0:0:
427,291,48068,5,4,0:0:0:0:
340,319,48204,1,0,0:0:0:0:
254,287,48340,1,0,0:0:0:0:
213,205,48477,1,0,0:0:0:0:
353,146,48613,2,0,P|331:202|283:248,1,90.9999972229005
145,94,48886,5,0,0:0:0:0:
230,63,49022,1,0,0:0:0:0:
155,276,49158,1,0,0:0:0:0:
67,301,49295,1,0,0:0:0:0:
0,239,49431,2,0,P|13:178|45:149,1,90.9999972229005
314,28,49704,5,0,0:0:0:0:
314,28,49840,1,0,0:0:0:0:
269,139,49977,5,0,0:0:0:0:
269,139,50113,1,0,0:0:0:0:
83,225,50249,5,0,0:0:0:0:
155,276,50386,1,0,0:0:0:0:
245,279,50522,1,0,0:0:0:0:
317,225,50658,1,0,0:0:0:0:
178,96,50795,2,0,P|170:143|185:195,1,90.9999972229005
330,312,51068,5,0,0:0:0:0:
402,256,51204,1,0,0:0:0:0:
324,63,51340,1,2,0:0:0:0:
269,139,51477,1,0,0:0:0:0:
416,106,51613,2,0,P|428:55|415:6,1,90.9999972229005
225,54,51886,5,0,0:0:0:0:
225,54,52022,1,0,0:0:0:0:
312,220,52158,1,0,0:0:0:0:
312,220,52295,1,0,0:0:0:0:
451,227,52431,5,6,0:0:0:0:
410,144,52567,1,0,0:0:0:0:
324,112,52704,1,0,0:0:0:0:
238,143,52840,1,0,0:0:0:0:
305,306,52977,2,0,P|374:281|393:251,1,90.9999972229005
324,112,53249,5,0,0:0:0:0:
254,52,53386,1,0,0:0:0:0:
168,82,53522,1,0,0:0:0:0:
152,171,53658,1,0,0:0:0:0:
348,277,53795,2,0,P|343:231|245:236,1,90.9999972229005
92,240,54068,5,4,0:0:0:0:
140,347,54204,1,0,0:0:0:0:
235,174,54340,1,0,0:0:0:0:
250,361,54477,1,0,0:0:0:0:
129,138,54613,6,0,P|190:74|248:63,1,116.999996429443,4|0,0:0|0:0,0:0:0:0:
416,145,54886,1,0,0:0:0:0:
242,265,55022,1,0,0:0:0:0:
373,107,55158,2,0,P|415:143|397:238,1,116.999996429443
307,331,55431,1,0,0:0:0:0:
179,205,55568,1,0,0:0:0:0:
300,79,55704,5,4,0:0:0:0:
250,285,55840,1,0,0:0:0:0:
428,62,55977,1,4,0:0:0:0:
333,248,56113,1,0,0:0:0:0:
151,112,56249,1,0,0:0:0:0:
114,130,56318,1,0,0:0:0:0:
90,163,56386,1,0,0:0:0:0:
80,202,56454,1,0,0:0:0:0:
87,242,56522,1,0,0:0:0:0:
109,276,56590,1,0,0:0:0:0:
142,299,56658,1,0,0:0:0:0:
182,306,56727,1,0,0:0:0:0:
222,304,56795,6,0,B|278:287|278:287|326:253,1,116.999996429443
414,100,57068,1,0,0:0:0:0:
206,198,57204,2,0,P|233:251|302:298,1,116.999996429443
271,71,57477,1,0,0:0:0:0:
113,147,57613,2,0,P|102:208|146:283,1,116.999996429443
313,193,57886,1,0,0:0:0:0:
403,66,58022,2,0,B|373:159|373:159|301:220,1,116.999996429443
193,109,58295,1,0,0:0:0:0:
101,299,58431,6,0,P|48:268|22:166,1,116.999996429443
304,160,58704,2,0,P|352:188|367:294,1,116.999996429443
40,64,82977,6,0,L|176:64,1,116.999996429443
101,64,82994,2,0,P|99:184|19:164,1,233.999992858887
209,120,83011,2,0,B|323:121|323:121|321:111|257:-57|209:121|210:121|210:121|208:216|274:245|330:186|325:184,1,482.624985271454
391,51,83028,2,0,B|397:217|397:217|508:234|489:120|398:126|398:126|494:103|479:27|388:25,1,555.749983039856
41,196,83795,2,0,B|96:36|96:36|147:201|147:201|127:134|127:134|58:135,1,467.999985717774
254,32,83812,2,0,L|255:204,1,160.874995090485
348,28,83829,2,0,B|487:28|487:28|416:28|416:28|414:206,1,380.249988395691
90,40,84357,2,0,B|85:337|85:337|268:335|267:337|267:337|85:336|85:336|89:190|89:190|191:190|191:190|89:191|90:192|90:41|90:41|274:43,1,1316.24995983124
356,44,84374,2,0,B|356:343|356:343|542:257|535:97|355:40,1,731.249977684022
