osu file format v14

[General]
AudioFilename: Preserved Valkyria.mp3
AudioLeadIn: 0
PreviewTime: 48061
Countdown: 0
SampleSet: Normal
StackLeniency: 0.2
Mode: 0
LetterboxInBreaks: 1
WidescreenStoryboard: 1

[Editor]
Bookmarks: 38155
DistanceSpacing: 0.5
BeatDivisor: 4
GridSize: 4
TimelineZoom: 1.9

[Metadata]
Title:Preserved Valkyria
TitleUnicode:Preserved Valkyria
Artist:penoreri
ArtistUnicode:ぺのれり
Creator:NerO
Version:ShapYnsane
Source:SOUND VOLTEX III GRAVITY WARS
Tags:sdvx musty shapy patchoulidesu
BeatmapID:783861
BeatmapSetID:349828

[Difficulty]
HPDrainRate:6
CircleSize:4
OverallDifficulty:7.5
ApproachRate:9.2
SliderMultiplier:1.8
SliderTickRate:1

[Events]
//Background and Video events
0,0,"bgPV.png",0,0
//Break Periods
2,29335,32565
//Storyboard Layer 0 (Background)
//Storyboard Layer 1 (Fail)
//Storyboard Layer 2 (Pass)
//Storyboard Layer 3 (Foreground)
//Storyboard Sound Samples

[TimingPoints]
1394,387.096774193548,4,1,0,100,1,0
1394,-142.857142857143,4,1,4,55,0,0
7587,-125,4,1,4,55,0,0
13781,-111.111111111111,4,2,1,55,0,0
19974,-100,4,2,1,50,0,0
23071,-100,4,1,1,50,0,0
24523,-100,4,1,1,60,0,0
26168,-100,4,1,1,70,0,0
33135,-142.857142857143,4,1,4,55,0,0
38168,-142.857142857143,4,3,0,55,0,0
38555,-200,4,1,0,60,0,0
39329,-200,4,1,4,60,0,0
41652,-100,4,1,1,65,0,0
45523,-142.857142857143,4,1,1,35,0,0
46297,400,4,1,0,100,1,0
46297,-142.857142857143,4,1,1,35,0,0
46697,413.793103448276,4,1,0,5,1,0
47110,461.538461538462,4,1,0,35,1,0
47110,-100,4,1,1,35,0,0
47571,521.739130434783,4,1,0,35,1,0
47571,-100,4,1,1,35,0,0
48092,272.727272727273,4,1,0,35,1,0
48092,-100,4,1,1,65,0,0
48228,-100,4,2,1,65,0,0
52455,-100,4,2,2,65,0,0
52728,-100,4,2,1,65,0,0
56819,-100,4,2,2,70,0,0
57092,-100,4,2,1,70,0,0
60637,-125,4,2,1,70,0,0
60910,-100,4,2,1,70,0,0
61182,-100,4,2,2,70,0,0
61319,-100,4,2,1,70,0,0
62819,-125,4,2,1,70,0,0
63092,-100,4,2,1,70,0,0
63364,-100,4,2,2,70,0,0
63501,-100,4,2,1,70,0,0
65273,-153.846153846154,4,2,1,70,0,0
65546,-153.846153846154,4,1,1,50,0,0
67728,-200,4,1,1,50,0,0
69910,-153.846153846154,4,1,1,50,0,0
71546,-153.846153846154,4,1,1,35,0,0
80819,-100,4,2,1,70,0,0
83001,-100,4,2,4,70,0,1
83273,-100,4,2,1,70,0,1
85182,-100,4,2,2,70,0,1
85455,-100,4,2,1,70,0,1
96501,-100,4,2,4,70,0,1
96910,-100,4,2,1,70,0,1
97592,-100,4,2,4,70,0,1
98001,-100,4,2,1,70,0,1
100455,-100,4,2,2,70,0,0
100728,-100,4,2,1,70,0,0
104819,-100,4,2,2,70,0,0
105092,-100,4,2,1,70,0,0
109182,-100,4,2,2,70,0,0
109455,-100,4,2,1,70,0,0
111364,-100,4,2,2,70,0,0
111637,-100,4,2,1,70,0,0
113546,-100,4,2,2,70,0,0
113819,-100,4,2,1,70,0,0
118455,-100,4,2,2,50,0,0
118523,-100,4,2,2,25,0,0
122273,-100,4,1,0,5,0,0

[HitObjects]
396,76,1394,6,0,P|332:63|267:80,1,125.999996154785,4|4,0:0|0:0,0:0:0:0:
333,188,2168,1,0,0:0:0:0:
333,188,2458,2,0,L|352:288,1,94.499997116089
240,344,3135,1,0,0:0:0:0:
240,344,3523,2,0,L|164:340,1,62.9999980773926
120,264,4006,1,0,0:0:0:0:
120,264,4297,1,0,0:0:0:0:
132,140,4684,5,0,0:0:0:0:
152,116,4781,1,0,0:0:0:0:
180,100,4877,1,0,0:0:0:0:
212,92,4974,1,0,0:0:0:0:
244,92,5071,1,0,0:0:0:0:
341,189,5458,5,0,0:0:0:0:
341,189,5652,2,0,P|372:200|404:224,1,62.9999980773926
376,320,6039,1,0,0:0:0:0:
354,343,6135,1,0,0:0:0:0:
322,351,6232,1,0,0:0:0:0:
290,351,6329,1,0,0:0:0:0:
258,347,6426,1,0,0:0:0:0:
230,331,6523,1,0,0:0:0:0:
206,311,6619,1,0,0:0:0:0:
190,283,6716,1,0,0:0:0:0:
182,251,6813,6,0,P|118:243|51:260,1,125.999996154785
264,52,7587,5,4,0:0:0:0:
264,52,7781,2,0,L|308:44,2,36
177,138,8168,2,0,L|133:130,2,36
290,185,8555,2,0,L|334:177,2,36
200,256,8942,5,0,0:0:0:0:
184,248,9039,1,0,0:0:0:0:
168,240,9135,1,0,0:0:0:0:
288,304,9329,1,0,0:0:0:0:
304,296,9426,1,0,0:0:0:0:
320,288,9522,1,0,0:0:0:0:
192,352,9716,1,0,0:0:0:0:
176,344,9813,1,0,0:0:0:0:
160,336,9909,1,0,0:0:0:0:
68,244,10103,5,0,0:0:0:0:
92,152,10297,1,0,0:0:0:0:
160,88,10490,1,0,0:0:0:0:
226,154,10684,6,0,L|262:198,2,48
360,200,11071,2,0,L|329:162,2,48
356,72,11458,2,0,L|392:116,2,48
492,132,11845,2,0,L|461:94,2,48
476,216,12232,6,0,P|468:252|442:292,1,72
408,292,12523,1,0,0:0:0:0:
372,292,12619,1,0,0:0:0:0:
336,288,12716,1,0,0:0:0:0:
300,276,12813,1,0,0:0:0:0:
268,260,12910,1,0,0:0:0:0:
236,240,13006,1,0,0:0:0:0:
124,332,13393,5,0,0:0:0:0:
124,332,13781,2,0,P|108:296|108:248,1,80.9999975280763,4|0,0:0|0:0,0:0:0:0:
172,172,14168,2,0,P|136:152|89:153,1,80.9999975280763,8|0,0:0|0:0,0:0:0:0:
26,71,14555,1,0,0:0:0:0:
128,46,14748,1,0,0:0:0:0:
147,50,14845,1,0,0:0:0:0:
166,55,14942,1,8,0:0:0:0:
185,60,15039,1,0,0:0:0:0:
203,66,15135,1,0,0:0:0:0:
221,73,15232,1,0,0:0:0:0:
239,81,15329,6,0,L|257:134,7,40.4999987640381,0|0|0|0|8|0|0|0,0:0|0:0|0:0|0:0|0:0|0:0|0:0|0:0,0:0:0:0:
252,140,16103,1,0,0:0:0:0:
246,159,16200,1,0,0:0:0:0:
238,177,16297,1,0,0:0:0:0:
231,195,16393,1,0,0:0:0:0:
223,213,16490,1,8,0:0:0:0:
215,231,16587,1,0,0:0:0:0:
206,249,16684,1,0,0:0:0:0:
199,268,16781,1,0,0:0:0:0:
192,288,16877,6,0,L|143:293,7,40.4999987640381,0|0|0|0|8|0|0|0,0:0|0:0|0:0|0:0|0:0|0:0|0:0|0:0,0:0:0:0:
132,284,17652,1,0,0:0:0:0:
117,270,17748,1,0,0:0:0:0:
102,255,17845,1,0,0:0:0:0:
89,239,17942,1,0,0:0:0:0:
78,221,18039,1,8,0:0:0:0:
69,203,18135,1,0,0:0:0:0:
63,183,18232,1,0,0:0:0:0:
59,163,18329,1,0,0:0:0:0:
55,143,18426,6,0,L|92:125,7,40.4999987640381,0|0|0|0|8|0|0|0,0:0|0:0|0:0|0:0|0:0|0:0|0:0|0:0,0:0:0:0:
100,80,19200,6,0,L|139:62,3,40.4999987640381,8|0|0|0,0:0|0:0|0:0|0:0,0:0:0:0:
172,88,19587,2,0,L|211:70,3,40.4999987640381,8|0|0|0,0:0|0:0|0:0|0:0,0:0:0:0:
256,88,19974,6,0,P|306:161|298:252,1,180,12|8,0:0|0:0,0:0:0:0:
168,216,20555,1,0,0:0:0:0:
43,142,20748,2,0,P|40:189|52:243,1,90
160,306,21135,1,8,0:0:0:0:
30,345,21329,1,0,0:0:0:0:
160,306,21523,6,0,P|205:316|252:344,1,90,4|0,0:0|0:0,0:0:0:0:
378,337,21910,2,0,P|417:315|461:306,1,90,8|0,0:0|0:0,0:0:0:0:
476,172,22297,1,0,0:0:0:0:
476,172,22490,2,0,L|388:132,1,90,8|8,0:0|0:0,0:0:0:0:
352,120,22781,2,0,P|336:164|337:216,1,90,0|8,0:0|0:0,0:0:0:0:
335,251,23071,5,0,0:0:0:0:
335,251,23168,1,0,0:0:0:0:
335,251,23264,1,0,0:0:0:0:
335,251,23361,2,0,P|291:259|239:239,1,90
172,132,23748,5,0,0:0:0:0:
172,132,23845,2,0,P|124:130|77:139,1,90
41,159,24135,2,0,P|45:207|61:247,1,90
156,341,24523,2,0,P|200:336|254:343,1,90
284,360,24813,1,0,0:0:0:0:
284,360,24910,2,0,P|292:316|284:256,1,90
172,132,25297,5,0,0:0:0:0:
172,132,25393,2,0,P|164:87|170:43,1,90
208,20,25684,2,0,P|256:16|312:32,1,90
384,128,26071,5,0,0:0:0:0:
384,128,26168,1,0,0:0:0:0:
384,128,26264,1,0,0:0:0:0:
384,128,26361,1,0,0:0:0:0:
384,128,26458,2,0,L|368:220,1,90
272,312,26845,5,0,0:0:0:0:
272,312,26942,2,0,P|224:320|183:309,1,90
144,292,27232,2,0,P|139:248|160:200,1,90
59,110,27619,5,0,0:0:0:0:
59,110,27716,2,0,P|76:112|105:109,1,45
152,48,27910,2,0,P|174:45|196:47,1,45
294,140,28200,6,0,P|336:128|395:128,1,90
416,156,28490,1,0,0:0:0:0:
416,156,28619,2,0,L|424:216,2,60
364,276,29006,1,0,0:0:0:0:
364,276,29135,1,0,0:0:0:0:
400,72,33135,6,0,B|374:63|374:63|324:84|280:49|280:49|234:86|186:65|186:65|149:86,2,251.999992309571
165,76,35458,5,0,0:0:0:0:
256,192,35555,12,6,38168,0:0:0:0:
96,84,38555,6,0,L|88:64,10,15
96,84,39329,6,0,L|120:180,1,90,4|0,0:0|0:0,0:0:0:0:
204,236,39910,1,0,0:0:0:0:
204,236,40006,1,0,0:0:0:0:
204,236,40103,2,0,P|300:236|356:181,1,180
255,139,41168,1,0,0:0:0:0:
332,324,41458,5,0,0:0:0:0:
332,324,41652,2,0,L|232:336,1,90
128,281,42039,1,0,0:0:0:0:
128,281,42135,2,0,P|92:252|64:208,1,90
44,176,42426,2,0,P|84:148|132:144,1,90
168,148,42716,2,0,P|164:104|144:60,1,90
104,48,43006,1,0,0:0:0:0:
288,48,43200,6,0,P|336:52|384:68,1,90
396,104,43490,2,0,L|384:200,1,90
348,224,43781,1,0,0:0:0:0:
168,148,43974,5,0,0:0:0:0:
44,176,44168,2,0,L|64:268,1,90
88,300,44458,2,0,P|132:300|178:281,1,90
409,209,45523,6,0,L|341:225,1,62.9999980773926
264,180,45910,1,0,0:0:0:0:
180,136,46103,1,0,0:0:0:0:
138,54,46297,2,0,P|96:104|94:165,1,125.999996154785,2|0,0:0|0:0,0:0:0:0:
93,275,47110,5,0,0:0:0:0:
113,303,47571,5,0,0:0:0:0:
137,327,48092,5,2,0:0:0:0:
137,327,48228,2,0,P|181:335|228:324,2,90
144,169,48637,2,0,P|187:159|231:167,2,90,8|0|0,0:0|0:0|0:0,0:0:0:0:
48,84,49046,1,0,0:0:0:0:
48,84,49182,2,0,P|36:128|36:184,2,90
168,44,49592,1,0,0:0:0:0:
292,60,49728,2,0,L|316:152,1,90,8|0,0:0|0:0,0:0:0:0:
447,204,50001,2,0,L|424:116,1,90
392,308,50273,5,0,0:0:0:0:
272,272,50410,2,0,P|244:236|228:192,1,90
140,104,50682,2,0,P|112:139|96:181,1,90,0|8,0:0|0:0,0:0:0:0:
148,296,50955,1,0,0:0:0:0:
148,296,51092,1,0,0:0:0:0:
272,272,51228,6,0,P|316:256|352:228,1,90
364,104,51501,1,0,0:0:0:0:
447,204,51637,2,0,P|451:252|435:308,2,90,0|0|8,0:0|0:0|0:0,0:0:0:0:
364,104,52046,2,0,L|268:92,1,90,0|8,0:0|0:0,0:0:0:0:
140,104,52319,1,0,0:0:0:0:
48,192,52455,6,0,P|47:239|63:285,1,90,4|0,0:0|0:0,0:0:0:0:
167,222,52728,1,0,0:0:0:0:
244,320,52864,1,0,0:0:0:0:
268,196,53001,2,0,P|264:148|244:104,1,90,8|0,0:0|0:0,0:0:0:0:
140,104,53273,1,0,0:0:0:0:
228,28,53410,1,0,0:0:0:0:
228,28,53546,2,0,P|272:28|324:40,1,90
428,104,53819,6,0,P|424:152|408:200,1,90
268,196,54092,2,0,P|255:152|251:108,1,90,8|0,0:0|0:0,0:0:0:0:
428,104,54364,2,0,P|424:152|408:200,1,90,8|0,0:0|0:0,0:0:0:0:
340,296,54637,5,8,0:0:0:0:
225,347,54773,1,0,0:0:0:0:
112,288,54910,1,0,0:0:0:0:
112,288,55046,2,0,P|112:244|124:200,1,90,0|8,0:0|0:0,0:0:0:0:
44,104,55319,1,0,0:0:0:0:
44,104,55455,2,0,P|84:88|136:88,1,90
268,196,55728,5,8,0:0:0:0:
268,196,55796,1,0,0:0:0:0:
268,196,55864,2,0,L|320:196,5,45,0|0|8|0|0|0,0:0|0:0|0:0|0:0|0:0|0:0,0:0:0:0:
340,160,56273,2,8,L|392:160,7,45,8|0|0|0|8|0|0|0,0:0|0:0|0:0|0:0|0:0|0:0|0:0|0:0,0:0:0:0:
424,180,56819,6,0,P|428:272|358:312,1,180,4|8,0:0|0:0,0:0:0:0:
228,288,57228,1,0,0:0:0:0:
92,276,57364,2,0,P|80:232|80:180,1,90
196,120,57637,1,8,0:0:0:0:
52,56,57773,1,0,0:0:0:0:
184,20,57910,1,0,0:0:0:0:
184,20,58046,6,0,P|268:39|306:126,1,180,8|0,0:0|0:0,0:0:0:0:
210,214,58455,2,0,P|247:292|332:307,1,180,8|8,0:0|0:0,0:0:0:0:
305,214,58864,1,0,0:0:0:0:
305,214,59001,5,8,0:0:0:0:
436,184,59137,1,0,0:0:0:0:
436,184,59273,2,0,P|448:228|445:279,2,90,0|0|8,0:0|0:0|0:0,0:0:0:0:
306,118,59682,1,0,0:0:0:0:
210,214,59819,2,0,P|164:219|120:209,1,90
40,100,60092,2,0,L|22:200,1,90,8|0,0:0|0:0,0:0:0:0:
172,132,60364,2,0,L|187:43,1,90
340,32,60637,6,0,P|376:68|397:126,1,108,8|0,0:0|0:0,0:0:0:0:
404,164,60910,2,0,P|480:160|507:102,1,135,8|0,0:0|0:0,0:0:0:0:
492,72,61182,1,4,0:0:0:0:
472,268,61319,6,0,L|408:336,1,90,0|8,0:0|0:0,0:0:0:0:
274,333,61592,2,0,L|212:267,1,90
81,235,61864,1,0,0:0:0:0:
172,132,62001,1,8,0:0:0:0:
40,100,62137,1,0,0:0:0:0:
81,235,62273,2,0,P|76:280|52:324,1,90
187,351,62546,2,0,P|207:311|212:266,1,90,8|0,0:0|0:0,0:0:0:0:
328,176,62819,6,0,B|328:120|295:85|295:85|271:92,1,108,8|0,0:0|0:0,0:0:0:0:
244,108,63092,2,0,P|176:104|121:61,1,135,8|0,0:0|0:0,0:0:0:0:
104,24,63364,1,4,0:0:0:0:
32,176,63501,5,0,0:0:0:0:
32,176,63569,1,0,0:0:0:0:
32,176,63637,2,0,P|36:224|52:272,1,90,8|0,0:0|0:0,0:0:0:0:
187,351,63910,5,0,0:0:0:0:
187,351,63978,1,0,0:0:0:0:
187,350,64046,2,0,P|183:305|170:262,1,90,0|8,0:0|0:0,0:0:0:0:
292,208,64319,1,0,0:0:0:0:
459,143,64455,1,8,0:0:0:0:
360,288,64592,1,0,0:0:0:0:
352,116,64728,1,8,0:0:0:0:
468,252,64864,1,0,0:0:0:0:
352,116,65001,6,0,P|312:96|256:88,1,90,8|0,0:0|0:0,0:0:0:0:
168,156,65273,1,8,0:0:0:0:
136,156,65342,1,0,0:0:0:0:
108,140,65410,1,0,0:0:0:0:
84,120,65478,1,0,0:0:0:0:
66,94,65546,6,0,P|41:163|88:256,1,175.499991966248,2|4,0:0|0:0,0:0:0:0:
352,116,66364,6,0,P|392:36|472:116,1,233.999989288331,4|4,0:0|0:0,0:0:0:0:
476,204,67182,1,0,0:0:0:0:
385,261,67455,1,0,0:0:0:0:
284,224,67728,2,0,P|174:215|248:128,1,270,4|4,0:0|0:0,0:0:0:0:
241,126,68682,1,0,0:0:0:0:
446,57,69501,5,0,0:0:0:0:
446,57,69637,1,0,0:0:0:0:
446,57,69773,1,0,0:0:0:0:
332,48,69910,6,0,P|302:44|267:49,1,58.4999973220826,4|0,0:0|0:0,0:0:0:0:
182,125,70182,2,0,P|211:128|241:125,1,58.4999973220826
340,200,70455,2,0,P|310:202|281:199,1,58.4999973220826
200,276,70728,2,0,P|228:279|258:276,1,58.4999973220826
348,340,71001,1,0,0:0:0:0:
440,276,71137,2,0,L|440:208,1,58.4999973220826
336,44,71546,5,4,0:0:0:0:
348,68,71819,1,0,0:0:0:0:
360,92,72092,2,0,P|412:62|474:70,1,116.999994644165
429,145,72501,1,0,0:0:0:0:
472,228,72773,1,0,0:0:0:0:
436,316,73046,1,0,0:0:0:0:
348,340,73182,6,0,P|316:344|280:328,1,58.4999973220826
232,268,73455,1,0,0:0:0:0:
182,125,73728,5,0,0:0:0:0:
160,112,74001,1,0,0:0:0:0:
140,100,74273,2,0,P|113:239|242:262,1,292.499986610413,4|0,0:0|0:0,0:0:0:0:
190,181,75092,1,0,0:0:0:0:
260,128,75228,1,0,0:0:0:0:
260,128,75364,6,0,P|316:124|376:136,1,116.999994644165,4|0,0:0|0:0,0:0:0:0:
424,212,75773,2,0,P|426:279|397:325,1,116.999994644165
335,249,76182,1,0,0:0:0:0:
184,336,76455,6,0,L|48:320,1,116.999994644165,4|0,0:0|0:0,0:0:0:0:
40,240,76864,1,0,0:0:0:0:
116,80,77137,1,0,0:0:0:0:
196,44,77273,2,0,P|224:44|268:56,1,58.4999973220826
324,104,77546,2,0,P|328:168|302:214,1,116.999994644165,4|0,0:0|0:0,0:0:0:0:
244,144,77955,5,0,0:0:0:0:
172,192,78092,2,0,P|172:224|184:256,1,58.4999973220826
294,269,78364,2,0,P|302:241|302:212,1,58.4999973220826
244,144,78637,2,0,P|136:92|39:139,1,233.999989288331,4|0,0:0|0:0,0:0:0:0:
60,312,79455,5,0,0:0:0:0:
60,312,79592,2,0,B|120:340|156:300|200:340|200:340|245:302|268:332|344:312,1,292.499986610413,4|0,0:0|0:0,0:0:0:0:
396,248,80410,1,0,0:0:0:0:
396,248,80546,2,0,L|388:176,1,58.4999973220826
312,80,80819,6,0,L|216:88,1,90,8|0,0:0|0:0,0:0:0:0:
140,192,81092,1,8,0:0:0:0:
328,80,81228,6,0,L|232:88,1,90,0|8,0:0|0:0,0:0:0:0:
156,192,81501,1,0,0:0:0:0:
348,80,81637,6,0,L|252:88,1,90
176,192,81910,1,8,0:0:0:0:
80,124,82046,5,0,0:0:0:0:
132,296,82182,1,8,0:0:0:0:
36,112,82319,1,0,0:0:0:0:
96,328,82455,1,0,0:0:0:0:
348,80,82728,1,0,0:0:0:0:
348,80,83001,6,0,P|392:164|363:246,1,180,4|8,0:0|0:0,0:0:0:0:
284,170,83410,2,0,P|376:156|460:174,1,180
424,304,83819,2,0,L|325:324,1,90,8|0,0:0|0:0,0:0:0:0:
204,288,84092,1,0,0:0:0:0:
72,312,84228,1,0,0:0:0:0:
204,288,84364,6,0,P|212:244|208:192,1,90,8|0,0:0|0:0,0:0:0:0:
72,196,84637,1,0,0:0:0:0:
180,52,84773,1,0,0:0:0:0:
296,192,84910,1,8,0:0:0:0:
408,52,85046,1,0,0:0:0:0:
412,196,85182,6,0,P|416:264|323:298,1,180,4|8,0:0|0:0,0:0:0:0:
204,208,85592,1,0,0:0:0:0:
112,98,85728,2,0,P|68:106|20:136,2,90,0|0|8,0:0|0:0|0:0,0:0:0:0:
264,148,86137,1,0,0:0:0:0:
376,40,86273,6,0,P|416:64|448:104,1,90
419,240,86546,1,8,0:0:0:0:
204,208,86682,1,0,0:0:0:0:
392,284,86819,1,0,0:0:0:0:
232,160,86955,1,0,0:0:0:0:
276,316,87092,6,0,L|312:224,1,90,8|0,0:0|0:0,0:0:0:0:
264,76,87364,2,0,L|231:159,1,90
104,204,87637,1,8,0:0:0:0:
104,204,87773,2,0,P|80:244|73:290,2,90
276,316,88182,1,8,0:0:0:0:
276,316,88319,2,0,P|267:272|245:233,2,90
408,192,88728,6,0,B|368:148|364:112|364:112|320:128|275:98,2,180,8|0|8,0:0|0:0|0:0,0:0:0:0:
276,316,89546,2,0,P|192:336|88:308,1,180,0|8,0:0|0:0,0:0:0:0:
104,204,89955,2,0,P|84:164|80:104,1,90
188,48,90228,1,0,0:0:0:0:
224,48,90296,1,0,0:0:0:0:
260,52,90364,1,8,0:0:0:0:
296,60,90432,1,0,0:0:0:0:
332,72,90501,1,0,0:0:0:0:
364,88,90569,1,0,0:0:0:0:
396,104,90637,6,0,P|420:200|395:275,1,180,8|0,0:0|0:0,0:0:0:0:
284,356,91046,2,0,L|268:312,4,45,0|0|8|0|0,0:0|0:0|0:0|0:0|0:0,0:0:0:0:
256,284,91387,1,0,0:0:0:0:
240,256,91455,1,8,0:0:0:0:
216,228,91523,1,0,0:0:0:0:
184,212,91592,1,0,0:0:0:0:
148,208,91660,1,0,0:0:0:0:
112,208,91728,6,0,P|81:121|122:46,1,180,8|0,0:0|0:0,0:0:0:0:
204,136,92137,1,0,0:0:0:0:
296,105,92273,2,0,P|301:137|324:169,2,60,8|0|0,0:0|0:0|0:0,0:0:0:0:
396,104,92546,2,0,P|410:78|415:48,2,60,8|0|0,0:0|0:0|0:0,0:0:0:0:
438,191,92819,2,0,P|439:287|372:324,1,180,8|0,0:0|0:0,0:0:0:0:
352,312,93160,1,0,0:0:0:0:
332,300,93228,1,0,0:0:0:0:
240,256,93364,6,0,P|216:268|172:272,2,60,8|0|0,0:0|0:0|0:0,0:0:0:0:
189,184,93637,2,0,P|112:140|26:182,1,180,0|8,0:0|0:0,0:0:0:0:
32,204,93978,1,0,0:0:0:0:
41,234,94046,1,0,0:0:0:0:
108,316,94182,2,0,L|288:336,1,180,0|8,0:0|0:0,0:0:0:0:
364,244,94592,1,0,0:0:0:0:
368,204,94660,1,0,0:0:0:0:
364,164,94728,2,0,L|268:144,1,90
136,48,95001,5,8,0:0:0:0:
136,48,95137,2,0,L|80:52,3,45,0|0|8|0,0:0|0:0|0:0|0:0,0:0:0:0:
60,88,95410,2,0,L|4:92,3,45,0|0|8|0,0:0|0:0|0:0|0:0,0:0:0:0:
4,132,95682,1,0,0:0:0:0:
6,167,95750,1,0,0:0:0:0:
21,200,95819,1,8,0:0:0:0:
46,225,95886,1,0,0:0:0:0:
79,240,95954,1,0,0:0:0:0:
115,243,96022,1,0,0:0:0:0:
151,240,96092,6,0,P|232:197|304:240,1,180,8|8,0:0|0:0,0:0:0:0:
227,282,96501,2,0,L|225:98,1,180,4|0,0:0|0:0,0:0:0:0:
314,44,96910,1,8,0:0:0:0:
453,239,97182,6,0,P|376:279|301:236,1,180,8|8,0:0|0:0,0:0:0:0:
378,193,97592,2,0,L|379:374,1,180,4|0,0:0|0:0,0:0:0:0:
263,351,98001,1,8,0:0:0:0:
64,232,98273,6,0,P|68:184|93:140,1,90,8|0,0:0|0:0,0:0:0:0:
148,60,98546,2,0,P|198:129|172:217,1,180,8|8,0:0|0:0,0:0:0:0:
132,316,98955,1,0,0:0:0:0:
263,351,99092,2,0,L|276:260,1,90,8|0,0:0|0:0,0:0:0:0:
396,200,99364,6,0,P|402:174|396:132,3,60,8|0|0|0,0:0|0:0|0:0|0:0,0:0:0:0:
376,104,99728,1,0,0:0:0:0:
340,80,99819,1,0,0:0:0:0:
300,76,99910,2,0,P|264:88|240:108,3,60,8|0|0|0,0:0|0:0|0:0|0:0,0:0:0:0:
204,108,100273,1,0,0:0:0:0:
168,84,100364,1,0,0:0:0:0:
144,56,100455,6,0,P|72:96|43:187,1,180,4|8,0:0|0:0,0:0:0:0:
112,288,100864,1,0,0:0:0:0:
112,288,101001,2,0,L|200:312,1,90
316,264,101273,1,8,0:0:0:0:
216,184,101410,1,0,0:0:0:0:
332,140,101546,6,0,P|376:124|428:124,1,90
472,236,101819,2,0,L|456:328,1,90,8|0,0:0|0:0,0:0:0:0:
316,264,102092,1,0,0:0:0:0:
216,184,102228,1,0,0:0:0:0:
178,64,102364,2,0,P|222:59|267:68,1,90,8|0,0:0|0:0,0:0:0:0:
62,115,102637,6,0,L|111:287,1,180,0|8,0:0|0:0,0:0:0:0:
220,352,103046,1,0,0:0:0:0:
316,264,103182,2,0,L|328:168,1,90
424,80,103455,1,8,0:0:0:0:
424,80,103592,1,0,0:0:0:0:
268,68,103728,6,0,P|224:72|160:96,1,90
128,201,104001,2,0,P|172:196|215:183,1,90,8|0,0:0|0:0,0:0:0:0:
316,264,104273,1,0,0:0:0:0:
316,264,104410,1,0,0:0:0:0:
448,284,104546,2,0,L|436:192,1,90,8|0,0:0|0:0,0:0:0:0:
340,100,104819,6,0,P|264:64|164:72,1,180,4|8,0:0|0:0,0:0:0:0:
128,201,105228,1,0,0:0:0:0:
264,304,105364,1,0,0:0:0:0:
92,292,105501,1,0,0:0:0:0:
242,206,105637,1,8,0:0:0:0:
164,360,105773,1,0,0:0:0:0:
128,201,105910,6,0,P|104:168|59:138,1,90
170,69,106182,2,0,P|218:65|274:83,1,90,8|0,0:0|0:0,0:0:0:0:
344,180,106455,1,0,0:0:0:0:
448,56,106592,1,0,0:0:0:0:
480,216,106728,1,8,0:0:0:0:
448,56,106864,6,0,L|420:148,1,90
412,276,107137,1,0,0:0:0:0:
284,316,107273,2,0,P|236:316|196:292,1,90,8|0,0:0|0:0,0:0:0:0:
140,176,107546,2,0,P|100:208|80:256,2,90,0|0|8,0:0|0:0|0:0,0:0:0:0:
84,52,107955,1,0,0:0:0:0:
220,40,108092,5,8,0:0:0:0:
236,54,108160,1,0,0:0:0:0:
251,69,108228,1,0,0:0:0:0:
265,86,108296,1,0,0:0:0:0:
277,104,108364,1,8,0:0:0:0:
288,123,108432,1,0,0:0:0:0:
299,142,108501,1,0,0:0:0:0:
308,162,108569,1,0,0:0:0:0:
317,182,108637,6,0,L|320:233,3,45,8|0|0|0,0:0|0:0|0:0|0:0,0:0:0:0:
319,267,108910,2,0,L|280:305,3,45,8|0|0|0,0:0|0:0|0:0|0:0,0:0:0:0:
252,319,109182,6,0,P|160:331|92:264,1,180,4|8,0:0|0:0,0:0:0:0:
194,228,109592,1,0,0:0:0:0:
136,116,109728,2,0,P|88:124|48:147,2,90,8|0|8,0:0|0:0|0:0,0:0:0:0:
280,112,110137,2,0,P|264:72|224:40,1,90,0|8,0:0|0:0,0:0:0:0:
368,180,110410,5,0,0:0:0:0:
460,48,110546,1,8,0:0:0:0:
368,180,110682,1,0,0:0:0:0:
460,48,110819,2,0,L|496:140,1,90,8|0,0:0|0:0,0:0:0:0:
468,264,111092,2,0,P|424:272|372:265,1,90,8|0,0:0|0:0,0:0:0:0:
260,204,111364,6,0,P|244:248|246:298,1,90,4|0,0:0|0:0,0:0:0:0:
120,340,111637,1,8,0:0:0:0:
60,220,111773,1,0,0:0:0:0:
136,116,111910,1,8,0:0:0:0:
248,44,112046,1,0,0:0:0:0:
248,44,112182,2,0,P|296:52|336:76,1,90,8|0,0:0|0:0,0:0:0:0:
449,137,112455,6,0,L|461:37,2,90,8|0|8,0:0|0:0|0:0,0:0:0:0:
388,260,112864,1,0,0:0:0:0:
388,260,113001,2,0,P|342:262|288:252,1,90,8|0,0:0|0:0,0:0:0:0:
188,233,113273,2,0,P|176:276|181:321,1,90,8|0,0:0|0:0,0:0:0:0:
272,124,113546,6,0,P|232:108|168:104,1,90,4|0,0:0|0:0,0:0:0:0:
64,160,113819,1,8,0:0:0:0:
44,292,113955,1,0,0:0:0:0:
188,233,114092,1,8,0:0:0:0:
48,120,114228,1,0,0:0:0:0:
20,328,114364,1,8,0:0:0:0:
232,244,114501,1,0,0:0:0:0:
185,102,114637,6,0,P|224:80|277:66,1,90,8|0,0:0|0:0,0:0:0:0:
396,116,114910,2,0,P|400:204|352:280,2,180,8|8|8,0:0|0:0|0:0,0:0:0:0:
185,102,115728,6,0,P|148:76|91:72,1,90,8|0,0:0|0:0,0:0:0:0:
111,165,116001,1,8,0:0:0:0:
103,261,116137,2,0,P|147:254|183:228,1,90
296,156,116410,1,8,0:0:0:0:
369,221,116546,2,0,P|332:246|288:253,1,90,8|0,0:0|0:0,0:0:0:0:
320,80,116819,5,0,0:0:0:0:
320,80,116955,2,0,P|363:67|412:72,1,90,8|8,0:0|0:0,0:0:0:0:
480,236,117228,1,0,0:0:0:0:
320,340,117364,1,8,0:0:0:0:
368,160,117501,1,0,0:0:0:0:
232,276,117637,1,8,0:0:0:0:
412,268,117773,1,0,0:0:0:0:
260,172,117910,2,0,L|216:124,3,60,8|0|0|8,0:0|0:0|0:0|0:0,0:0:0:0:
412,268,118455,5,4,0:0:0:0:
256,192,118523,12,0,122273,0:0:0:0:
