osu file format v14

[General]
AudioFilename: Preserved Valkyria.mp3
AudioLeadIn: 0
PreviewTime: 48061
Countdown: 0
SampleSet: Normal
StackLeniency: 0.2
Mode: 0
LetterboxInBreaks: 1
WidescreenStoryboard: 1

[Editor]
Bookmarks: 19587,38155
DistanceSpacing: 0.3
BeatDivisor: 4
GridSize: 4
TimelineZoom: 3.099999

[Metadata]
Title:Preserved Valkyria
TitleUnicode:Preserved Valkyria
Artist:penoreri
ArtistUnicode:ぺのれり
Creator:NerO
Version:QQ
Source:SOUND VOLTEX III GRAVITY WARS
Tags:sdvx musty shapy pachouli desu
BeatmapID:783860
BeatmapSetID:349828

[Difficulty]
HPDrainRate:7
CircleSize:4
OverallDifficulty:9
ApproachRate:9.5
SliderMultiplier:1.8
SliderTickRate:1

[Events]
//Background and Video events
0,0,"bgPV.png",0,0
//Break Periods
//Storyboard Layer 0 (Background)
//Storyboard Layer 1 (Fail)
//Storyboard Layer 2 (Pass)
//Storyboard Layer 3 (Foreground)
//Storyboard Layer 4 (Overlay)
//Storyboard Sound Samples

[TimingPoints]
1402,387.096774193548,4,1,1,100,1,0
1402,-142.857142857143,4,1,1,50,0,0
7595,-125,4,1,1,50,0,0
13789,-111.111111111111,4,1,1,50,0,0
19982,-100,4,1,1,50,0,0
29272,-100,4,1,0,30,0,0
33143,-142.857142857143,4,1,4,50,0,0
33918,-142.857142857143,4,1,0,50,0,0
35466,-200,4,1,4,50,0,0
41660,-100,4,1,4,50,0,0
41853,-100,4,1,1,50,0,0
45531,-100,4,2,0,25,0,0
46305,400,4,1,1,100,1,0
46305,-100,4,2,0,50,0,0
46705,413.793103448276,4,1,1,100,1,0
47118,461.538461538462,4,1,1,100,1,0
47118,-100,4,2,0,50,0,0
47579,521.739130434783,4,1,1,100,1,0
47579,-100,4,2,0,50,0,0
48100,272.727272727273,4,1,1,100,1,0
48100,-100,4,1,1,50,0,0
56827,-90.9090909090909,4,1,1,50,0,0
63372,-100,4,1,1,50,0,0
65281,-166.666666666667,4,2,1,20,0,0
65554,-166.666666666667,4,2,4,20,0,0
80827,-90.9090909090909,4,1,1,50,0,0
82463,-166.666666666667,4,2,0,20,0,0
82736,-111.111111111111,4,2,0,20,0,0
83009,-90.9090909090909,4,1,4,80,0,1
83281,-90.9090909090909,4,1,4,50,0,0
83963,-76.9230769230769,4,1,1,80,0,1
84372,-90.9090909090909,4,1,0,80,0,1
96100,-90.9090909090909,4,1,4,80,0,0
96509,-90.9090909090909,4,1,0,80,0,1
97190,-90.9090909090909,4,1,4,80,0,0
97600,-90.9090909090909,4,1,0,80,0,1
100463,-90.9090909090909,4,1,1,65,0,0
118372,-200,4,1,4,20,0,0

[Colours]
Combo1 : 18,124,255
Combo2 : 9,193,193
Combo3 : 18,124,255
Combo4 : 255,255,255

[HitObjects]
128,72,1402,6,0,P|164:120|236:128,1,125.999996154785,2|0,0:0|0:0,0:0:0:0:
88,208,2176,2,0,L|200:216,2,94.499997116089
272,156,3143,6,0,P|260:224|280:284,1,125.999996154785
352,228,3724,2,0,P|376:272|420:316,2,94.499997116089
352,228,4692,1,2,0:0:0:0:
349,259,4789,1,0,0:0:0:0:
337,288,4886,1,0,0:0:0:0:
317,313,4983,1,0,0:0:0:0:
292,331,5079,1,0,0:0:0:0:
264,340,5660,37,4,0:0:0:0:
232,340,5853,1,0,0:0:0:0:
296,272,6047,5,0,0:0:0:0:
324,284,6143,1,0,0:0:0:0:
355,286,6240,1,0,0:0:0:0:
385,277,6337,1,0,0:0:0:0:
410,259,6434,1,0,0:0:0:0:
427,232,6530,1,0,0:0:0:0:
434,202,6627,1,0,0:0:0:0:
429,171,6724,1,0,0:0:0:0:
414,143,6821,1,2,0:0:0:0:
336,192,7208,21,0,0:0:0:0:
172,128,7595,6,0,P|212:124|248:104,1,72
120,56,7885,1,0,0:0:0:0:
120,56,7982,2,0,L|80:128,1,72
180,264,8272,1,0,0:0:0:0:
180,264,8369,2,0,L|140:200,1,72
152,340,8660,1,0,0:0:0:0:
152,340,8756,2,0,P|200:340|232:320,1,72
292,200,9047,1,0,0:0:0:0:
292,200,9143,6,0,L|288:276,1,72
424,340,9434,1,0,0:0:0:0:
424,340,9531,2,0,L|420:248,1,72
448,164,9821,1,0,0:0:0:0:
448,164,9918,2,0,L|420:128,1,36
320,64,10111,2,0,P|296:60|276:60,1,36
160,88,10305,2,0,P|136:100|120:120,1,36
56,200,10498,2,0,P|52:228|52:256,1,36
144,344,10692,37,0,0:0:0:0:
152,248,10821,1,0,0:0:0:0:
72,300,10950,1,0,0:0:0:0:
316,308,11079,5,0,0:0:0:0:
238,250,11208,1,0,0:0:0:0:
240,345,11337,1,0,0:0:0:0:
388,164,11466,37,0,0:0:0:0:
293,186,11595,1,0,0:0:0:0:
367,246,11724,1,0,0:0:0:0:
320,16,11853,5,0,0:0:0:0:
275,102,11982,1,0,0:0:0:0:
369,84,12111,1,0,0:0:0:0:
224,28,12240,1,2,0:0:0:0:
124,112,12434,22,0,P|144:100|160:84,5,36
132,24,13014,1,4,0:0:0:0:
132,24,13401,1,0,0:0:0:0:
40,156,13789,6,2,P|32:200|40:248,1,80.9999975280763,2|0,0:0|0:0,0:0:0:0:
136,104,14176,2,0,P|140:63|132:24,1,80.9999975280763
216,180,14563,2,0,P|208:224|216:272,1,80.9999975280763
236,292,14853,1,0,0:0:0:0:
273,307,14949,1,0,0:0:0:0:
312,315,15046,1,0,0:0:0:0:
353,314,15143,1,0,0:0:0:0:
392,304,15240,1,0,0:0:0:0:
428,286,15336,21,0,0:0:0:0:
444,264,15434,1,0,0:0:0:0:
452,237,15530,1,0,0:0:0:0:
457,209,15627,1,0,0:0:0:0:
456,180,15724,1,0,0:0:0:0:
450,153,15821,1,0,0:0:0:0:
440,124,15918,21,0,0:0:0:0:
419,98,16014,1,0,0:0:0:0:
395,77,16111,1,0,0:0:0:0:
367,61,16208,1,0,0:0:0:0:
336,49,16305,1,0,0:0:0:0:
305,44,16401,1,0,0:0:0:0:
268,64,16498,21,0,0:0:0:0:
231,80,16594,1,0,0:0:0:0:
192,91,16691,1,0,0:0:0:0:
151,95,16788,1,0,0:0:0:0:
112,80,16885,21,2,0:0:0:0:
125,122,16981,1,0,0:0:0:0:
131,166,17078,1,0,0:0:0:0:
129,210,17175,1,0,0:0:0:0:
118,253,17272,1,0,0:0:0:0:
100,294,17368,1,0,0:0:0:0:
104,340,17466,1,0,0:0:0:0:
148,348,17563,1,0,0:0:0:0:
176,308,17660,21,0,0:0:0:0:
224,305,17756,1,0,0:0:0:0:
273,308,17853,1,0,0:0:0:0:
320,317,17950,1,0,0:0:0:0:
367,330,18047,1,0,0:0:0:0:
412,348,18143,1,0,0:0:0:0:
380,372,18240,21,0,0:0:0:0:
367,330,18336,1,0,0:0:0:0:
367,292,18433,1,0,0:0:0:0:
375,253,18530,1,0,0:0:0:0:
400,232,18627,21,0,0:0:0:0:
411,201,18723,1,0,0:0:0:0:
416,169,18820,1,0,0:0:0:0:
415,137,18917,1,0,0:0:0:0:
396,92,19014,21,0,0:0:0:0:
355,65,19110,1,0,0:0:0:0:
309,49,19208,2,0,P|280:44|252:48,1,40.4999987640381
193,189,19401,2,0,P|212:193|232:193,1,40.4999987640381
280,124,19595,2,0,P|251:119|223:123,1,40.4999987640381
164,264,19788,2,0,P|183:268|203:268,1,40.4999987640381
352,176,19982,6,0,P|360:160|380:140,2,30
344,204,20176,1,0,0:0:0:0:
339,233,20240,1,0,0:0:0:0:
343,263,20305,1,0,0:0:0:0:
356,290,20369,1,0,0:0:0:0:
375,312,20434,1,0,0:0:0:0:
401,328,20498,1,0,0:0:0:0:
429,337,20563,1,0,0:0:0:0:
459,336,20627,1,0,0:0:0:0:
488,327,20692,1,0,0:0:0:0:
508,304,20756,6,0,P|460:292|416:308,1,90
492,216,21047,5,0,0:0:0:0:
492,216,21143,2,0,L|432:224,1,45
280,168,21337,2,0,L|332:164,1,45
448,52,21531,38,0,L|340:64,1,90,2|0,0:0|0:0,0:0:0:0:
104,104,21918,2,0,L|204:120,1,90
376,200,22305,1,0,0:0:0:0:
376,200,22498,6,0,P|332:220|280:224,1,90,2|0,0:0|0:0,0:0:0:0:
376,200,22789,2,0,P|368:248|336:288,1,90,2|0,0:0|0:0,0:0:0:0:
304,300,23079,37,0,0:0:0:0:
328,337,23175,1,0,0:0:0:0:
368,357,23272,1,0,0:0:0:0:
412,354,23369,1,0,0:0:0:0:
472,288,23563,5,0,0:0:0:0:
204,272,23756,1,0,0:0:0:0:
216,316,23853,1,0,0:0:0:0:
80,284,24047,37,0,0:0:0:0:
88,240,24143,1,0,0:0:0:0:
172,132,24337,5,0,0:0:0:0:
332,256,24531,1,0,0:0:0:0:
232,72,24724,37,0,0:0:0:0:
192,56,24821,1,0,0:0:0:0:
148,56,24918,1,0,0:0:0:0:
352,112,25111,5,0,0:0:0:0:
148,272,25305,37,0,0:0:0:0:
140,316,25401,1,0,0:0:0:0:
280,328,25595,5,0,0:0:0:0:
272,284,25692,1,0,0:0:0:0:
416,268,25885,37,0,0:0:0:0:
272,152,26079,6,0,L|292:88,1,45,0|4,0:0|0:0,0:0:0:0:
408,176,26272,1,0,0:0:0:0:
372,200,26369,1,0,0:0:0:0:
336,228,26466,1,0,0:0:0:0:
156,224,26660,37,0,0:0:0:0:
432,304,26853,5,0,0:0:0:0:
448,344,26950,1,0,0:0:0:0:
156,224,27143,37,0,0:0:0:0:
140,264,27240,1,0,0:0:0:0:
352,96,27434,5,0,0:0:0:0:
116,44,27627,38,0,L|132:100,1,45,0|4,0:0|0:0,0:0:0:0:
204,120,27821,1,0,0:0:0:0:
204,120,27918,1,0,0:0:0:0:
204,120,28014,1,0,0:0:0:0:
24,84,28208,5,0,0:0:0:0:
256,192,28401,2,0,L|292:232,1,45
352,288,28627,1,0,0:0:0:0:
392,208,28756,1,0,0:0:0:0:
120,208,28885,1,0,0:0:0:0:
160,288,29014,1,0,0:0:0:0:
256,192,29143,1,0,0:0:0:0:
256,192,29272,38,0,L|228:220,5,30
208,232,29660,1,0,0:0:0:0:
180,240,29724,1,0,0:0:0:0:
152,244,29789,1,0,0:0:0:0:
124,240,29853,1,0,0:0:0:0:
96,228,29918,1,0,0:0:0:0:
72,208,29982,1,0,0:0:0:0:
56,184,30047,6,0,P|48:164|44:140,5,30
68,136,30434,1,0,0:0:0:0:
89,156,30498,1,0,0:0:0:0:
106,181,30563,1,0,0:0:0:0:
117,208,30627,1,0,0:0:0:0:
121,238,30692,1,0,0:0:0:0:
119,268,30756,1,0,0:0:0:0:
112,296,30821,38,0,P|96:320|80:332,5,30
64,316,31208,1,0,0:0:0:0:
77,289,31272,1,0,0:0:0:0:
93,264,31337,1,0,0:0:0:0:
112,240,31401,1,0,0:0:0:0:
133,218,31466,1,0,0:0:0:0:
155,199,31530,1,0,0:0:0:0:
180,184,31595,6,0,P|204:172|228:168,5,30
224,196,31982,1,0,0:0:0:0:
253,201,32046,1,0,0:0:0:0:
283,198,32111,1,0,0:0:0:0:
311,189,32175,1,0,0:0:0:0:
336,173,32240,1,0,0:0:0:0:
357,151,32304,1,0,0:0:0:0:
364,120,32369,38,0,P|364:96|360:80,11,30
344,80,33143,6,0,P|212:44|104:80,1,251.999992309571,4|0,0:0|0:0,0:0:0:0:
352,232,35466,6,0,B|348:184|312:128|312:128|456:204|448:344|448:344|312:312|204:324,1,630,4|0,0:0|0:0,0:0:0:0:
116,316,38563,21,0,0:0:0:0:
123,294,38627,1,0,0:0:0:0:
130,273,38692,1,0,0:0:0:0:
137,251,38756,1,0,0:0:0:0:
144,230,38821,1,0,0:0:0:0:
151,209,38885,1,0,0:0:0:0:
158,187,38950,1,0,0:0:0:0:
164,172,39014,21,0,0:0:0:0:
172,184,39079,1,0,0:0:0:0:
180,196,39143,1,0,0:0:0:0:
188,208,39208,1,0,0:0:0:0:
196,220,39272,1,0,0:0:0:0:
204,232,39337,38,0,P|272:264|372:232,1,180,4|4,0:0|0:0,0:0:0:0:
408,152,40498,1,4,0:0:0:0:
368,72,40885,5,0,0:0:0:0:
280,36,41176,1,0,0:0:0:0:
188,52,41466,1,0,0:0:0:0:
92,176,41660,37,4,0:0:0:0:
176,148,41853,1,0,0:0:0:0:
104,92,42047,1,0,0:0:0:0:
104,92,42143,1,4,0:0:0:0:
164,236,42337,1,0,0:0:0:0:
164,236,42434,1,0,0:0:0:0:
256,100,42627,1,0,0:0:0:0:
256,100,42724,1,0,0:0:0:0:
260,196,42918,5,0,0:0:0:0:
248,240,43014,1,0,0:0:0:0:
236,284,43111,1,0,0:0:0:0:
224,328,43208,1,0,0:0:0:0:
316,324,43401,37,0,0:0:0:0:
316,324,43498,1,0,0:0:0:0:
400,180,43692,1,0,0:0:0:0:
400,180,43789,1,0,0:0:0:0:
256,100,43982,1,0,0:0:0:0:
256,100,44079,1,0,0:0:0:0:
164,236,44272,1,0,0:0:0:0:
164,236,44369,1,0,0:0:0:0:
288,216,44498,6,0,L|320:192,4,30
288,216,45531,5,0,0:0:0:0:
158,121,45724,1,0,0:0:0:0:
62,254,45918,1,0,0:0:0:0:
191,348,46111,1,0,0:0:0:0:
158,121,46305,1,0,0:0:0:0:
173,236,47118,1,0,0:0:0:0:
339,148,47579,1,0,0:0:0:0:
215,160,48100,5,0,0:0:0:0:
295,256,48236,1,2,0:0:0:0:
160,278,48372,1,0,0:0:0:0:
160,278,48509,6,0,L|63:273,1,90
32,136,48781,1,0,0:0:0:0:
32,136,48918,2,0,L|129:141,1,90
312,324,49190,1,0,0:0:0:0:
312,324,49327,2,0,L|222:319,1,90
340,132,49599,1,0,0:0:0:0:
340,132,49736,2,0,L|437:137,1,90
469,265,50009,2,0,L|372:260,1,90
248,152,50281,5,2,0:0:0:0:
308,220,50418,1,0,0:0:0:0:
220,236,50554,1,0,0:0:0:0:
340,132,50690,38,0,P|392:136|432:156,1,90
220,236,50963,1,0,0:0:0:0:
156,172,51100,2,0,P|136:124|140:84,1,90
308,220,51372,1,0,0:0:0:0:
280,308,51509,2,0,P|244:344|192:356,1,90
248,152,51781,1,0,0:0:0:0:
276,68,51918,2,0,P|316:32|356:20,1,90
220,236,52190,2,0,P|188:267|146:283,1,90
156,172,52463,5,2,0:0:0:0:
340,132,52600,1,0,0:0:0:0:
280,308,52736,1,0,0:0:0:0:
280,308,52872,38,0,L|184:340,1,90
70,200,53145,1,0,0:0:0:0:
70,200,53281,2,0,L|166:168,1,90
304,205,53554,1,0,0:0:0:0:
304,205,53690,2,0,L|204:241,1,90
88,76,53963,1,0,0:0:0:0:
88,76,54100,2,0,L|184:40,1,90
456,224,54372,2,0,L|356:264,1,90
236,128,54645,5,2,0:0:0:0:
368,108,54781,1,0,0:0:0:0:
252,36,54918,1,0,0:0:0:0:
368,108,55054,38,0,P|424:96|456:64,1,90
236,128,55327,1,0,0:0:0:0:
164,180,55463,2,0,P|112:192|60:184,1,90
312,244,55736,6,0,P|356:260|408:260,1,90,4|0,0:0|0:0,0:0:0:0:
200,304,56009,2,0,P|152:316|104:312,1,90,4|0,0:0|0:0,0:0:0:0:
412,184,56281,2,0,P|460:200|492:224,1,90,4|0,0:0|0:0,0:0:0:0:
100,200,56554,2,0,P|52:184|20:160,1,90,4|0,0:0|0:0,0:0:0:0:
120,56,56759,1,0,0:0:0:0:
120,56,56827,38,0,P|152:92|208:108,1,99.0000030212403,4|0,0:0|0:0,0:0:0:0:
288,116,57100,1,0,0:0:0:0:
432,28,57236,2,0,P|412:72|424:132,1,99.0000030212403
448,196,57509,1,0,0:0:0:0:
316,312,57645,2,0,P|364:276|408:268,1,99.0000030212403
448,196,57918,1,0,0:0:0:0:
288,116,58054,2,0,L|380:180,1,99.0000030212403
448,196,58327,1,0,0:0:0:0:
220,252,58463,6,0,L|324:220,1,99.0000030212403
96,148,58736,2,0,L|-8:184,1,99.0000030212403
12,268,59009,37,0,0:0:0:0:
172,184,59145,1,0,0:0:0:0:
16,100,59281,1,0,0:0:0:0:
108,256,59418,6,0,P|156:272|208:268,1,99.0000030212403
432,124,59690,1,0,0:0:0:0:
364,184,59827,2,0,P|316:204|260:200,1,99.0000030212403
16,100,60100,1,0,0:0:0:0:
92,52,60236,2,0,P|156:40|204:52,1,99.0000030212403
296,248,60509,1,0,0:0:0:0:
212,220,60645,2,0,P|172:184|156:128,1,99.0000030212403
364,184,60918,2,0,P|404:220|416:272,1,99.0000030212403
356,332,61190,37,2,0:0:0:0:
264,152,61327,1,0,0:0:0:0:
468,168,61463,1,0,0:0:0:0:
300,252,61600,5,0,0:0:0:0:
364,184,61736,1,0,0:0:0:0:
416,262,61872,1,0,0:0:0:0:
212,304,62009,37,4,0:0:0:0:
372,88,62145,1,0,0:0:0:0:
468,340,62281,1,0,0:0:0:0:
212,304,62418,5,0,0:0:0:0:
164,228,62554,1,0,0:0:0:0:
108,156,62690,1,0,0:0:0:0:
212,304,62827,38,0,P|252:340|304:352,1,99.0000030212403,2|0,0:0|0:0,0:0:0:0:
196,104,63100,2,0,P|156:68|96:56,1,99.0000030212403
164,228,63372,5,0,0:0:0:0:
208,221,63440,1,0,0:0:0:0:
246,198,63508,1,0,0:0:0:0:
273,162,63576,1,0,0:0:0:0:
283,118,63644,1,0,0:0:0:0:
276,74,63712,1,0,0:0:0:0:
252,36,63781,21,0,0:0:0:0:
295,26,63849,1,0,0:0:0:0:
340,30,63917,1,0,0:0:0:0:
382,46,63985,1,0,0:0:0:0:
417,74,64053,1,0,0:0:0:0:
442,111,64121,1,0,0:0:0:0:
456,156,64190,21,0,0:0:0:0:
432,169,64258,1,0,0:0:0:0:
408,182,64326,1,0,0:0:0:0:
385,195,64394,1,0,0:0:0:0:
361,208,64462,1,0,0:0:0:0:
337,221,64530,1,0,0:0:0:0:
314,234,64600,38,0,L|272:260,1,45
148,316,64736,2,0,L|192:348,1,45
246,127,64872,2,0,L|204:153,1,45
80,209,65008,2,0,L|124:241,1,45
184,20,65145,2,0,L|141:45,1,45
24,93,65281,5,4,0:0:0:0:
24,93,65554,1,4,0:0:0:0:
208,124,65963,1,0,0:0:0:0:
120,248,66372,1,0,0:0:0:0:
332,280,66918,5,0,0:0:0:0:
368,240,67190,1,0,0:0:0:0:
404,200,67463,1,0,0:0:0:0:
436,156,67736,2,0,B|451:94|492:24|492:24|408:76|312:40,1,323.999990112305
319,42,68690,1,0,0:0:0:0:
319,42,69509,37,0,0:0:0:0:
224,92,69645,1,0,0:0:0:0:
320,144,69781,1,0,0:0:0:0:
224,192,69918,5,0,0:0:0:0:
204,173,70054,1,0,0:0:0:0:
184,155,70190,1,0,0:0:0:0:
164,137,70327,1,0,0:0:0:0:
144,119,70463,1,0,0:0:0:0:
124,101,70599,1,0,0:0:0:0:
104,82,70736,1,0,0:0:0:0:
172,264,70872,38,0,P|240:280|288:256,1,107.999996704102
273,267,71281,1,0,0:0:0:0:
296,244,71554,1,0,0:0:0:0:
296,212,71827,1,0,0:0:0:0:
272,188,72100,6,0,P|328:248|356:256,1,107.999996704102
424,220,72509,2,0,P|432:284|392:328,2,107.999996704102
372,76,73736,38,0,P|420:128|456:136,1,107.999996704102
276,48,74281,2,0,L|240:104,2,53.9999983520508
136,56,74690,2,0,L|180:160,1,107.999996704102
200,236,75100,2,0,P|196:272|180:304,1,53.9999983520508
20,340,75372,6,0,P|80:332|140:348,1,107.999996704102
200,236,75781,2,0,P|228:292|268:320,1,107.999996704102
328,268,76190,2,0,P|364:276|388:272,1,53.9999983520508
464,368,76463,2,0,P|412:352|348:356,1,107.999996704102
328,268,76872,1,0,0:0:0:0:
328,268,77145,37,0,0:0:0:0:
268,176,77281,1,0,0:0:0:0:
376,180,77418,1,0,0:0:0:0:
224,272,77554,2,0,P|168:288|108:288,1,107.999996704102
44,188,77963,5,0,0:0:0:0:
44,188,78100,2,0,L|100:208,1,53.9999983520508
204,112,78372,2,0,L|140:132,1,53.9999983520508
16,28,78645,2,0,P|88:48|120:44,1,107.999996704102
232,32,79054,21,0,0:0:0:0:
244,44,79190,1,0,0:0:0:0:
359,73,79463,5,0,0:0:0:0:
359,73,79600,2,0,P|305:76|256:56,1,107.999996704102
440,128,80009,2,0,P|412:152|400:172,1,53.9999983520508
292,196,80281,2,0,P|312:224|316:252,1,53.9999983520508
424,272,80554,2,0,L|408:324,1,53.9999983520508
272,120,80827,6,0,L|316:324,1,198.000006042481
464,8,81236,2,0,L|420:212,1,198.000006042481
192,52,81645,1,0,0:0:0:0:
192,52,81781,2,0,P|240:32|288:24,1,99.0000030212403
368,276,82054,21,0,0:0:0:0:
108,96,82190,1,0,0:0:0:0:
380,48,82327,1,0,0:0:0:0:
196,312,82463,22,0,P|156:280|136:248,1,80.9999975280763
220,240,82736,38,0,P|160:304|108:308,1,121.499996292114
276,308,83009,6,0,P|176:304|136:212,1,198.000006042481,4|0,0:0|0:0,0:0:0:0:
202,58,83418,2,0,P|302:62|342:154,1,198.000006042481
342,140,83827,1,4,0:0:0:0:
202,30,83963,6,0,P|314:31|366:143,1,233.999989288331
148,156,84372,2,0,P|116:116|108:56,1,99.0000030212403
271,202,84645,2,0,P|327:170|347:126,1,99.0000030212403
136,336,84918,2,0,P|108:288|104:236,1,99.0000030212403
384,232,85190,5,0,0:0:0:0:
304,292,85327,1,0,0:0:0:0:
272,202,85463,1,0,0:0:0:0:
412,328,85600,1,0,0:0:0:0:
184,268,85736,1,0,0:0:0:0:
360,128,85872,1,0,0:0:0:0:
236,352,86009,37,0,0:0:0:0:
152,128,86145,2,0,P|160:76|192:28,1,99.0000030212403
284,24,86418,1,0,0:0:0:0:
220,184,86554,2,0,P|172:204|120:208,1,99.0000030212403
52,140,86827,1,0,0:0:0:0:
244,96,86963,1,0,0:0:0:0:
184,268,87100,1,0,0:0:0:0:
172,168,87236,1,0,0:0:0:0:
272,208,87372,37,4,0:0:0:0:
72,240,87509,1,0,0:0:0:0:
320,140,87645,1,0,0:0:0:0:
52,140,87781,1,0,0:0:0:0:
392,108,87918,1,0,0:0:0:0:
126,30,88054,1,0,0:0:0:0:
468,120,88190,1,0,0:0:0:0:
259,2,88327,1,0,0:0:0:0:
245,35,88600,5,0,0:0:0:0:
484,96,88736,2,0,P|496:40|480:-8,1,99.0000030212403
408,192,89009,2,0,L|444:296,1,99.0000030212403
280,356,89281,2,0,L|292:248,1,99.0000030212403
80,192,89554,6,0,L|88:292,1,99.0000030212403
180,348,89759,1,0,0:0:0:0:
180,348,89827,2,0,L|184:280,1,49.5000015106202
192,120,89963,2,0,L|224:216,1,99.0000030212403
260,251,90168,1,0,0:0:0:0:
296,272,90236,38,0,P|320:280|344:276,1,49.5000015106202
455,187,90372,2,0,P|430:183|407:191,1,49.5000015106202
392,336,90509,2,0,P|412:316|420:280,1,49.5000015106202
352,128,90645,6,0,P|334:144|324:167,1,49.5000015106202
504,296,90781,2,0,L|472:248,1,49.5000015106202
204,114,90918,2,0,L|231:155,1,49.5000015106202
488,88,91054,2,0,L|443:110,1,49.5000015106202
272,384,91190,2,0,L|317:360,1,49.5000015106202
204,114,91327,2,0,L|183:158,1,49.5000015106202
273,264,91463,2,0,L|293:219,1,49.5000015106202
110,35,91600,2,0,L|89:79,1,49.5000015106202
44,194,91736,5,0,0:0:0:0:
80,227,91804,1,0,0:0:0:0:
125,245,91872,1,0,0:0:0:0:
175,246,91940,1,0,0:0:0:0:
221,229,92008,1,0,0:0:0:0:
264,203,92077,1,0,0:0:0:0:
310,185,92145,1,0,0:0:0:0:
359,182,92213,1,0,0:0:0:0:
407,192,92281,2,0,P|437:209|452:230,1,49.5000015106202
429,338,92418,5,0,0:0:0:0:
387,365,92486,1,0,0:0:0:0:
337,361,92554,2,0,P|303:347|293:330,1,49.5000015106202
326,145,92690,5,0,0:0:0:0:
359,182,92759,1,0,0:0:0:0:
364,231,92827,2,0,P|368:259|362:284,1,49.5000015106202
209,317,92963,5,0,0:0:0:0:
204,302,93031,1,0,0:0:0:0:
198,287,93100,1,0,0:0:0:0:
194,272,93168,1,0,0:0:0:0:
189,257,93236,1,0,0:0:0:0:
184,242,93304,1,0,0:0:0:0:
179,228,93372,2,0,L|164:177,1,49.5000015106202
56,137,93509,5,0,0:0:0:0:
101,118,93577,1,0,0:0:0:0:
146,97,93645,1,0,0:0:0:0:
192,79,93713,1,0,0:0:0:0:
237,60,93781,1,0,0:0:0:0:
284,43,93850,1,0,0:0:0:0:
331,28,93918,2,0,P|361:33|382:48,1,49.5000015106202
450,136,94054,5,0,0:0:0:0:
447,186,94122,1,0,0:0:0:0:
427,230,94190,1,0,0:0:0:0:
390,263,94258,1,0,0:0:0:0:
344,279,94326,1,0,0:0:0:0:
295,276,94394,1,0,0:0:0:0:
251,253,94463,1,0,0:0:0:0:
220,215,94531,1,0,0:0:0:0:
206,168,94600,6,0,P|208:137|219:115,1,49.5000015106202
347,103,94736,2,0,P|345:134|334:156,1,49.5000015106202
239,159,94872,2,0,P|240:127|251:105,1,49.5000015106202
379,93,95008,2,0,P|377:124|366:146,1,49.5000015106202
336,177,95145,5,0,0:0:0:0:
311,219,95213,1,0,0:0:0:0:
306,268,95281,1,0,0:0:0:0:
321,315,95349,1,0,0:0:0:0:
354,352,95417,5,0,0:0:0:0:
329,349,95486,1,0,0:0:0:0:
304,346,95554,1,0,0:0:0:0:
279,343,95622,1,0,0:0:0:0:
254,340,95690,1,0,0:0:0:0:
229,337,95759,1,0,0:0:0:0:
214,335,95827,5,0,0:0:0:0:
199,332,95895,1,0,0:0:0:0:
184,331,95963,1,0,0:0:0:0:
169,329,96031,1,0,0:0:0:0:
154,327,96100,6,0,P|88:263|90:157,1,198.000006042481,4|0,0:0|0:0,0:0:0:0:
196,40,96509,5,0,0:0:0:0:
208,61,96577,1,0,0:0:0:0:
224,79,96645,1,0,0:0:0:0:
244,94,96713,1,0,0:0:0:0:
267,103,96781,1,0,0:0:0:0:
291,107,96849,1,0,0:0:0:0:
316,106,96918,21,0,0:0:0:0:
360,128,96986,1,0,0:0:0:0:
393,164,97054,1,0,0:0:0:0:
413,209,97122,1,0,0:0:0:0:
416,260,97190,6,0,P|344:336|244:320,1,198.000006042481,4|0,0:0|0:0,0:0:0:0:
84,252,97600,5,0,0:0:0:0:
106,262,97668,1,0,0:0:0:0:
130,269,97736,1,0,0:0:0:0:
154,271,97804,1,0,0:0:0:0:
179,268,97872,1,0,0:0:0:0:
203,262,97940,1,0,0:0:0:0:
225,251,98009,21,0,0:0:0:0:
248,296,98077,1,0,0:0:0:0:
281,331,98145,1,0,0:0:0:0:
327,348,98213,1,0,0:0:0:0:
376,344,98281,6,0,P|404:337|426:317,1,49.5000015106202,4|0,0:0|0:0,0:0:0:0:
447,192,98418,5,0,0:0:0:0:
434,154,98486,1,0,0:0:0:0:
412,121,98554,1,0,0:0:0:0:
382,97,98622,1,0,0:0:0:0:
345,82,98690,1,0,0:0:0:0:
306,78,98758,1,0,0:0:0:0:
267,85,98827,2,0,P|236:106|225:121,1,49.5000015106202
142,237,98963,5,0,0:0:0:0:
172,261,99031,1,0,0:0:0:0:
208,278,99099,1,0,0:0:0:0:
247,284,99167,1,0,0:0:0:0:
286,281,99235,1,0,0:0:0:0:
323,267,99303,1,0,0:0:0:0:
356,245,99372,2,0,P|367:216|364:182,1,49.5000015106202
130,134,99509,5,0,0:0:0:0:
91,141,99577,1,0,0:0:0:0:
57,162,99645,1,0,0:0:0:0:
32,192,99713,1,0,0:0:0:0:
18,229,99781,1,0,0:0:0:0:
18,268,99849,1,0,0:0:0:0:
30,306,99918,2,0,P|48:330|72:340,1,49.5000015106202
168,370,100054,5,0,0:0:0:0:
206,361,100122,1,0,0:0:0:0:
245,352,100190,1,0,0:0:0:0:
283,344,100258,1,0,0:0:0:0:
322,335,100326,1,0,0:0:0:0:
361,327,100394,1,0,0:0:0:0:
400,316,100463,6,0,P|444:268|416:140,1,198.000006042481,2|0,0:0|0:0,0:0:0:0:
296,40,100872,37,0,0:0:0:0:
296,40,101009,2,0,P|332:96|372:112,1,99.0000030212403
188,164,101281,1,0,0:0:0:0:
188,164,101418,2,0,L|112:228,1,99.0000030212403
328,296,101690,5,0,0:0:0:0:
440,312,101827,1,0,0:0:0:0:
456,200,101963,1,0,0:0:0:0:
294,314,102100,5,0,0:0:0:0:
475,338,102236,1,0,0:0:0:0:
499,157,102372,1,0,0:0:0:0:
318,133,102509,1,0,0:0:0:0:
140,280,102645,37,2,0:0:0:0:
56,200,102781,2,0,L|48:92,1,99.0000030212403
372,280,103054,1,0,0:0:0:0:
456,200,103190,2,0,L|464:92,1,99.0000030212403
248,196,103463,1,0,0:0:0:0:
164,116,103599,2,0,L|156:8,1,99.0000030212403
360,119,103872,5,0,0:0:0:0:
456,200,104009,1,0,0:0:0:0:
336,229,104145,1,0,0:0:0:0:
477,90,104281,5,0,0:0:0:0:
508,280,104418,1,0,0:0:0:0:
318,311,104554,1,0,0:0:0:0:
287,121,104691,1,0,0:0:0:0:
508,280,104827,5,2,0:0:0:0:
453,362,104963,2,0,L|354:373,1,99.0000030212403
360,119,105236,1,0,0:0:0:0:
305,37,105372,2,0,L|206:26,1,99.0000030212403
188,220,105645,1,0,0:0:0:0:
133,302,105781,2,0,L|34:313,1,99.0000030212403
188,220,106054,5,0,0:0:0:0:
4,112,106190,1,0,0:0:0:0:
200,28,106327,1,0,0:0:0:0:
380,140,106463,5,0,0:0:0:0:
188,220,106600,1,0,0:0:0:0:
320,24,106736,1,0,0:0:0:0:
376,248,106872,1,0,0:0:0:0:
196,124,107009,37,2,0:0:0:0:
380,140,107145,1,0,0:0:0:0:
196,124,107281,1,0,0:0:0:0:
380,140,107418,2,0,P|424:96|432:56,1,99.0000030212403
188,220,107690,1,0,0:0:0:0:
188,220,107827,2,0,P|144:264|136:304,1,99.0000030212403
331,267,108100,6,0,P|359:267|381:256,3,49.5000015106202,4|0|0|0,0:0|0:0|0:0|0:0,0:0:0:0:
416,214,108372,2,0,P|424:179|420:152,3,49.5000015106202,4|0|0|0,0:0|0:0|0:0|0:0,0:0:0:0:
412,109,108645,1,4,0:0:0:0:
368,73,108713,1,0,0:0:0:0:
312,68,108781,1,0,0:0:0:0:
262,94,108849,1,0,0:0:0:0:
224,51,108918,1,4,0:0:0:0:
169,40,108986,1,0,0:0:0:0:
119,66,109054,2,0,P|101:98|101:122,1,49.5000015106202
331,267,109190,37,2,0:0:0:0:
180,116,109327,1,0,0:0:0:0:
363,192,109464,1,0,0:0:0:0:
148,192,109600,1,0,0:0:0:0:
331,116,109736,1,0,0:0:0:0:
181,266,109873,1,0,0:0:0:0:
256,84,110009,1,0,0:0:0:0:
256,299,110145,1,0,0:0:0:0:
331,115,110282,5,0,0:0:0:0:
181,266,110418,1,0,0:0:0:0:
179,115,110554,1,0,0:0:0:0:
331,267,110691,1,0,0:0:0:0:
256,84,110827,1,0,0:0:0:0:
256,299,110963,1,0,0:0:0:0:
362,192,111100,1,0,0:0:0:0:
148,192,111236,1,0,0:0:0:0:
419,125,111372,37,2,0:0:0:0:
92,258,111509,1,0,0:0:0:0:
325,29,111645,1,0,0:0:0:0:
186,354,111781,1,0,0:0:0:0:
189,28,111918,1,0,0:0:0:0:
322,355,112054,1,0,0:0:0:0:
93,122,112190,1,0,0:0:0:0:
418,261,112327,1,0,0:0:0:0:
79,188,112463,5,0,0:0:0:0:
432,195,112600,1,0,0:0:0:0:
128,314,112736,1,0,0:0:0:0:
383,69,112872,1,0,0:0:0:0:
252,368,113009,1,0,0:0:0:0:
259,15,113145,1,0,0:0:0:0:
378,319,113281,1,0,0:0:0:0:
133,64,113418,1,0,0:0:0:0:
252,368,113554,37,2,0:0:0:0:
383,69,113690,1,0,0:0:0:0:
79,188,113827,1,0,0:0:0:0:
319,186,113963,5,0,0:0:0:0:
219,143,114100,1,0,0:0:0:0:
237,253,114236,1,0,0:0:0:0:
259,15,114372,37,4,0:0:0:0:
128,314,114509,1,0,0:0:0:0:
432,195,114645,1,0,0:0:0:0:
259,15,114781,5,0,0:0:0:0:
182,78,114918,1,0,0:0:0:0:
109,145,115054,1,0,0:0:0:0:
336,300,115190,38,0,P|380:328|448:328,1,99.0000030212403,2|0,0:0|0:0,0:0:0:0:
198,177,115463,2,0,P|154:149|86:149,1,99.0000030212403
168,308,115736,5,0,0:0:0:0:
175,301,115804,1,0,0:0:0:0:
182,294,115872,1,0,0:0:0:0:
190,288,115940,1,0,0:0:0:0:
196,280,116009,2,0,L|228:232,1,49.5000015106202
232,88,116145,38,0,P|212:64|196:56,3,49.5000015106202
276,164,116418,2,0,P|296:188|312:196,1,49.5000015106202
444,136,116554,5,0,0:0:0:0:
461,182,116622,1,0,0:0:0:0:
464,231,116690,1,0,0:0:0:0:
453,279,116758,1,0,0:0:0:0:
429,322,116826,1,0,0:0:0:0:
297,356,116963,37,0,0:0:0:0:
96,87,117100,1,0,0:0:0:0:
420,173,117236,1,0,0:0:0:0:
111,297,117372,1,0,0:0:0:0:
299,16,117509,1,0,0:0:0:0:
297,356,117645,1,0,0:0:0:0:
96,87,117781,1,0,0:0:0:0:
272,120,117918,5,0,0:0:0:0:
303,177,118008,1,0,0:0:0:0:
335,235,118099,1,0,0:0:0:0:
367,293,118190,1,0,0:0:0:0:
184,232,118372,5,0,0:0:0:0:
168,196,118463,2,0,B|116:180|60:120|60:120|92:228|64:348|64:348|268:316|424:168|528:244|424:504|256:376|252:180|336:68|336:68|256:104|168:108,1,1260,4|0,0:0|0:0,0:0:0:0:
