osu file format v14

[General]
AudioFilename: audio.mp3
AudioLeadIn: 0
PreviewTime: 82443
Countdown: 0
SampleSet: Soft
StackLeniency: 0.3
Mode: 0
LetterboxInBreaks: 0
WidescreenStoryboard: 0

[Editor]
Bookmarks: 7566,13760,26631,29243,44727,56807,65534,80730,100443
DistanceSpacing: 1.2
BeatDivisor: 4
GridSize: 32
TimelineZoom: 2

[Metadata]
Title:Preserved Valkyria
TitleUnicode:Preserved Valkyria
Artist:penoreri
ArtistUnicode:ぺのれり
Creator:Kroytz
Version:pkk's ADVANCED
Source:SOUND VOLTEX III GRAVITY WARS
Tags:sdvx konami arcade championship kac song contest Renumi Akitoshi -Laura- pkk Sharkie Zexous Kawashiro Fushimi Rio
BeatmapID:1366186
BeatmapSetID:644642

[Difficulty]
HPDrainRate:4.5
CircleSize:4
OverallDifficulty:6
ApproachRate:8
SliderMultiplier:1.4
SliderTickRate:1

[Events]
//Background and Video events
0,0,"BG.png",0,0
//Break Periods
2,29443,32364
2,44927,47330
//Storyboard Layer 0 (Background)
//Storyboard Layer 1 (Fail)
//Storyboard Layer 2 (Pass)
//Storyboard Layer 3 (Foreground)
//Storyboard Sound Samples

[TimingPoints]
1373,387.096774193548,4,2,1,40,1,0
7566,-100,4,2,1,50,0,0
19953,-100,4,2,1,60,0,0
28469,-100,4,2,1,75,0,0
46276,400,4,2,1,40,1,0
46676,413.793103448276,4,2,1,40,1,0
47089,461.538461538462,4,2,1,40,1,0
47550,530.973451327434,4,2,1,40,1,0
48080,272.727272727273,4,2,1,45,1,0
48080,-125,4,2,1,45,0,0
55716,-125,4,2,1,55,0,0
56807,-100,4,2,1,65,0,0
65261,-100,4,2,1,90,0,0
65534,-142.857142857143,4,2,1,40,0,0
67733,-142.857142857143,4,2,1,5,0,0
68534,-142.857142857143,4,2,1,30,0,0
69898,-142.857142857143,4,2,1,35,0,0
78625,-117.647058823529,4,2,1,40,0,0
80807,-90.9090909090909,4,2,1,90,0,0
82443,-100,4,2,1,40,0,0
82989,-100,4,2,1,90,0,0
83193,-100,4,2,1,5,0,0
83261,-100,4,2,1,40,0,0
83398,-100,4,2,1,90,0,0
83602,-100,4,2,1,5,0,0
83670,-100,4,2,1,40,0,0
83807,-100,4,2,1,73,0,1
85375,-100,4,2,1,5,0,1
85443,-100,4,2,1,73,0,1
89739,-100,4,2,1,5,0,1
89807,-100,4,2,1,73,0,1
90625,-100,4,2,1,65,0,1
91716,-100,4,2,1,73,0,1
96080,-83.3333333333333,4,2,1,73,0,1
96489,-100,4,2,1,73,0,1
100443,-100,4,2,1,65,0,0
109170,-100,4,2,1,75,0,1
118443,-100,4,2,1,55,0,0
122261,-100,4,2,1,5,0,0

[Colours]
Combo1 : 192,68,192
Combo2 : 255,68,68
Combo3 : 255,128,68
Combo4 : 255,255,85
Combo5 : 96,255,68
Combo6 : 0,128,255

[HitObjects]
125,78,1373,5,6,0:0:0:0:
283,143,1760,1,2,0:0:0:0:
104,63,2147,2,0,L|223:57,1,105,2|2,0:0|0:0,0:0:0:0:
394,152,2727,5,2,0:0:0:0:
236,217,3114,1,2,0:0:0:0:
415,137,3502,1,2,0:0:0:0:
415,137,3696,2,0,L|296:131,2,105,2|2|2,0:0|0:0|0:0,0:0:0:0:
217,261,4663,6,0,P|195:272|165:277,3,35,2|2|0|2,0:0|0:0|0:0|0:0,0:0:0:0:
278,201,5050,2,0,P|289:157|246:68,1,140,2|2,0:0|0:0,0:0:0:0:
161,43,5631,1,2,0:0:0:0:
173,143,5824,5,2,0:0:0:0:
172,143,6018,2,0,P|189:145|206:147,3,35,0|2|2|2,0:0|0:0|0:0|0:0,0:0:0:0:
262,209,6405,2,0,P|303:203|319:200,3,35,2|2|2|2,0:0|0:0|0:0|0:0,0:0:0:0:
368,170,6792,2,0,B|397:236|341:235|366:318,1,140,2|2,0:0|0:0,0:0:0:0:
474,118,7566,6,0,P|442:94|414:85,1,70,6|0,0:0|0:0,0:0:0:0:
331,84,7856,1,0,0:0:0:0:
331,84,7953,2,0,P|294:103|267:130,1,70,2|0,0:0|0:0,0:0:0:0:
175,226,8340,2,0,P|207:202|235:193,1,70,2|0,0:0|0:0,0:0:0:0:
318,192,8630,1,0,0:0:0:0:
318,192,8727,2,0,P|355:211|382:238,1,70,2|0,0:0|0:0,0:0:0:0:
480,340,9114,6,0,P|448:316|420:307,1,70,2|0,0:0|0:0,0:0:0:0:
337,306,9404,1,0,0:0:0:0:
337,306,9501,2,0,P|300:325|273:352,1,70,2|0,0:0|0:0,0:0:0:0:
90,291,9889,5,2,0:0:0:0:
178,309,10082,1,2,0:0:0:0:
250,253,10276,1,2,0:0:0:0:
259,162,10469,1,2,0:0:0:0:
165,143,10663,6,0,P|165:167|170:189,2,46.6666666666667,2|2|2,0:0|0:0|0:0,0:0:0:0:
105,76,11050,2,0,P|91:95|83:117,2,46.6666666666667,2|2|2,0:0|0:0|0:0,0:0:0:0:
194,57,11437,2,0,P|227:51|247:42,2,46.6666666666667,2|2|2,0:0|0:0|0:0,0:0:0:0:
263,129,11824,2,0,P|296:135|316:144,2,46.6666666666667,2|2|2,0:0|0:0|0:0,0:0:0:0:
190,199,12211,5,2,0:0:0:0:
104,146,12405,1,2,0:0:0:0:
104,146,12502,1,2,0:0:0:0:
104,145,12598,2,0,P|92:159|85:175,3,35,2|2|2|2,0:0|0:0|0:0|0:0,0:0:0:0:
22,230,12985,6,0,P|64:260|93:304,1,105,2|0,0:0|0:0,0:0:0:0:
129,314,13372,2,0,P|171:283|222:270,1,105,2|0,0:0|0:0,0:0:0:0:
254,278,13760,6,0,P|313:285|355:292,1,70,6|2,0:0|0:0,0:0:0:0:
402,197,14147,2,0,P|367:200|332:205,1,70,2|2,0:0|0:0,0:0:0:0:
249,129,14534,1,2,0:0:0:0:
144,168,14727,2,0,L|164:222,1,35,2|2,0:0|0:0,0:0:0:0:
192,244,14921,2,0,P|188:270|184:306,3,35,2|0|2|2,0:0|0:0|0:0|0:0,0:0:0:0:
208,329,15308,6,0,P|225:324|242:319,3,35,2|2|2|2,0:0|0:0|0:0|0:0,0:0:0:0:
292,292,15695,2,0,P|308:297|325:303,3,35,2|2|2|2,0:0|0:0|0:0|0:0,0:0:0:0:
378,286,16082,2,0,P|416:308|444:327,1,70,2|2,0:0|0:0,0:0:0:0:
480,218,16469,2,0,P|476:193|475:162,3,35,2|2|2|2,0:0|0:0|0:0|0:0,0:0:0:0:
431,148,16856,6,0,P|437:112|451:64,1,70,2|2,0:0|0:0,0:0:0:0:
367,32,17243,2,0,P|332:47|307:52,3,35,2|2|2|2,0:0|0:0|0:0|0:0,0:0:0:0:
312,86,17631,2,0,P|291:81|274:77,3,35,2|2|2|2,0:0|0:0|0:0|0:0,0:0:0:0:
241,50,18018,2,0,P|215:58|193:65,3,35,2|2|2|2,0:0|0:0|0:0|0:0,0:0:0:0:
164,74,18405,6,0,P|172:133|179:164,1,70,2|2,0:0|0:0,0:0:0:0:
215,231,18792,2,0,P|180:224|145:220,1,70,2|2,0:0|0:0,0:0:0:0:
89,215,19082,1,2,0:0:0:0:
89,215,19179,1,2,0:0:0:0:
34,322,19372,1,2,0:0:0:0:
145,300,19566,1,2,0:0:0:0:
228,373,19759,1,2,0:0:0:0:
326,297,19953,6,0,P|342:294|364:292,3,35,6|2|2|2,0:0|0:0|0:0|0:0,0:0:0:0:
387,242,20340,2,0,P|403:239|425:237,3,35,2|2|2|2,0:0|0:0|0:0|0:0,0:0:0:0:
467,204,20727,1,2,0:0:0:0:
380,132,20921,2,0,L|296:125,2,70,2|2|2,0:0|0:0|0:0,0:0:0:0:
298,209,21502,6,0,P|282:206|260:204,3,35,6|0|2|2,0:0|0:0|0:0|0:0,0:0:0:0:
237,154,21889,2,0,P|221:151|199:149,3,35,2|0|2|2,0:0|0:0|0:0|0:0,0:0:0:0:
157,116,22276,1,2,0:0:0:0:
62,175,22469,2,0,P|79:210|92:256,1,70,6|2,0:0|0:0,0:0:0:0:
143,251,22760,2,0,P|126:286|113:332,1,70,6|2,0:0|0:0,0:0:0:0:
95,366,23050,6,0,P|144:350|197:347,1,105,6|2,3:2|3:2,0:0:0:0:
330,282,23534,2,0,P|280:265|227:262,1,105,2|2,3:2|3:2,0:0:0:0:
133,193,24018,2,0,P|153:186|186:183,1,35,2|2,3:2|3:2,0:0:0:0:
258,119,24308,6,0,P|252:186|250:220,1,70,2|2,3:2|3:2,0:0:0:0:
363,177,24695,2,0,L|399:140,2,35,2|2|2,3:2|3:2|3:2,0:0:0:0:
412,277,25082,6,0,P|380:325|364:338,1,70,2|2,3:2|3:2,0:0:0:0:
314,331,25372,2,0,P|273:326|233:324,1,70,2|2,3:2|3:2,0:0:0:0:
188,317,25663,1,2,3:2:0:0:
116,218,25856,2,0,P|156:213|197:211,1,70,2|2,3:2|3:2,0:0:0:0:
241,220,26147,6,0,P|261:175|256:122,1,70,6|2,3:2|3:2,0:0:0:0:
261,109,26437,1,2,3:2:0:0:
194,19,26631,2,0,P|174:64|179:117,1,70,2|2,3:2|3:2,0:0:0:0:
174,130,26921,1,2,3:2:0:0:
103,216,27114,2,0,P|85:199|71:178,1,35,2|2,3:2|3:2,0:0:0:0:
188,216,27404,2,0,P|181:250|165:281,1,70,2|2,3:2|3:2,0:0:0:0:
128,308,27695,5,6,3:2:0:0:
128,308,27791,2,0,P|84:302|69:299,2,35,2|2|2,3:2|3:2|3:2,0:0:0:0:
225,365,28179,2,0,P|259:360|294:358,1,70,2|2,3:2|3:2,0:0:0:0:
327,326,28469,5,6,3:2:0:0:
327,326,28598,2,0,B|337:296|337:296|331:265,2,46.6666666666667,6|6|6,3:2|3:2|3:2,0:0:0:0:
297,262,28985,2,0,B|288:236|288:236|297:197,2,46.6666666666667,6|6|6,3:2|3:2|3:2,0:0:0:0:
201,141,33114,6,0,P|182:192|330:180,2,280,4|4|0,3:2|3:0|0:0,0:0:0:0:
256,192,35437,1,4,3:0:0:0:
256,192,35631,12,8,38147,3:2:0:0:
358,72,39308,6,0,P|383:117|364:217,1,140,4|0,0:2|0:0,0:0:0:0:
154,72,40082,2,0,P|129:117|148:217,1,140,4|0,0:2|0:0,0:0:0:0:
256,192,41631,5,4,3:2:0:0:
256,192,41824,12,2,44727,3:2:0:0:
282,168,48080,6,0,P|331:154|356:152,2,56,6|0|0,0:0|0:0|0:0,0:0:0:0:
199,132,48489,2,0,P|231:92|250:76,2,56,2|0|0,0:0|0:0|0:0,0:0:0:0:
111,152,48898,2,0,P|114:101|121:76,2,56,2|0|0,0:0|0:0|0:0,0:0:0:0:
51,219,49307,2,0,P|24:175|16:151,2,56,2|0|0,0:0|0:0|0:0,0:0:0:0:
139,234,49716,2,0,P|154:257|167:282,1,56,2|0,0:0|0:0,0:0:0:0:
236,339,49989,2,0,P|248:313|264:290,1,56,2|0,0:0|0:0,0:0:0:0:
336,238,50261,6,0,L|400:248,2,56,2|0|0,0:0|0:0|0:0,0:0:0:0:
262,185,50670,2,0,L|198:195,2,56,2|0|0,0:0|0:0|0:0,0:0:0:0:
342,142,51080,2,0,L|397:150,1,56,2|0,0:0|0:0,0:0:0:0:
472,198,51352,1,2,0:0:0:0:
476,108,51489,2,0,L|466:44,2,56,2|0|0,0:0|0:0|0:0,0:0:0:0:
471,198,51898,2,0,P|466:225|463:253,1,56,2|0,0:0|0:0,0:0:0:0:
384,295,52170,2,0,P|381:267|375:239,1,56,2|0,0:0|0:0,0:0:0:0:
320,168,52443,5,6,0:0:0:0:
320,168,52580,2,0,L|254:182,1,56
247,91,52852,1,2,0:0:0:0:
247,91,52989,2,0,L|181:105,1,56
130,190,53261,1,2,0:0:0:0:
130,190,53398,2,0,L|196:176,1,56
206,265,53671,1,2,0:0:0:0:
206,265,53807,2,0,L|260:253,1,56
338,208,54080,2,0,P|346:248|348:277,1,56,4|0,0:0|0:0,0:0:0:0:
422,311,54352,2,0,P|425:283|431:255,1,56,2|0,0:0|0:0,0:0:0:0:
479,179,54625,5,6,0:0:0:0:
479,179,54761,2,0,P|475:151|469:123,1,56
381,107,55034,1,2,0:0:0:0:
381,107,55170,2,0,P|384:79|390:51,1,56
296,152,55443,2,0,P|292:124|286:96,1,56,2|0,0:0|0:0,0:0:0:0:
159,135,55716,6,0,P|194:145|217:155,1,56,6|2,3:2|3:2,0:0:0:0:
261,227,55989,2,0,P|226:237|203:247,1,56,6|2,3:2|3:2,0:0:0:0:
112,269,56261,2,0,L|137:205,1,56,6|2,3:2|3:2,0:0:0:0:
212,152,56534,2,0,L|232:204,1,56,6|2,3:2|3:2,0:0:0:0:
299,294,56807,6,0,P|354:264|443:283,1,140,6|8,0:2|0:2,0:0:0:0:
355,359,57216,2,0,P|287:370|225:338,1,140,2|0,0:2|0:0,0:0:0:0:
117,369,57625,1,10,0:2:0:0:
117,369,57761,2,0,P|120:304|132:278,1,70,0|0,0:0|0:0,0:0:0:0:
119,187,58034,6,0,P|180:218|248:207,1,140,2|0,0:2|0:0,0:0:0:0:
334,135,58443,2,0,L|324:55,1,70,2|2,0:2|0:2,0:0:0:0:
423,152,58716,2,0,L|431:221,1,70,10|2,0:2|0:2,0:0:0:0:
362,310,58989,5,2,0:2:0:0:
362,310,59125,2,0,P|327:301|293:295,1,70,0|8,0:0|0:2,0:0:0:0:
181,304,59398,2,0,P|223:262|227:178,1,140,2|0,0:2|0:0,0:0:0:0:
313,109,59807,2,0,P|315:177|361:228,1,140,10|0,0:2|0:2,0:0:0:0:
472,210,60216,5,2,0:2:0:0:
472,210,60352,2,0,P|487:255|484:294,1,70,8|0,0:2|0:0,0:0:0:0:
400,349,60625,2,0,L|321:341,1,70,2|2,0:2|0:2,0:0:0:0:
220,278,60898,2,0,L|299:270,1,70,10|2,0:2|0:2,0:0:0:0:
372,195,61170,5,6,0:2:0:0:
372,195,61307,2,0,L|372:101,1,70,0|8,0:0|0:2,0:0:0:0:
279,62,61579,1,2,0:2:0:0:
279,62,61716,2,0,L|279:156,1,70,0|0,0:0|0:0,0:0:0:0:
208,219,61989,1,10,0:2:0:0:
208,219,62126,2,0,L|302:219,1,70,0|0,0:0|0:0,0:0:0:0:
352,302,62398,1,2,0:2:0:0:
352,302,62535,2,0,L|258:302,1,70,8|0,0:2|0:0,0:0:0:0:
178,344,62807,6,0,P|136:327|99:316,1,70,6|0,0:2|0:0,0:0:0:0:
29,243,63080,2,0,P|71:226|108:215,1,70,10|0,0:2|0:0,0:0:0:0:
173,140,63352,6,0,P|218:197|261:103,1,210,6|6,0:2|0:2,0:0:0:0:
267,109,63898,2,0,P|259:162|385:101,2,280,2|6|6,0:2|0:2|0:2,0:0:0:0:
482,45,65261,2,0,L|476:100,1,35,2|0,0:2|0:2,0:0:0:0:
452,252,65534,6,0,B|381:217|378:278|303:242,2,146.999995513916,6|2|2,0:0|0:0|0:0,0:0:0:0:
452,252,66898,5,2,0:0:0:0:
410,152,67170,1,2,0:0:0:0:
310,194,67443,1,2,0:0:0:0:
352,294,67716,1,0,0:0:0:0:
352,294,68534,6,0,L|293:300,1,48.9999985046387,2|2,0:0|0:0,0:0:0:0:
303,298,69488,2,0,L|236:284,2,48.9999985046387,2|2|2,0:0|0:0|0:0,0:0:0:0:
344,230,69898,6,0,P|352:200|349:161,1,48.9999985046387,2|2,0:0|0:0,0:0:0:0:
427,160,70170,2,0,P|411:133|386:114,1,48.9999985046387,2|2,0:0|0:0,0:0:0:0:
320,109,70443,2,0,P|290:117|253:117,1,48.9999985046387,2|2,0:0|0:0,0:0:0:0:
204,157,70716,2,0,P|228:181|254:198,1,48.9999985046387,2|2,0:0|0:0,0:0:0:0:
307,231,70989,5,0,0:0:0:0:
382,212,71125,2,0,L|373:280,1,48.9999985046387,2|2,0:0|0:0,0:0:0:0:
462,144,71534,2,0,L|457:106,4,24.4999992523194,0|0|0|0|0,0:0|0:0|0:0|0:0|0:0,0:0:0:0:
357,43,72080,6,0,P|313:52|271:64,1,73.4999977569581,2|0,0:0|0:0,0:0:0:0:
246,65,72352,2,0,L|253:127,1,48.9999985046387,2|2,0:0|0:0,0:0:0:0:
203,246,73170,6,0,P|168:231|144:223,1,48.9999985046387,2|2,0:0|0:0,0:0:0:0:
107,166,73443,2,0,P|142:151|166:143,1,48.9999985046387,2|2,0:0|0:0,0:0:0:0:
229,161,73716,1,2,0:0:0:0:
233,165,73989,1,2,0:0:0:0:
346,58,74261,6,0,P|358:91|362:121,1,48.9999985046387,2|2,0:0|0:0,0:0:0:0:
439,109,74534,2,0,P|429:142|415:169,1,48.9999985046387,2|2,0:0|0:0,0:0:0:0:
324,252,74943,6,0,P|369:229|427:241,1,97.9999970092774,2|2,0:0|0:0,0:0:0:0:
466,294,75352,2,0,P|489:249|477:191,1,97.9999970092774,2|2,0:0|0:0,0:0:0:0:
429,145,75761,2,0,P|371:152|313:159,1,97.9999970092774,2|0,0:0|0:0,0:0:0:0:
253,165,76170,1,2,0:0:0:0:
95,149,76443,6,0,P|105:126|110:102,1,48.9999985046387,2|2,0:0|0:0,0:0:0:0:
183,73,76716,2,0,P|188:96|197:119,1,48.9999985046387,2|2,0:0|0:0,0:0:0:0:
340,183,77125,1,2,0:0:0:0:
340,183,77261,2,0,L|269:177,1,48.9999985046387,2|2,0:0|0:0,0:0:0:0:
211,200,77534,6,0,P|238:234|235:300,1,97.9999970092774,2|2,0:0|0:0,0:0:0:0:
182,341,77943,1,2,0:0:0:0:
182,341,78080,2,0,L|122:336,1,48.9999985046387,2|2,0:0|0:0,0:0:0:0:
111,262,78352,2,0,L|51:257,1,48.9999985046387,2|2,0:0|0:0,0:0:0:0:
123,185,78625,6,0,L|132:105,2,59.5000011348725,2|2|2,0:0|0:0|0:0,0:0:0:0:
212,151,79034,1,2,0:0:0:0:
212,151,79170,2,0,L|221:71,1,59.5000011348725,2|2,0:0|0:0,0:0:0:0:
305,132,79443,1,2,0:0:0:0:
305,132,79580,6,0,P|343:116|421:161,1,119.000002269745,2|2,0:0|0:0,0:0:0:0:
492,194,79989,2,0,P|461:212|438:243,1,59.5000011348725,2|2,0:0|0:0,0:0:0:0:
352,250,80261,2,0,P|391:288|404:303,1,59.5000011348725,2|2,0:0|0:0,0:0:0:0:
473,345,80534,2,0,L|417:365,1,59.5000011348725,2|2,0:0|0:2,0:0:0:0:
301,320,80807,6,0,B|247:308|247:308|211:323|211:323|152:310,1,154.000004699707,14|14,3:2|3:2,0:0:0:0:
72,215,81216,2,0,B|126:203|126:203|162:218|162:218|221:205,1,154.000004699707,10|14,3:2|3:2,0:0:0:0:
321,134,81625,5,0,3:2:0:0:
321,134,81761,2,0,P|273:171|317:54,1,385.000011749268,0|0,3:2|3:2,0:0:0:0:
368,287,82989,6,0,P|300:257|222:286,1,140,6|2,0:0|0:0,0:0:0:0:
146,319,83398,2,0,P|132:245|133:167,1,140,6|2,0:0|0:0,0:0:0:0:
209,109,83807,5,4,0:1:0:0:
209,109,83943,2,0,B|264:137|264:137|373:125,1,140
431,189,84352,2,0,P|377:207|356:216,1,70,8|0,0:0|0:0,0:0:0:0:
267,252,84625,2,0,P|291:277|312:304,1,70,2|0,0:0|0:0,0:0:0:0:
397,367,84898,2,0,P|405:329|417:298,1,70,10|0,0:0|0:0,0:0:0:0:
497,234,85170,6,0,B|507:178|463:134|463:134|504:71|504:71|452:63|410:23,1,280,2|0,0:0|0:0,0:0:0:0:
338,88,85852,1,0,0:0:0:0:
252,39,85989,1,10,0:0:0:0:
252,39,86125,2,0,L|229:186,1,140,0|0,0:0|0:0,0:0:0:0:
201,283,86534,2,0,P|269:269|300:265,1,70,8|0,0:0|0:0,0:0:0:0:
370,298,86807,1,2,0:0:0:0:
439,219,86943,2,0,L|432:143,2,70,0|8|0,0:0|0:0|0:0,0:0:0:0:
337,190,87352,6,0,P|326:161|303:122,1,70,6|2,0:0|0:0,0:0:0:0:
212,98,87625,2,0,P|223:69|246:30,1,70,10|2,0:0|0:0,0:0:0:0:
134,181,87898,2,0,P|123:152|100:113,1,70,2|2,0:0|0:0,0:0:0:0:
201,267,88170,2,0,P|212:238|235:199,1,70,10|2,0:0|0:0,0:0:0:0:
357,155,88443,5,6,0:0:0:0:
357,155,88580,2,0,P|323:146|288:139,2,70,0|8|0,0:0|0:0|0:0,0:0:0:0:
437,212,88989,2,0,P|489:194|508:182,1,70,2|0,0:0|0:0,0:0:0:0:
434,298,89261,2,0,P|382:280|363:268,1,70,10|0,0:0|0:0,0:0:0:0:
279,232,89534,6,0,P|292:289|302:387,1,140,6|8,0:0|0:0,0:0:0:0:
205,345,89943,2,0,P|148:311|65:342,1,140,0|0,0:0|0:0,0:0:0:0:
15,253,90352,2,0,P|34:208|41:173,1,70,8|0,0:0|0:0,0:0:0:0:
132,156,90625,6,0,P|137:201|138:218,3,35,6|2|2|2,0:0|0:0|0:0|0:0,0:0:0:0:
208,132,90898,2,0,P|209:114|212:97,3,35,6|2|2|2,0:0|0:0|0:0|0:0,0:0:0:0:
276,173,91170,2,0,P|281:218|282:235,3,35,6|2|2|2,0:0|0:0|0:0|0:0,0:0:0:0:
348,140,91443,2,0,P|349:122|352:105,3,35,6|2|2|2,0:0|0:0|0:0|0:0,0:0:0:0:
409,196,91716,6,0,P|432:191|455:188,2,46.6666666666667,4|0|0,3:2|3:0|3:0,0:0:0:0:
382,281,91989,2,0,P|401:293|419:308,2,46.6666666666667,0|0|0,3:0|3:0|3:0,0:0:0:0:
303,322,92261,2,0,P|307:344|310:367,2,46.6666666666667,0|0|0,3:0|3:0|3:0,0:0:0:0:
225,277,92534,2,0,P|180:313|121:321,1,93.3333333333333,4|0,3:2|3:0,0:0:0:0:
81,259,92807,6,0,P|74:227|69:209,2,46.6666666666667,6|2|2,3:2|3:2|3:2,0:0:0:0:
151,203,93080,2,0,P|158:171|163:153,2,46.6666666666667,2|2|2,3:2|3:2|3:2,0:0:0:0:
239,192,93352,2,0,P|292:176|380:232,1,140,6|2,3:2|3:2,0:0:0:0:
505,65,93898,2,0,P|452:47|368:103,1,140,6|2,3:2|3:2,0:0:0:0:
365,209,94443,5,0,3:0:0:0:
301,143,94580,1,2,3:2:0:0:
301,143,94648,1,2,3:2:0:0:
301,143,94716,2,0,P|253:134|220:131,1,70,2|2,3:2|0:0,0:0:0:0:
149,91,94989,6,0,P|140:107|133:123,3,35,6|2|2|2,0:0|0:0|0:0|0:0,0:0:0:0:
149,164,95261,2,0,P|158:180|165:196,3,35,2|2|2|2,0:0|0:0|0:0|0:0,0:0:0:0:
174,241,95534,2,0,P|139:234|104:229,1,70,2|2,0:0|0:0,0:0:0:0:
145,326,95807,2,0,P|179:319|214:314,1,70,2|2,0:0|0:0,0:0:0:0:
340,272,96080,6,0,P|290:280|283:186,1,167.999994873047,2|2,3:2|3:2,0:0:0:0:
233,107,96489,2,0,P|286:148|345:117,1,140,4|2,3:2|0:0,0:0:0:0:
419,62,96898,2,0,L|430:114,3,35,2|2|2|2,0:0|0:0|0:0|0:0,0:0:0:0:
440,139,97170,6,0,B|420:206|420:206|431:289,1,140,2|2,3:2|3:2,0:0:0:0:
348,319,97580,2,0,P|240:306|192:302,1,140,6|2,3:2|0:0,0:0:0:0:
134,250,97989,2,0,L|85:263,3,35,2|2|2|2,0:0|0:0|0:0|0:0,0:0:0:0:
56,271,98261,6,0,B|30:191|30:191|51:107,1,140,4|0,3:2|3:0,0:0:0:0:
115,79,98670,1,0,0:0:0:0:
115,79,98807,2,0,P|174:92|270:102,1,140,6|2,3:2|3:2,0:0:0:0:
408,36,99352,6,0,B|420:50|420:50|422:83,2,46.6666666666667,6|2|2,3:2|3:2|3:2,0:0:0:0:
456,91,99625,2,0,B|455:112|455:112|436:132,2,46.6666666666667,2|2|2,3:2|3:2|3:2,0:0:0:0:
481,141,99898,2,0,P|449:186|355:182,1,140,6|2,3:2|3:2,0:0:0:0:
228,55,100443,6,0,P|240:126|249:217,1,140,6|8,0:0|0:0,0:0:0:0:
168,265,100852,1,2,0:0:0:0:
168,265,100989,2,0,P|107:259|75:257,1,70
178,354,101261,2,0,P|239:348|271:346,1,70,10|0,0:0|0:0,0:0:0:0:
342,287,101534,5,0,0:0:0:0:
342,287,101670,2,0,P|330:227|323:208,2,70,0|10|0,0:0|0:0|0:0,0:0:0:0:
430,216,102080,2,0,P|438:164|444:136,1,70,2|0,0:0|0:0,0:0:0:0:
332,124,102352,2,0,P|324:72|318:44,1,70,10|0,0:0|0:0,0:0:0:0:
210,77,102625,6,0,P|163:91|141:94,2,70,2|0|8,0:0|0:0|0:0,0:0:0:0:
273,187,103034,2,0,P|238:181|205:170,2,70,2|0|0,0:0|0:0|0:0,0:0:0:0:
362,255,103443,2,0,P|395:244|429:238,2,70,10|0|0,0:0|0:0|0:0,0:0:0:0:
294,345,103852,2,0,P|327:355|359:369,2,70,0|10|0,0:0|0:0|0:0,0:0:0:0:
209,270,104261,2,0,P|174:276|140:285,1,70,2|0,0:0|0:0,0:0:0:0:
29,300,104534,2,0,P|47:255|55:227,1,70,10|0,0:0|0:0,0:0:0:0:
135,157,104807,5,6,0:0:0:0:
135,157,104943,2,0,P|127:122|119:88,1,70,0|8,0:0|0:0,0:0:0:0:
230,107,105216,1,2,0:0:0:0:
230,107,105352,2,0,P|237:72|245:38,1,70,0|0,0:0|0:0,0:0:0:0:
337,103,105625,2,0,P|374:116|419:127,2,70,10|0|0,0:0|0:0|0:0,0:0:0:0:
276,197,106034,2,0,P|239:210|194:221,2,70,0|10|0,0:0|0:0|0:0,0:0:0:0:
385,222,106443,2,0,P|405:261|414:287,1,70,2|0,0:0|0:0,0:0:0:0:
301,296,106716,2,0,P|287:337|275:362,1,70,10|0,0:0|0:0,0:0:0:0:
179,303,106989,5,6,0:0:0:0:
179,303,107125,2,0,P|136:298|105:297,1,70,0|8,0:0|0:0,0:0:0:0:
50,201,107398,1,2,0:0:0:0:
50,201,107534,2,0,P|93:196|124:195,1,70,0|0,0:0|0:0,0:0:0:0:
195,111,107807,2,0,P|152:106|121:105,1,70,10|0,0:0|0:0,0:0:0:0:
255,42,108080,6,0,P|286:69|296:85,3,35,6|2|2|2,0:0|0:0|0:0|0:0,0:0:0:0:
337,58,108352,2,0,P|346:97|345:116,3,35,6|2|2|2,0:0|0:0|0:0|0:0,0:0:0:0:
393,122,108625,2,0,P|378:160|366:175,3,35,6|2|2|2,0:0|0:0|0:0|0:0,0:0:0:0:
415,200,108898,2,0,P|380:222|362:228,3,35,6|2|2|2,0:0|0:0|0:0|0:0,0:0:0:0:
360,269,109170,6,0,P|326:259|291:253,1,70,14|0,3:2|3:2,0:0:0:0:
225,344,109443,2,0,P|192:334|157:328,1,70,8|2,3:2|3:2,0:0:0:0:
203,225,109716,2,0,P|169:215|134:209,1,70,8|0,3:2|3:2,0:0:0:0:
68,300,109989,2,0,P|35:290|0:284,1,70,10|0,3:2|3:2,0:0:0:0:
49,184,110261,6,0,P|37:134|30:93,1,70,8|2,3:2|3:2,0:0:0:0:
113,36,110534,2,0,P|125:86|132:127,1,70,8|0,3:2|3:2,0:0:0:0:
168,209,110807,2,0,P|188:173|209:143,1,70,10|0,3:2|3:2,0:0:0:0:
315,131,111080,2,0,P|295:167|274:197,1,70,10|0,3:2|3:2,0:0:0:0:
229,290,111352,6,0,P|281:286|305:283,1,70,10|0,3:2|3:2,0:0:0:0:
185,371,111625,2,0,P|237:367|261:364,1,70,8|2,3:2|3:2,0:0:0:0:
382,291,111898,2,0,P|330:295|306:298,1,70,8|0,3:2|3:2,0:0:0:0:
426,210,112171,2,0,P|374:214|350:217,1,70,10|0,3:2|3:2,0:0:0:0:
300,118,112443,6,0,P|286:151|279:185,1,70,8|2,3:2|3:2,0:0:0:0:
179,82,112716,2,0,P|192:114|199:148,1,70,8|0,3:2|3:2,0:0:0:0:
174,258,112989,2,0,P|141:224|120:203,1,70,10|0,3:2|3:2,0:0:0:0:
267,280,113261,2,0,P|299:261|333:241,1,70,10|0,3:2|3:2,0:0:0:0:
437,320,113534,5,14,3:2:0:0:
437,320,113670,2,0,P|382:315|351:309,1,70,2|10,3:2|3:2,0:0:0:0:
396,196,113943,1,2,3:2:0:0:
396,196,114079,2,0,P|341:201|310:207,1,70,10|2,3:2|3:2,0:0:0:0:
249,112,114352,5,10,3:2:0:0:
249,112,114489,2,0,P|229:149|213:189,1,70,2|10,3:2|3:2,0:0:0:0:
114,225,114761,1,2,3:2:0:0:
114,225,114898,2,0,P|140:261|167:294,1,70,10|2,3:2|3:2,0:0:0:0:
262,313,115170,6,0,P|296:310|331:309,1,70,14|0,3:2|3:2,0:0:0:0:
177,368,115443,2,0,P|142:365|107:364,1,70,14|0,3:2|3:2,0:0:0:0:
30,292,115716,6,0,P|18:324|10:358,2,70,14|0|10,3:2|3:2|3:2,0:0:0:0:
114,200,116125,2,0,P|125:232|133:266,2,70,4|10|0,3:2|3:2|3:2,0:0:0:0:
232,235,116534,2,0,P|278:257|376:283,1,140,14|8,3:2|3:2,0:0:0:0:
442,222,116943,5,2,3:2:0:0:
469,135,117079,1,2,3:2:0:0:
399,77,117215,1,2,3:2:0:0:
315,113,117352,2,0,P|266:122|230:125,1,70,2|2,3:2|3:2,0:0:0:0:
157,211,117625,2,0,P|206:220|242:223,1,70,2|2,3:2|3:2,0:0:0:0:
344,271,117898,2,0,P|371:264|402:257,3,46.6666666666667,4|4|4|4,3:0|3:0|3:0|3:0,0:0:0:0:
344,271,118443,5,6,3:2:0:0:
256,192,118580,12,0,122261,0:0:0:0:
