osu file format v14

[General]
AudioFilename: audio.mp3
AudioLeadIn: 0
PreviewTime: 82443
Countdown: 0
SampleSet: Soft
StackLeniency: 0.5
Mode: 0
LetterboxInBreaks: 0
WidescreenStoryboard: 0

[Editor]
Bookmarks: 13760,29243,80730
DistanceSpacing: 1
BeatDivisor: 4
GridSize: 4
TimelineZoom: 2.2

[Metadata]
Title:Preserved Valkyria
TitleUnicode:Preserved Valkyria
Artist:penoreri
ArtistUnicode:ぺのれり
Creator:Kroytz
Version:Zexous' INFINITE
Source:SOUND VOLTEX III GRAVITY WARS
Tags:sdvx konami arcade championship kac song contest Renumi Akitoshi -Laura- pkk Sharkie Zexous Kawashiro Fushimi Rio
BeatmapID:1366191
BeatmapSetID:644642

[Difficulty]
HPDrainRate:5
CircleSize:4
OverallDifficulty:7.8
ApproachRate:9
SliderMultiplier:1.5
SliderTickRate:1

[Events]
//Background and Video events
0,0,"BG.png",0,0
//Break Periods
2,29314,32514
//Storyboard Layer 0 (Background)
//Storyboard Layer 1 (Fail)
//Storyboard Layer 2 (Pass)
//Storyboard Layer 3 (Foreground)
//Storyboard Sound Samples

[TimingPoints]
1373,387.096774193548,4,2,1,40,1,0
7953,-90.9090909090909,4,2,1,45,0,0
8340,-83.3333333333333,4,2,1,50,0,0
8727,-76.9230769230769,4,2,1,55,0,0
9114,-71.4285714285714,4,2,1,60,0,0
9502,-66.6666666666667,4,2,1,65,0,0
9889,-62.5,4,2,1,70,0,0
10082,-58.8235294117647,4,2,1,75,0,0
10276,-55.5555555555556,4,2,1,80,0,0
10469,-52.6315789473684,4,2,1,85,0,0
10663,-100,4,2,1,40,0,0
13760,-100,4,2,1,50,0,0
19953,-100,4,2,1,60,0,0
26147,-100,4,2,1,70,0,0
27695,-100,4,2,1,80,0,0
33114,-100,4,1,1,80,0,0
35243,-100,4,2,1,5,0,0
35437,-100,4,1,1,80,0,0
38437,-100,4,1,1,40,0,0
39308,-100,4,1,1,80,0,0
44663,-100,4,2,1,40,0,0
45502,-100,4,2,1,20,0,0
46276,400,4,2,1,20,1,0
46676,413.793103448276,4,2,1,40,1,0
47089,461.538461538462,4,2,1,40,1,0
47550,530.973451327434,4,2,1,40,1,0
48080,272.727272727273,4,2,1,50,1,0
52443,-100,4,2,1,60,0,0
54625,-100,4,2,1,70,0,0
55716,-100,4,2,1,80,0,0
56807,-90.9090909090909,4,2,1,80,0,1
65534,-142.857142857143,4,2,1,80,0,0
65943,-142.857142857143,4,2,1,30,0,0
66352,-142.857142857143,4,2,1,20,0,0
67716,-142.857142857143,4,2,1,35,0,0
68534,-142.857142857143,4,2,1,20,0,0
71534,-142.857142857143,4,2,1,15,0,0
71807,-142.857142857143,4,2,1,10,0,0
72080,-142.857142857143,4,2,1,20,0,0
72761,-142.857142857143,4,2,1,15,0,0
73034,-142.857142857143,4,2,1,10,0,0
73716,-142.857142857143,4,2,1,20,0,0
80261,-142.857142857143,4,2,1,25,0,0
80398,-142.857142857143,4,2,1,30,0,0
80534,-142.857142857143,4,2,1,35,0,0
80670,-142.857142857143,4,2,1,40,0,0
80807,-100,4,2,1,60,0,0
82989,-83.3333333333333,4,2,1,80,0,1
100307,-83.3333333333333,4,2,1,80,0,0
100443,-83.3333333333333,4,2,1,80,0,1
100511,-83.3333333333333,4,2,1,80,0,0
100716,-100,4,2,1,70,0,0
109170,-90.9090909090909,4,2,1,80,0,1
117898,-90.9090909090909,4,2,1,80,0,0
118511,-90.9090909090909,4,2,1,25,0,0
122261,-90.9090909090909,4,2,1,10,0,0

[Colours]
Combo1 : 192,68,192
Combo2 : 255,68,68
Combo3 : 255,128,68
Combo4 : 255,255,85
Combo5 : 96,255,68
Combo6 : 0,128,255

[HitObjects]
70,282,1373,6,0,B|108:285|143:271|143:271|181:256|219:261,2,150,4|2|2,0:0|0:0|0:0,0:0:0:0:
125,159,2437,2,0,P|119:113|81:46,1,112.5,2|2,0:0|0:0,0:0:0:0:
268,67,3114,2,0,P|319:77|427:57,1,150,2|0,0:0|0:0,0:0:0:0:
414,62,3695,2,0,L|390:188,1,112.5,2|2,0:0|0:0,0:0:0:0:
448,296,4276,5,2,0:0:0:0:
273,340,4663,1,2,0:0:0:0:
236,332,4759,1,2,0:0:0:0:
199,324,4856,1,2,0:0:0:0:
162,316,4953,1,2,0:0:0:0:
126,308,5050,1,2,0:0:0:0:
52,144,5437,5,0,0:0:0:0:
123,87,5631,1,2,0:0:0:0:
136,176,5824,1,2,0:0:0:0:
256,116,6114,1,2,0:0:0:0:
281,88,6211,5,2,0:0:0:0:
293,122,6307,1,2,0:0:0:0:
324,142,6404,1,2,0:0:0:0:
361,139,6501,1,2,0:0:0:0:
388,115,6598,1,2,0:0:0:0:
395,79,6694,1,2,0:0:0:0:
379,46,6792,2,0,B|329:30|329:30|286:35|286:35|231:22,1,150,2|2,0:0|0:0,0:0:0:0:
53,180,7566,6,0,L|186:211,1,112.5,6|2,0:0|0:0,0:0:0:0:
202,214,7953,2,0,P|244:188|329:185,1,123.75000377655,2|2,0:0|0:0,0:0:0:0:
354,207,8340,2,0,B|400:213|400:213|468:134,1,134.999995880127,2|2,0:0|0:0,0:0:0:0:
459,96,8727,2,0,P|407:68|331:120,1,146.249993305207,2|2,0:0|0:0,0:0:0:0:
286,122,9114,2,0,L|316:282,1,157.499995193482,2|2,0:0|0:0,0:0:0:0:
352,319,9502,2,0,P|303:272|205:296,1,168.750006437302,2|2,0:0|0:0,0:0:0:0:
178,340,9889,6,0,L|132:278,1,60,2|0,0:0|0:0,0:0:0:0:
170,165,10082,2,0,L|217:230,1,63.7500012159348,2|0,0:0|0:0,0:0:0:0:
43,209,10276,2,0,L|-5:143,1,67.4999979400635,2|0,0:0|0:0,0:0:0:0:
126,0,10469,2,0,L|172:67,1,71.2499980974198,2|0,0:0|0:0,0:0:0:0:
260,106,10663,5,2,0:0:0:0:
260,106,10792,2,0,P|295:99|316:86,1,50,2|2,0:0|0:0,0:0:0:0:
399,57,11050,1,2,0:0:0:0:
399,57,11179,2,0,P|387:90|388:115,1,50,2|2,0:0|0:0,0:0:0:0:
371,201,11437,1,2,0:0:0:0:
371,201,11566,2,0,P|347:174|325:162,1,50,2|2,0:0|0:0,0:0:0:0:
248,200,11824,2,0,L|189:212,2,50,2|2|2,0:0|0:0|0:0,0:0:0:0:
303,297,12211,5,2,0:0:0:0:
177,283,12405,1,2,0:0:0:0:
145,264,12501,1,2,0:0:0:0:
125,232,12598,1,2,0:0:0:0:
123,195,12695,1,2,0:0:0:0:
138,161,12792,1,2,0:0:0:0:
167,138,12888,1,2,0:0:0:0:
204,132,12985,2,0,B|259:154|259:154|300:128|346:133,1,150,2|2,0:0|0:0,0:0:0:0:
125,33,13760,6,0,L|45:54,1,75,6|2,0:0|0:0,0:0:0:0:
16,134,14147,2,0,P|12:176|23:214,1,75,2|2,0:0|0:0,0:0:0:0:
114,249,14534,2,0,P|118:207|107:169,1,75,2|2,0:0|0:0,0:0:0:0:
109,175,14824,1,2,0:0:0:0:
109,175,14921,1,2,0:0:0:0:
5,350,15114,1,2,0:0:0:0:
5,350,15211,1,2,0:0:0:0:
5,350,15308,6,0,L|85:329,1,75,2|2,0:0|0:0,0:0:0:0:
164,308,15695,1,2,0:0:0:0:
242,352,15889,2,0,L|289:362,2,37.5,2|2|2,0:0|0:0|0:0,0:0:0:0:
242,261,16276,1,2,0:0:0:0:
328,235,16469,1,2,0:0:0:0:
400,290,16663,5,2,0:0:0:0:
400,290,16760,1,2,0:0:0:0:
400,290,16856,1,2,0:0:0:0:
464,226,17050,2,0,L|503:213,2,37.5,2|2|2,0:0|0:0|0:0,0:0:0:0:
418,148,17437,1,2,0:0:0:0:
427,131,17533,1,2,0:0:0:0:
431,113,17630,1,2,0:0:0:0:
429,95,17727,1,2,0:0:0:0:
422,77,17824,1,2,0:0:0:0:
410,63,17920,1,2,0:0:0:0:
394,53,18017,1,2,0:0:0:0:
308,81,18211,1,2,0:0:0:0:
236,25,18405,6,0,L|179:33,2,37.5,2|2|2,0:0|0:0|0:0,0:0:0:0:
153,102,18792,1,2,0:0:0:0:
134,102,18888,1,2,0:0:0:0:
116,98,18985,1,2,0:0:0:0:
99,90,19082,1,2,0:0:0:0:
84,78,19179,2,0,L|0:97,1,75,2|2,0:0|0:0,0:0:0:0:
108,180,19566,2,0,L|192:161,1,75,2|2,0:0|0:0,0:0:0:0:
88,281,19953,6,0,L|72:309,5,25,6|2|2|2|2|2,0:0|0:0|0:0|0:0|0:0|0:0,0:0:0:0:
119,331,20340,2,0,L|119:363,5,25,2|2|2|2|2|2,0:0|0:0|0:0|0:0|0:0|0:0,0:0:0:0:
179,280,20727,1,2,0:0:0:0:
313,354,20921,2,0,L|223:344,1,75,2|2,0:0|0:0,0:0:0:0:
263,259,21308,1,2,0:0:0:0:
400,285,21502,6,0,P|440:241|434:169,1,112.5,6|0,0:0|0:0,0:0:0:0:
439,114,21889,2,0,L|320:133,1,112.5,2|0,0:0|0:0,0:0:0:0:
253,143,22276,1,2,0:0:0:0:
107,58,22469,6,0,P|149:64|177:83,1,75,4|0,0:0|0:0,0:0:0:0:
46,108,22760,2,0,P|30:68|32:34,1,75,4|0,0:0|0:0,0:0:0:0:
120,136,23050,5,4,3:2:0:0:
116,154,23146,1,0,3:2:0:0:
112,172,23243,1,0,3:2:0:0:
108,191,23340,1,0,3:2:0:0:
92,279,23534,1,0,3:2:0:0:
181,358,23727,2,0,L|187:314,1,37.5,0|0,3:2|3:2,0:0:0:0:
260,229,24018,2,0,L|266:273,1,37.5,0|0,3:2|3:2,0:0:0:0:
344,353,24308,1,0,3:2:0:0:
344,353,24502,1,0,3:2:0:0:
431,277,24695,5,0,3:2:0:0:
418,263,24791,1,0,3:2:0:0:
405,249,24888,1,0,3:2:0:0:
354,174,25082,1,0,3:2:0:0:
434,84,25276,2,0,L|407:43,1,37.5,0|0,3:2|3:2,0:0:0:0:
299,90,25566,2,0,L|272:131,1,37.5,0|0,3:2|3:2,0:0:0:0:
174,60,25856,1,0,3:2:0:0:
174,60,26050,1,0,3:2:0:0:
174,60,26147,6,0,L|135:47,3,37.5,6|2|2|2,3:2|3:2|3:2|3:2,0:0:0:0:
44,123,26631,2,0,P|12:160|0:189,1,75,2|0,3:2|3:2,0:0:0:0:
2,202,26921,2,0,L|88:193,1,75,2|0,3:2|3:2,0:0:0:0:
96,195,27211,1,2,3:2:0:0:
166,292,27405,1,2,3:2:0:0:
166,292,27598,1,2,3:2:0:0:
166,292,27695,6,0,L|208:322,3,37.5,6|2|2|2,3:2|3:2|3:2|3:2,0:0:0:0:
289,236,28179,2,0,P|335:227|366:228,1,75,2|0,3:2|3:2,0:0:0:0:
380,236,28469,1,6,3:2:0:0:
397,254,28598,6,2,L|386:320,4,50,2|2|2|2|2,3:2|3:2|3:2|3:2|3:2,3:2:0:0:
256,192,33114,5,4,1:0:0:0:
256,192,33211,12,4,33889,0:0:0:0:
256,192,33985,12,0,35243,0:0:0:0:
256,192,35437,5,4,0:0:0:0:
256,192,35534,12,8,38147,3:2:0:0:
181,239,38437,5,8,3:0:0:0:
197,247,38534,1,4,3:0:0:0:
215,243,38630,1,4,3:3:0:0:
233,240,38727,1,4,3:0:0:0:
252,236,38824,1,4,3:3:0:0:
268,245,38921,1,8,3:0:0:0:
287,242,39017,1,4,3:3:0:0:
305,239,39114,1,4,3:0:0:0:
324,235,39211,1,4,3:3:0:0:
341,242,39308,5,4,0:0:0:0:
256,192,39405,12,4,40082,0:0:0:0:
256,192,40179,12,0,41437,2:0:0:0:
256,192,41631,5,4,0:0:0:0:
256,192,41727,12,0,44663,0:0:0:0:
141,331,45502,5,2,0:0:0:0:
55,303,45695,1,2,0:0:0:0:
55,213,45889,1,2,0:0:0:0:
141,185,46082,1,2,0:0:0:0:
193,258,46276,1,2,0:0:0:0:
407,299,47089,6,0,L|389:134,1,150,2|2,0:0|0:0,0:0:0:0:
400,122,48080,6,0,L|321:93,1,75,6|2,0:0|0:0,0:0:0:0:
285,18,48352,1,2,0:0:0:0:
285,18,48489,2,0,L|206:47,1,75,2|2,0:0|0:0,0:0:0:0:
174,124,48761,1,2,0:0:0:0:
174,124,48898,2,0,L|95:95,1,75,2|2,0:0|0:0,0:0:0:0:
70,14,49170,1,2,0:0:0:0:
70,14,49307,2,0,L|-9:43,2,75,2|2|2,0:0|0:0|0:0,0:0:0:0:
29,113,49716,5,2,0:0:0:0:
78,187,49852,1,2,0:0:0:0:
3,272,49989,1,2,0:0:0:0:
52,346,50125,1,2,0:0:0:0:
154,280,50261,6,0,P|199:271|232:274,2,75,2|2|2,0:0|0:0|0:0,0:0:0:0:
204,355,50670,2,0,P|241:356|277:348,2,75,2|2|2,0:0|0:0|0:0,0:0:0:0:
308,263,51080,2,0,P|353:254|386:257,1,75,2|2,0:0|0:0,0:0:0:0:
398,329,51352,5,2,0:0:0:0:
398,329,51489,2,0,L|377:237,1,75,2|2,0:0|0:0,0:0:0:0:
366,167,51761,1,2,0:0:0:0:
366,45,51898,1,2,0:0:0:0:
294,143,52034,1,2,0:0:0:0:
410,106,52170,1,2,0:0:0:0:
294,68,52307,1,2,0:0:0:0:
195,101,52443,6,0,L|117:123,1,75,6|2,0:0|0:0,0:0:0:0:
47,199,52716,1,2,0:0:0:0:
47,199,52852,2,0,P|37:156|18:119,1,75,2|2,0:0|0:0,0:0:0:0:
160,205,53125,1,2,0:0:0:0:
160,205,53261,2,0,P|144:239|136:275,1,75,2|2,0:0|0:0,0:0:0:0:
0,342,53534,1,2,0:0:0:0:
0,342,53670,2,0,L|78:320,2,75,2|2|2,0:0|0:0|0:0,0:0:0:0:
154,367,54080,5,6,0:0:0:0:
202,290,54216,1,2,0:0:0:0:
285,367,54352,1,2,0:0:0:0:
333,290,54489,1,2,0:0:0:0:
386,187,54625,6,0,L|364:98,2,75,6|2|2,0:0|0:0|0:0,0:0:0:0:
271,90,55034,2,0,L|293:179,2,75,2|2|2,0:0|0:0|0:0,0:0:0:0:
190,137,55443,2,0,L|173:65,1,75,2|2,0:0|0:0,0:0:0:0:
70,117,55716,5,6,3:2:0:0:
30,194,55852,1,2,3:2:0:0:
64,275,55988,1,6,3:2:0:0:
147,302,56125,1,2,3:2:0:0:
221,256,56262,1,6,3:2:0:0:
252,235,56330,1,2,3:2:0:0:
289,232,56398,1,2,3:2:0:0:
322,249,56466,1,2,3:2:0:0:
343,279,56535,1,6,3:2:0:0:
373,300,56603,1,2,3:2:0:0:
410,299,56671,1,2,3:2:0:0:
438,275,56739,1,2,3:2:0:0:
445,239,56807,6,0,L|414:152,1,82.5000025177003,6|0,0:2|0:0,0:0:0:0:
390,66,57080,1,10,0:2:0:0:
390,66,57216,2,0,P|346:54|306:53,1,82.5000025177003,2|0,0:2|0:2,0:0:0:0:
265,142,57489,1,2,0:0:0:0:
209,60,57625,6,0,L|252:-12,1,82.5000025177003,10|0,0:2|0:0,0:0:0:0:
265,142,57898,1,2,0:0:0:0:
166,150,58034,2,0,P|127:120|111:86,2,82.5000025177003,2|8|2,0:2|0:2|0:0,0:0:0:0:
283,119,58443,6,0,L|370:138,1,82.5000025177003,2|0,0:2|0:2,0:0:0:0:
299,248,58716,2,0,L|218:230,1,82.5000025177003,10|0,0:2|0:2,0:0:0:0:
365,303,58989,6,0,P|386:263|383:223,1,82.5000025177003,2|0,0:2|0:0,0:0:0:0:
310,384,59261,1,10,0:2:0:0:
241,311,59398,2,0,L|160:293,2,82.5000025177003,2|0|2,0:2|0:0|0:0,0:0:0:0:
103,237,59807,2,0,P|82:277|85:317,1,82.5000025177003,10|0,0:2|0:0,0:0:0:0:
168,183,60080,5,2,0:2:0:0:
90,75,60216,1,2,0:2:0:0:
217,116,60352,1,8,0:2:0:0:
90,157,60489,1,2,0:0:0:0:
169,49,60625,2,0,L|256:35,1,82.5000025177003,2|0,0:2|0:2,0:0:0:0:
90,157,60898,2,0,P|41:143|19:115,1,82.5000025177003,10|0,0:2|0:2,0:0:0:0:
217,116,61170,6,0,L|304:102,1,82.5000025177003,6|0,0:2|0:0,0:0:0:0:
394,130,61443,1,10,0:2:0:0:
394,130,61580,2,0,P|395:86|374:41,1,82.5000025177003,2|0,0:2|0:0,0:0:0:0:
316,192,61852,1,2,0:0:0:0:
316,192,61989,6,0,P|315:232|330:271,1,82.5000025177003,10|0,0:2|0:0,0:0:0:0:
411,219,62261,1,2,0:0:0:0:
411,219,62398,2,0,L|493:206,2,82.5000025177003,2|8|2,0:2|0:2|0:0,0:0:0:0:
389,335,62807,6,0,L|302:349,1,82.5000025177003,6|0,0:2|0:0,0:0:0:0:
216,307,63080,2,0,L|129:293,1,82.5000025177003,10|0,0:2|0:0,0:0:0:0:
49,339,63352,5,6,0:2:0:0:
37,299,63420,1,2,0:0:0:0:
42,259,63488,1,2,0:2:0:0:
63,224,63556,1,2,0:0:0:0:
97,201,63624,1,2,0:2:0:0:
138,193,63692,1,2,0:2:0:0:
177,203,63761,1,6,0:2:0:0:
218,196,63830,1,2,0:2:0:0:
247,167,63898,2,0,L|254:121,3,41.2500012588501,2|2|10|2,0:2|0:2|0:2|0:2,0:0:0:0:
230,92,64170,2,0,L|237:46,3,41.2500012588501,6|2|2|2,0:2|0:2|0:2|0:2,0:0:0:0:
307,26,64443,5,6,0:2:0:0:
307,26,64580,2,0,L|403:18,1,82.5000025177003,2|2,0:2|0:2,0:0:0:0:
167,138,64852,1,2,0:2:0:0:
167,138,64989,2,0,L|71:146,1,82.5000025177003,6|2,0:2|0:2,0:0:0:0:
57,113,65193,1,2,0:2:0:0:
30,81,65261,2,0,L|-27:85,2,55.0000016784668,8|8|8,3:0|3:0|3:0,0:0:0:0:
32,234,65534,5,6,0:0:0:0:
164,308,65943,2,0,P|231:277|329:300,1,157.499995193482,2|2,0:0|0:0,0:0:0:0:
311,289,66898,1,2,0:0:0:0:
355,194,67170,1,2,0:0:0:0:
398,98,67443,1,2,0:0:0:0:
501,289,67716,5,2,0:0:0:0:
133,62,68534,1,2,0:0:0:0:
133,62,68670,1,2,0:0:0:0:
62,314,69489,1,2,0:0:0:0:
110,335,69626,1,2,0:0:0:0:
159,319,69762,1,2,0:0:0:0:
205,342,69898,6,0,L|275:355,1,52.4999983978272,2|2,0:0|0:0,0:0:0:0:
225,309,70170,2,0,L|289:339,1,52.4999983978272,2|2,0:0|0:0,0:0:0:0:
252,282,70443,2,0,L|306:328,1,52.4999983978272,2|2,0:0|0:0,0:0:0:0:
285,263,70716,2,0,L|325:321,1,52.4999983978272,2|2,0:0|0:0,0:0:0:0:
339,302,70989,5,2,0:0:0:0:
339,302,71125,2,0,L|322:253,1,52.4999983978272,2|2,0:0|0:0,0:0:0:0:
403,186,71534,1,2,0:0:0:0:
344,98,71807,1,2,0:0:0:0:
415,21,72080,6,0,P|358:-3|310:2,1,104.999996795654,2|2,0:0|0:0,0:0:0:0:
275,34,72489,2,0,L|159:50,2,104.999996795654,2|2|2,0:0|0:0|0:0,0:0:0:0:
58,182,73716,1,2,0:0:0:0:
135,252,73989,1,2,0:0:0:0:
0,359,74261,5,2,0:0:0:0:
444,110,74943,1,2,0:0:0:0:
413,68,75080,1,2,0:0:0:0:
363,84,75216,1,2,0:0:0:0:
363,136,75352,2,0,B|380:178|422:189|422:189|464:201|482:241,2,157.499995193482,2|2|2,0:0|0:0|0:0,0:0:0:0:
276,76,76443,6,0,P|221:73|168:94,1,104.999996795654,2|2,0:0|0:0,0:0:0:0:
146,134,76852,2,0,L|110:31,1,104.999996795654,2|2,0:0|0:0,0:0:0:0:
60,20,77261,1,2,0:0:0:0:
16,49,77398,1,2,0:0:0:0:
15,101,77534,1,2,0:0:0:0:
130,313,77807,5,2,0:0:0:0:
80,296,77943,1,2,0:0:0:0:
80,244,78080,1,2,0:0:0:0:
130,228,78216,1,2,0:0:0:0:
160,270,78352,1,2,0:0:0:0:
212,278,78489,1,2,0:0:0:0:
255,248,78625,6,0,L|247:190,1,52.4999983978272,2|2,0:0|0:0,0:0:0:0:
190,137,78898,2,0,L|182:79,1,52.4999983978272,2|2,0:0|0:0,0:0:0:0:
122,29,79170,2,0,P|175:2|227:16,1,104.999996795654,2|2,0:0|0:0,0:0:0:0:
392,108,79580,2,0,P|339:135|287:121,1,104.999996795654,2|2,0:0|0:0,0:0:0:0:
331,52,79989,1,2,0:0:0:0:
376,27,80125,1,2,0:0:0:0:
427,34,80261,1,2,0:0:0:0:
464,70,80398,1,2,0:0:0:0:
472,121,80534,1,2,0:0:0:0:
449,167,80670,1,2,0:2:0:0:
382,233,80807,6,0,L|223:210,1,150,14|14,3:2|3:2,0:0:0:0:
155,166,81216,2,0,B|101:223|101:223|112:304,1,150,10|14,3:2|3:2,0:0:0:0:
233,211,81625,2,0,P|243:171|236:133,1,75,0|0,3:2|3:2,0:0:0:0:
121,67,81898,5,4,3:2:0:0:
52,180,82034,1,0,3:2:0:0:
86,306,82170,1,4,3:2:0:0:
155,193,82306,1,0,3:2:0:0:
114,52,82443,6,0,B|148:74|187:66|187:66|226:59|258:75,1,150,2|2,0:0|0:0,0:0:0:0:
269,89,82989,6,0,P|356:108|429:50,1,179.999994506836,6|2,0:0|0:0,0:0:0:0:
331,6,83398,2,0,L|376:203,1,179.999994506836,6|2,0:0|0:0,0:0:0:0:
392,287,83807,1,4,0:1:0:0:
475,218,83943,2,0,P|393:179|311:218,1,179.999994506836,2|0,0:0|0:0,0:0:0:0:
200,302,84352,2,0,L|289:317,1,89.9999972534181,10|0,0:0|0:0,0:0:0:0:
213,198,84625,2,0,L|124:183,1,89.9999972534181,2|0,0:0|0:0,0:0:0:0:
15,339,84898,2,0,L|103:353,1,89.9999972534181,10|0,0:0|0:0,0:0:0:0:
57,230,85170,6,0,P|48:151|139:100,1,179.999994506836,2|8,0:0|0:0,0:0:0:0:
340,28,85580,2,0,B|256:60|256:60|172:28,1,179.999994506836,0|0,0:0|0:0,0:0:0:0:
388,98,85989,1,10,0:0:0:0:
388,98,86125,2,0,P|461:144|455:230,1,179.999994506836,2|0,0:0|0:0,0:0:0:0:
212,196,86534,2,0,B|260:207|300:188|300:188|338:169|388:183,1,179.999994506836,8|0,0:0|0:0,0:0:0:0:
339,280,86943,2,0,L|323:371,2,89.9999972534181,2|10|2,0:0|0:0|0:0,0:0:0:0:
149,283,87352,5,6,0:0:0:0:
149,283,87489,1,2,0:0:0:0:
46,142,87625,1,10,0:0:0:0:
46,142,87761,1,2,0:0:0:0:
212,196,87898,1,2,0:0:0:0:
212,196,88034,1,2,0:0:0:0:
46,250,88170,1,10,0:0:0:0:
46,250,88307,1,2,0:0:0:0:
149,109,88443,6,0,P|195:87|249:91,1,89.9999972534181,6|2,0:0|0:0,0:0:0:0:
397,138,88716,2,0,P|351:160|297:156,1,89.9999972534181,8|0,0:0|0:0,0:0:0:0:
334,51,88989,1,2,0:0:0:0:
334,51,89125,1,0,0:0:0:0:
376,255,89261,1,10,0:0:0:0:
376,255,89397,1,0,0:0:0:0:
171,221,89534,6,0,P|108:228|48:341,1,179.999994506836,6|8,0:0|0:0,0:0:0:0:
266,272,89943,2,0,L|248:168,1,89.9999972534181,2|0,0:0|0:0,0:0:0:0:
162,42,90216,1,2,0:0:0:0:
162,42,90284,1,2,0:0:0:0:
162,42,90352,2,0,L|180:146,1,89.9999972534181,10|0,0:0|0:0,0:0:0:0:
14,78,90625,5,6,0:0:0:0:
53,99,90693,1,2,0:0:0:0:
97,99,90761,1,2,0:0:0:0:
136,78,90829,1,2,0:0:0:0:
162,42,90898,1,6,0:0:0:0:
202,22,90966,1,2,0:0:0:0:
246,21,91034,1,2,0:0:0:0:
285,43,91102,1,2,0:0:0:0:
305,83,91170,2,0,L|297:127,3,44.999998626709,6|2|2|2,0:0|0:0|0:0|0:0,0:0:0:0:
384,49,91443,2,0,L|421:24,3,44.999998626709,6|2|2|2,0:0|0:0|0:0|0:0,0:0:0:0:
448,115,91716,5,2,1:2:0:0:
474,166,91807,1,2,0:0:0:0:
451,220,91898,1,2,0:0:0:0:
396,237,91989,2,2,P|371:264|361:286,2,59.9999981689454,2|2|2,1:2|0:0|0:0,0:0:0:0:
431,335,92261,2,2,L|496:357,1,59.9999981689454,2|2,1:2|0:0,0:0:0:0:
356,367,92443,5,2,0:0:0:0:
356,367,92534,2,2,L|291:345,2,59.9999981689454,2|2|2,1:2|0:0|0:0,0:0:0:0:
246,291,92807,5,2,1:2:0:0:
197,256,92898,1,2,0:0:0:0:
145,280,92989,1,2,0:0:0:0:
96,311,93080,1,2,1:2:0:0:
42,287,93170,2,2,L|15:221,1,59.9999981689454
53,86,93352,5,2,1:2:0:0:
112,95,93443,1,2,0:0:0:0:
166,107,93534,1,2,0:0:0:0:
136,160,93625,1,2,1:2:0:0:
107,212,93716,2,2,L|70:138,1,59.9999981689454
219,178,93898,6,2,L|281:205,2,59.9999981689454,2|2|2,1:2|0:0|0:0,0:0:0:0:
182,32,94170,2,2,L|120:5,2,59.9999981689454,2|2|2,1:2|0:0|0:0,0:0:0:0:
136,122,94443,1,2,1:2:0:0:
261,47,94580,6,0,L|295:15,2,44.999998626709,2|2|2,3:2|3:2|3:2,0:0:0:0:
319,109,94852,1,2,0:0:0:0:
388,50,94989,5,6,0:0:0:0:
408,89,95057,1,2,0:0:0:0:
407,134,95125,1,2,0:0:0:0:
385,172,95193,1,2,0:0:0:0:
348,196,95261,2,0,L|303:191,3,44.999998626709,2|2|2|2,0:0|0:0|0:0|0:0,0:0:0:0:
357,240,95534,5,2,0:0:0:0:
333,277,95602,1,2,0:0:0:0:
294,299,95670,1,2,0:0:0:0:
250,299,95739,1,2,0:0:0:0:
210,279,95807,2,0,L|187:226,3,44.999998626709,2|2|2|2,0:0|0:0|0:0|0:0,0:0:0:0:
134,295,96080,6,0,B|109:226|109:226|164:127,1,179.999994506836,2|2,3:2|3:2,0:0:0:0:
271,0,96489,2,0,B|296:69|296:69|241:168,1,179.999994506836,4|2,3:2|0:0,0:0:0:0:
211,64,96898,1,2,0:0:0:0:
211,64,96966,1,2,0:0:0:0:
211,64,97034,1,2,0:0:0:0:
41,57,97170,6,0,B|125:91|125:91|212:63,1,179.999994506836,2|2,3:2|3:2,0:0:0:0:
472,223,97580,2,0,B|388:189|388:189|301:217,1,179.999994506836,6|2,3:2|0:0,0:0:0:0:
257,141,97989,1,2,0:0:0:0:
257,141,98057,1,2,0:0:0:0:
257,141,98125,1,2,0:0:0:0:
161,189,98261,6,0,L|116:182,7,44.999998626709,4|0|0|0|0|0|0|0,3:2|3:0|3:0|3:0|3:0|3:0|3:0|3:0,0:0:0:0:
114,255,98807,2,0,L|77:281,7,44.999998626709,6|0|0|0|2|0|0|0,3:2|3:0|3:0|3:0|3:2|3:0|3:0|3:0,0:0:0:0:
127,334,99352,2,0,L|120:378,7,44.999998626709,6|0|0|0|2|0|0|0,3:2|3:0|3:0|3:0|3:2|3:0|3:0|3:0,0:0:0:0:
201,298,99898,1,6,3:2:0:0:
232,266,99966,1,0,3:0:0:0:
275,256,100034,1,0,3:0:0:0:
317,270,100102,1,0,3:0:0:0:
345,305,100170,1,2,3:2:0:0:
385,285,100239,1,0,3:0:0:0:
409,247,100307,1,0,3:0:0:0:
409,203,100375,1,0,3:0:0:0:
385,165,100443,5,6,0:0:0:0:
306,3,100716,1,10,0:0:0:0:
306,3,100852,2,0,P|292:45|293:81,1,75,2|2,0:0|0:0,0:0:0:0:
292,165,101125,1,2,0:0:0:0:
292,165,101261,6,0,L|203:143,1,75,10|2,0:0|0:0,0:0:0:0:
178,66,101534,2,0,P|145:91|130:127,1,75,2|2,0:0|0:0,0:0:0:0:
181,274,101807,2,0,P|175:232|152:201,1,75,10|2,0:0|0:0,0:0:0:0:
0,173,102080,6,0,P|38:189|76:184,1,75,2|2,0:0|0:0,0:0:0:0:
46,99,102352,1,10,0:0:0:0:
46,99,102489,1,2,0:0:0:0:
69,275,102625,6,0,L|82:367,2,75,2|2|10,0:0|0:0|0:0,0:0:0:0:
181,274,103034,2,0,L|194:182,2,75,2|2|2,0:0|0:0|0:0,0:0:0:0:
292,281,103443,2,0,L|305:373,1,75,10|2,0:0|0:0,0:0:0:0:
416,198,103716,5,2,0:0:0:0:
294,204,103852,1,2,0:0:0:0:
389,128,103989,1,10,0:0:0:0:
358,246,104125,1,2,0:0:0:0:
314,131,104261,2,0,P|322:92|345:66,1,75,2|2,0:0|0:0,0:0:0:0:
358,246,104534,2,0,L|285:284,1,75,10|2,0:0|0:0,0:0:0:0:
216,146,104807,6,0,L|245:62,1,75,6|2,0:0|0:0,0:0:0:0:
178,8,105080,1,10,0:0:0:0:
178,8,105216,2,0,P|137:31|103:34,1,75,2|2,0:0|0:0,0:0:0:0:
67,114,105489,1,2,0:0:0:0:
26,193,105625,6,0,L|-32:102,1,75,10|2,0:0|0:0,0:0:0:0:
135,169,105898,2,0,L|77:260,1,75,2|2,0:0|0:0,0:0:0:0:
68,337,106170,2,0,L|10:246,1,75,10|2,0:0|0:0,0:0:0:0:
177,313,106443,2,0,L|119:404,2,75,2|2|10,0:0|0:0|0:0,0:0:0:0:
224,236,106852,1,2,0:0:0:0:
272,159,106989,6,0,P|307:162|351:186,1,75,6|2,0:0|0:0,0:0:0:0:
399,248,107261,1,10,0:0:0:0:
399,248,107398,2,0,L|427:157,1,75,2|2,0:0|0:0,0:0:0:0:
316,261,107670,1,2,0:0:0:0:
316,261,107807,2,0,L|344:352,1,75,10|2,0:0|0:0,0:0:0:0:
421,176,108080,6,0,P|412:140|388:109,1,75,6|2,0:0|0:0,0:0:0:0:
431,31,108352,2,0,P|395:20|356:26,1,75,6|2,0:0|0:0,0:0:0:0:
270,1,108625,1,6,0:0:0:0:
266,37,108693,1,2,0:0:0:0:
277,73,108761,1,2,0:0:0:0:
303,100,108829,1,2,0:0:0:0:
338,113,108898,1,6,0:0:0:0:
313,84,108966,1,2,0:0:0:0:
279,69,109034,1,2,0:0:0:0:
242,70,109102,1,2,0:0:0:0:
208,85,109170,6,0,L|193:187,1,82.5000025177003,14|0,3:2|3:2,0:0:0:0:
182,265,109443,1,10,3:2:0:0:
71,314,109580,2,0,L|86:212,1,82.5000025177003,2|8,3:2|3:2,0:0:0:0:
97,134,109852,1,2,3:2:0:0:
182,265,109989,6,0,P|237:248|275:250,1,82.5000025177003,10|0,3:2|3:2,0:0:0:0:
348,294,110261,1,10,3:2:0:0:
348,294,110398,2,0,L|377:204,1,82.5000025177003,2|8,3:2|3:2,0:0:0:0:
464,245,110670,1,2,3:2:0:0:
506,334,110807,6,0,P|465:342|420:331,1,82.5000025177003,10|0,3:2|3:2,0:0:0:0:
422,156,111080,2,0,P|463:148|508:159,1,82.5000025177003,10|0,3:2|3:2,0:0:0:0:
377,52,111352,6,0,L|340:134,2,82.5000025177003,10|0|10,3:2|3:2|3:2,0:0:0:0:
472,78,111761,2,0,P|474:30|457:-9,1,82.5000025177003,2|8,3:2|3:2,0:0:0:0:
377,52,112034,1,2,3:2:0:0:
279,37,112170,2,0,L|194:25,1,82.5000025177003,10|0,3:2|3:2,0:0:0:0:
86,211,112443,5,10,3:2:0:0:
164,103,112580,1,2,3:2:0:0:
164,236,112716,1,8,3:2:0:0:
86,128,112852,1,2,3:2:0:0:
213,169,112989,2,0,L|296:195,1,82.5000025177003,10|0,3:2|3:2,0:0:0:0:
86,211,113261,2,0,P|40:198|13:164,1,82.5000025177003,10|0,3:2|3:2,0:0:0:0:
273,108,113534,6,0,L|356:134,1,82.5000025177003,14|0,3:2|3:2,0:0:0:0:
419,205,113807,1,10,3:2:0:0:
448,110,113943,2,0,P|424:69|392:49,1,82.5000025177003,2|8,3:2|3:2,0:0:0:0:
419,205,114216,1,2,3:2:0:0:
398,301,114352,6,0,P|445:300|478:283,1,82.5000025177003,10|0,3:2|3:2,0:0:0:0:
419,205,114625,1,10,3:2:0:0:
346,139,114761,2,0,P|322:180|321:217,2,82.5000025177003,2|8|2,3:2|3:2|3:2,0:0:0:0:
314,296,115170,6,0,L|226:312,1,82.5000025177003,10|0,3:2|3:2,0:0:0:0:
103,250,115443,2,0,L|191:234,1,82.5000025177003,14|0,3:2|3:2,0:0:0:0:
55,177,115716,6,0,P|24:215|17:256,1,82.5000025177003,14|0,3:2|3:2,0:0:0:0:
51,340,115989,1,10,3:2:0:0:
143,157,116125,2,0,L|84:90,1,82.5000025177003,6|10,3:2|3:2,0:0:0:0:
103,250,116398,1,2,3:2:0:0:
200,87,116534,2,0,L|292:73,1,82.5000025177003,14|8,3:2|3:2,0:0:0:0:
281,74,116739,1,8,3:2:0:0:
281,74,116807,1,8,3:2:0:0:
352,242,116943,5,2,3:2:0:0:
242,149,117080,1,2,3:2:0:0:
376,101,117216,1,2,3:2:0:0:
270,226,117352,5,2,3:2:0:0:
295,86,117489,1,2,3:2:0:0:
404,178,117625,1,2,3:2:0:0:
379,318,117761,1,2,3:2:0:0:
242,366,117898,6,0,L|185:347,3,55.0000016784668,4|4|4|4,3:0|3:0|3:0|3:0,0:0:0:0:
113,240,118352,2,0,L|85:250,2,27.5000008392334,4|4|6,3:0|3:0|3:2,0:0:0:0:
256,192,118511,12,0,122261,0:0:0:0:
