osu file format v14

[General]
AudioFilename: audio.mp3
AudioLeadIn: 0
PreviewTime: 82443
Countdown: 0
SampleSet: Soft
StackLeniency: 0.5
Mode: 0
LetterboxInBreaks: 0
WidescreenStoryboard: 0

[Editor]
Bookmarks: 122252
DistanceSpacing: 1.3
BeatDivisor: 4
GridSize: 4
TimelineZoom: 1.8

[Metadata]
Title:Preserved Valkyria
TitleUnicode:Preserved Valkyria
Artist:penoreri
ArtistUnicode:ぺのれり
Creator:Kroytz
Version:Sharkie's EXHAUST
Source:SOUND VOLTEX III GRAVITY WARS
Tags:sdvx konami arcade championship kac song contest Renumi Akitoshi -Laura- pkk Sharkie Zexous Kawashiro Fushimi Rio
BeatmapID:1366189
BeatmapSetID:644642

[Difficulty]
HPDrainRate:4.5
CircleSize:3.8
OverallDifficulty:7
ApproachRate:8.8
SliderMultiplier:1.4
SliderTickRate:1

[Events]
//Background and Video events
0,0,"BG.png",0,0
//Break Periods
2,29314,31711
//Storyboard Layer 0 (Background)
//Storyboard Layer 1 (Fail)
//Storyboard Layer 2 (Pass)
//Storyboard Layer 3 (Foreground)
//Storyboard Sound Samples

[TimingPoints]
1373,387.096774193548,4,2,1,40,1,0
7953,-100,4,2,1,45,0,0
8340,-100,4,2,1,50,0,0
8727,-100,4,2,1,55,0,0
9114,-100,4,2,1,60,0,0
9502,-100,4,2,1,65,0,0
9889,-100,4,2,1,70,0,0
10082,-100,4,2,1,75,0,0
10276,-100,4,2,1,80,0,0
10469,-100,4,2,1,85,0,0
10663,-100,4,2,1,40,0,0
13760,-90.9090909090909,4,2,1,50,0,0
19953,-83.3333333333333,4,2,1,60,0,0
26147,-76.9230769230769,4,2,1,70,0,0
27695,-71.4285714285714,4,2,1,80,0,0
32340,-151.515151515152,4,2,1,80,0,0
33114,-200,4,1,1,80,0,0
33792,-303.030303030303,4,1,1,5,0,0
33889,-200,4,1,1,80,0,0
35340,-303.030303030303,4,1,1,5,0,0
35437,-200,4,1,1,80,0,0
38437,-100,4,1,1,40,0,0
39308,-100,4,1,1,80,0,0
39598,-100,4,1,1,5,0,0
39695,-100,4,1,1,80,0,0
40372,-100,4,1,1,5,0,0
40469,-100,4,1,1,80,0,0
44663,-100,4,2,1,40,0,0
45502,-200,4,2,1,30,0,0
46276,400,4,2,1,40,1,0
46676,413.793103448276,4,2,1,40,1,0
47089,461.538461538462,4,2,1,40,1,0
47550,530.973451327434,4,2,1,40,1,0
48080,272.727272727273,4,2,1,50,1,0
52443,-100,4,2,1,60,0,0
54625,-100,4,2,1,70,0,0
55716,-100,4,2,1,80,0,0
56807,-90.9090909090909,4,2,1,80,0,1
65534,-166.666666666667,4,2,1,80,0,0
65943,-166.666666666667,4,2,1,40,0,0
79580,-303.030303030303,4,2,1,40,0,0
80739,-303.030303030303,4,2,1,5,0,0
80807,-100,4,2,1,60,0,0
82989,-83.3333333333333,4,2,1,80,0,1
100307,-83.3333333333333,4,2,1,80,0,0
100443,-83.3333333333333,4,2,1,80,0,1
100511,-83.3333333333333,4,2,1,80,0,0
100580,-100,4,2,1,80,0,0
109170,-83.3333333333333,4,2,1,80,0,1
117898,-100,4,2,1,80,0,0
118443,-434.782608695652,4,2,1,80,0,0

[Colours]
Combo1 : 192,68,192
Combo2 : 255,68,68
Combo3 : 255,128,68
Combo4 : 255,255,85
Combo5 : 96,255,68
Combo6 : 0,128,255

[HitObjects]
437,132,1373,6,0,B|405:121|405:121|381:128|381:128|293:121,1,140,6|2,0:0|0:0,0:0:0:0:
159,115,2147,2,0,B|146:72|146:72|151:8,2,105,2|2|2,0:0|0:0|0:0,0:0:0:0:
264,207,3114,6,0,L|370:214,1,105,2|0,0:0|0:0,0:0:0:0:
386,216,3502,1,2,0:0:0:0:
480,170,3695,2,0,L|473:274,1,105,2|2,0:0|0:0,0:0:0:0:
434,373,4276,1,2,0:0:0:0:
419,363,4663,5,2,0:0:0:0:
384,357,4760,1,2,0:0:0:0:
349,351,4856,1,0,0:0:0:0:
314,345,4953,1,2,0:0:0:0:
279,339,5050,2,0,B|215:335|215:335|199:330|199:330|139:327,1,140,2|2,0:0|0:0,0:0:0:0:
35,311,5631,1,2,0:0:0:0:
102,229,5824,6,0,B|165:233|165:233|206:224,1,105,2|2,0:0|0:0,0:0:0:0:
210,207,6211,1,2,0:0:0:0:
214,189,6308,1,2,0:0:0:0:
218,171,6405,2,0,L|216:133,2,35,2|2|2,0:0|0:0|0:0,0:0:0:0:
302,146,6695,1,2,0:0:0:0:
302,146,6792,2,0,L|309:6,1,140,2|2,0:0|0:0,0:0:0:0:
296,285,7566,5,6,0:0:0:0:
296,285,7760,1,0,0:0:0:0:
366,207,7953,2,0,B|397:197|397:197|434:193,1,70,2|0,0:0|0:0,0:0:0:0:
451,190,8243,1,0,0:0:0:0:
468,188,8340,2,0,B|458:157|458:157|454:120,1,70,2|0,0:0|0:0,0:0:0:0:
451,103,8631,1,0,0:0:0:0:
449,86,8728,2,0,B|418:96|418:96|381:100,1,70,2|0,0:0|0:0,0:0:0:0:
364,103,9018,1,0,0:0:0:0:
347,105,9115,6,0,B|357:136|357:136|361:173,1,70,2|0,0:0|0:0,0:0:0:0:
357,190,9405,1,0,0:0:0:0:
351,206,9502,2,0,B|329:230|329:230|299:252,1,70,2|0,0:0|0:0,0:0:0:0:
281,256,9792,1,0,0:0:0:0:
263,258,9889,1,2,0:0:0:0:
188,332,10082,1,2,0:0:0:0:
396,302,10276,1,2,0:0:0:0:
161,230,10469,1,2,0:0:0:0:
236,156,10663,6,0,L|234:105,2,46.6666666666667,2|2|2,0:0|0:0|0:0,0:0:0:0:
324,132,11050,2,0,L|318:85,2,46.6666666666667,2|2|2,0:0|0:0|0:0,0:0:0:0:
409,100,11437,2,0,L|398:50,2,46.6666666666667,2|2|2,0:0|0:0|0:0,0:0:0:0:
490,60,11824,2,0,L|474:11,2,46.6666666666667,2|2|2,0:0|0:0|0:0,0:0:0:0:
484,150,12211,5,2,0:0:0:0:
324,132,12405,1,2,0:0:0:0:
290,121,12502,1,2,0:0:0:0:
266,94,12598,1,2,0:0:0:0:
231,82,12695,1,2,0:0:0:0:
195,89,12792,1,2,0:0:0:0:
167,113,12889,1,2,0:0:0:0:
154,147,12985,1,2,0:0:0:0:
137,151,13372,1,2,0:0:0:0:
120,155,13760,6,0,L|115:233,1,77.0000023498536,6|2,0:0|0:0,0:0:0:0:
142,328,14147,1,2,0:0:0:0:
142,328,14340,1,0,0:0:0:0:
224,270,14534,2,0,P|260:261|304:257,1,77.0000023498536,2|2,0:0|0:0,0:0:0:0:
325,264,14824,1,2,0:0:0:0:
325,264,14921,1,2,0:0:0:0:
315,360,15114,1,2,0:0:0:0:
341,357,15210,1,2,0:0:0:0:
367,354,15308,5,2,0:0:0:0:
393,351,15404,1,2,0:0:0:0:
420,349,15501,1,2,0:0:0:0:
447,347,15598,1,2,0:0:0:0:
474,346,15695,2,0,L|471:307,3,38.5000011749268,2|2|2|2,0:0|0:0|0:0|0:0,0:0:0:0:
453,260,16082,2,0,L|450:221,3,38.5000011749268,2|2|2|2,0:0|0:0|0:0|0:0,0:0:0:0:
432,174,16469,1,2,0:0:0:0:
386,194,16566,1,2,0:0:0:0:
336,189,16663,1,2,0:0:0:0:
294,160,16760,1,2,0:0:0:0:
271,114,16856,5,2,0:0:0:0:
336,37,17050,2,0,L|375:34,2,38.5000011749268,2|2|2,0:0|0:0|0:0,0:0:0:0:
237,20,17437,1,2,0:0:0:0:
196,48,17534,1,2,0:0:0:0:
175,93,17631,1,2,0:0:0:0:
175,142,17727,1,2,0:0:0:0:
199,186,17824,1,2,0:0:0:0:
298,201,18018,2,0,L|337:204,3,38.5000011749268,2|2|2|2,0:0|0:0|0:0|0:0,0:0:0:0:
355,199,18405,5,2,0:0:0:0:
373,194,18502,1,2,0:0:0:0:
391,189,18598,1,2,0:0:0:0:
409,184,18695,1,2,0:0:0:0:
427,179,18792,1,2,0:0:0:0:
471,202,18889,1,2,0:0:0:0:
485,249,18985,1,2,0:0:0:0:
461,292,19082,1,2,0:0:0:0:
413,305,19179,5,2,0:0:0:0:
271,114,19372,1,2,0:0:0:0:
177,333,19566,1,2,0:0:0:0:
276,96,19760,1,2,0:0:0:0:
303,353,19953,5,6,0:0:0:0:
318,345,20921,2,0,L|404:349,2,83.9999974365235,2|2|2,0:0|0:0|0:0,0:0:0:0:
147,232,21502,5,6,0:0:0:0:
152,216,22276,1,2,0:0:0:0:
348,248,22469,2,0,L|431:244,1,83.9999974365235,6|2,0:0|0:0,0:0:0:0:
416,235,22760,2,0,L|333:239,1,83.9999974365235,6|2,0:0|0:0,0:0:0:0:
318,230,23050,5,6,3:2:0:0:
303,221,23147,1,2,3:2:0:0:
288,212,23243,1,2,3:2:0:0:
273,203,23340,2,0,B|279:159|279:159|294:117,2,83.9999974365235,2|2|2,3:2|3:2|3:2,0:0:0:0:
190,219,23824,2,0,B|172:178|172:178|147:141,1,83.9999974365235,2|2,3:2|3:2,0:0:0:0:
130,139,24114,2,0,L|46:135,2,83.9999974365235,2|2|2,3:2|3:2|3:2,0:0:0:0:
244,290,24695,5,2,3:2:0:0:
244,290,24792,1,2,3:2:0:0:
244,290,24889,2,0,L|328:286,2,83.9999974365235,2|2|2,3:2|3:2|3:2,0:0:0:0:
171,331,25372,2,0,B|127:329|127:329|85:314,1,83.9999974365235,2|2,3:2|3:2,0:0:0:0:
83,294,25663,2,0,L|87:210,1,83.9999974365235,2|2,3:2|3:2,0:0:0:0:
41,92,26050,1,2,3:2:0:0:
84,116,26147,5,6,3:2:0:0:
133,114,26243,1,2,3:2:0:0:
182,112,26340,1,2,3:2:0:0:
231,110,26437,2,0,B|265:78|265:78|309:59,2,90.9999958343508,2|2|2,3:2|3:2|3:2,0:0:0:0:
218,209,26921,2,0,L|222:301,1,90.9999958343508,2|2,3:2|3:2,0:0:0:0:
300,363,27211,2,0,B|336:376|336:376|389:371,1,90.9999958343508,2|2,3:2|3:2,0:0:0:0:
483,229,27598,1,2,3:2:0:0:
478,180,27695,5,6,3:2:0:0:
473,131,27792,1,2,3:2:0:0:
468,82,27889,1,2,3:2:0:0:
463,33,27985,2,0,B|411:48|411:48|368:80,2,97.9999970092774,2|2|2,3:2|3:2|3:2,0:0:0:0:
390,171,28469,5,6,3:2:0:0:
390,171,28598,2,0,L|322:166,1,65.3333313395183,6|6,3:2|3:2,0:0:0:0:
240,160,28856,2,0,L|235:225,1,65.3333313395183,6|6,3:2|3:2,0:0:0:0:
229,310,29114,1,6,3:2:0:0:
140,62,32340,6,0,B|187:59|187:59|194:57|194:57|208:64|208:64|299:61,1,161.699999506531,0|0,0:0|0:0,0:0:0:0:
316,65,33114,6,0,L|438:70,1,122.5,4|0,3:2|0:0,0:0:0:0:
453,78,33889,6,0,P|376:164|476:234,1,262.5,4|0,3:0|0:0,0:0:0:0:
484,226,35437,6,0,B|405:240|352:224|352:224|328:232|328:232|295:216|295:216|249:245|249:245|195:205|130:195|130:195|79:227|53:279,1,490,4|8,3:0|3:2,0:0:0:0:
179,357,38534,6,0,L|208:359,9,23.3333333333333,0|0|0|0|0|0|0|0|0|0,0:0|0:0|0:0|0:0|0:0|0:0|0:0|0:0|0:0|0:0,0:0:0:0:
296,312,39308,6,0,L|407:306,1,105,4|0,0:2|0:0,0:0:0:0:
417,312,39695,1,0,0:0:0:0:
212,224,40082,6,0,L|101:218,1,105,4|0,0:2|0:0,0:0:0:0:
91,224,40469,1,0,0:0:0:0:
300,140,40856,2,0,L|305:32,2,105,4|4|4,3:0|3:0|3:0,0:0:0:0:
256,304,41631,5,4,3:2:0:0:
256,192,41824,12,0,44663,0:0:0:0:
214,273,45502,6,0,L|212:235,1,35,0|0,0:0|0:0,0:0:0:0:
299,211,45889,2,0,L|301:173,1,35,0|0,0:0|0:0,0:0:0:0:
422,286,46276,5,0,0:0:0:0:
430,272,47089,5,2,0:0:0:0:
440,258,47550,2,0,B|442:210|442:210|446:198|446:198|449:153,1,105,2|0,0:0|0:0,0:0:0:0:
457,55,48080,5,6,0:0:0:0:
368,97,48216,2,0,L|295:92,1,70
209,50,48489,2,0,L|139:54,2,70,2|0|0,0:0|0:0|0:0,0:0:0:0:
290,108,48898,6,0,B|306:139|306:139|315:177,2,70,2|0|0,0:0|0:0|0:0,0:0:0:0:
200,150,49307,2,0,B|198:184|198:184|188:218,2,70,2|0|0,0:0|0:0|0:0,0:0:0:0:
101,141,49716,2,0,B|82:170|82:170|56:194,1,70,2|0,0:0|0:0,0:0:0:0:
44,292,49989,2,0,B|78:284|78:284|113:285,1,70,2|0,0:0|0:0,0:0:0:0:
172,362,50261,5,2,0:0:0:0:
259,316,50398,2,0,L|262:239,1,70
350,205,50670,2,0,L|354:275,2,70,2|0|0,0:0|0:0|0:0,0:0:0:0:
435,157,51080,6,0,L|444:226,2,70,2|0|0,0:0|0:0|0:0,0:0:0:0:
352,108,51489,2,0,L|355:38,2,70,2|0|0,0:0|0:0|0:0,0:0:0:0:
269,156,51898,2,0,B|242:180|242:180|224:209,1,70,2|0,0:0|0:0,0:0:0:0:
248,303,52170,2,0,B|278:322|278:322|311:332,1,70,2|0,0:0|0:0,0:0:0:0:
451,347,52443,5,6,0:0:0:0:
446,248,52580,2,0,L|443:178,1,70
438,80,52852,2,0,B|463:56|463:56|494:39,2,70,2|0|0,0:0|0:0|0:0,0:0:0:0:
356,134,53261,6,0,B|322:124|322:124|292:105,2,70,2|0|0,0:0|0:0|0:0,0:0:0:0:
443,178,53670,2,0,B|450:211|450:211|449:247,2,70,2|0|0,0:0|0:0|0:0,0:0:0:0:
276,99,54080,2,0,B|242:109|242:109|212:128,1,70,6|0,0:0|0:0,0:0:0:0:
214,224,54352,2,0,B|244:243|244:243|277:253,1,70,2|0,0:0|0:0,0:0:0:0:
125,82,54625,6,0,B|55:79,2,70,6|0|0,0:0|0:0|0:0,0:0:0:0:
212,128,55034,2,0,B|281:125,2,70,2|0|0,0:0|0:0|0:0,0:0:0:0:
127,178,55443,2,0,B|57:175,1,70,2|0,0:0|0:0,0:0:0:0:
124,293,55716,5,6,3:2:0:0:
52,359,55852,1,2,3:2:0:0:
218,323,55989,1,6,3:2:0:0:
131,277,56125,1,2,3:2:0:0:
214,224,56261,2,0,L|253:222,3,35,6|2|2|2,3:2|3:2|3:2|3:2,0:0:0:0:
266,218,56534,1,6,3:2:0:0:
279,207,56602,1,2,3:2:0:0:
287,192,56670,1,2,3:2:0:0:
289,175,56739,1,2,3:2:0:0:
285,158,56807,6,0,B|281:94|281:94|289:62|289:62|285:-2,1,154.000004699707,6|8,0:2|0:2,0:0:0:0:
371,104,57216,1,2,0:2:0:0:
371,104,57284,1,0,0:0:0:0:
371,104,57352,2,0,L|376:180,1,77.0000023498536,0|0,0:2|0:0,0:0:0:0:
199,212,57625,2,0,L|194:136,1,77.0000023498536,10|0,0:2|0:0,0:0:0:0:
198,52,57898,5,0,0:0:0:0:
112,160,58034,2,0,P|164:213|157:287,1,154.000004699707,2|0,0:2|0:0,0:0:0:0:
2,246,58443,2,0,L|78:243,1,77.0000023498536,2|2,0:2|0:2,0:0:0:0:
275,214,58716,2,0,L|199:212,1,77.0000023498536,10|2,0:2|0:2,0:0:0:0:
148,305,58989,6,0,B|253:308|253:308|300:321,1,154.000004699707,2|8,0:2|0:2,0:0:0:0:
432,242,59398,1,2,0:2:0:0:
432,242,59466,1,0,0:0:0:0:
432,242,59534,2,0,B|400:273|400:273|382:300,1,77.0000023498536
440,137,59807,2,0,B|396:147|396:147|367:162,1,77.0000023498536,10|0,0:2|0:0,0:0:0:0:
293,203,60080,5,0,0:2:0:0:
202,75,60216,2,0,L|47:70,1,154.000004699707,2|0,0:2|0:0,0:0:0:0:
143,156,60625,2,0,L|219:158,1,77.0000023498536,2|2,0:2|0:2,0:0:0:0:
341,16,60898,2,0,L|265:18,1,77.0000023498536,10|2,0:2|0:2,0:0:0:0:
367,161,61170,6,0,P|406:158|443:145,2,77.0000023498536,6|0|8,0:0|0:0|0:0,0:0:0:0:
219,158,61580,2,0,P|201:77|171:10,1,154.000004699707,2|0,0:2|0:0,0:0:0:0:
144,199,61989,2,0,P|128:160|107:130,1,77.0000023498536,10|0,0:2|0:0,0:0:0:0:
47,72,62261,5,0,0:0:0:0:
81,257,62398,2,0,P|152:283|216:244,1,154.000004699707,2|0,0:2|0:0,0:0:0:0:
270,101,62807,2,0,P|241:126|218:157,1,77.0000023498536,6|0,0:2|0:0,0:0:0:0:
273,309,63080,2,0,P|310:321|348:326,1,77.0000023498536,10|0,0:2|0:0,0:0:0:0:
431,315,63352,5,6,0:2:0:0:
484,248,63489,1,2,0:2:0:0:
479,229,63557,1,0,0:0:0:0:
474,210,63625,2,0,L|470:164,3,38.5000011749268,2|2|6|2,0:2|0:2|0:2|0:2,0:0:0:0:
449,135,63898,2,0,L|441:89,3,38.5000011749268,2|2|10|2,0:2|0:2|0:2|0:2,0:0:0:0:
407,73,64170,2,0,L|395:28,3,38.5000011749268,6|2|2|2,0:2|0:2|0:2|0:2,0:0:0:0:
354,30,64443,6,0,B|318:64|318:64|257:71|257:71|215:110,1,154.000004699707,6|2,0:2|0:2,0:0:0:0:
149,276,64852,1,2,0:2:0:0:
67,153,64989,2,0,L|10:150,2,51.3333348999024,6|2|2,0:2|0:2|0:2,0:0:0:0:
139,106,65261,2,0,L|141:54,2,51.3333348999024,2|2|2,0:2|0:2|0:2,0:0:0:0:
216,144,65534,6,0,B|277:150|277:150|347:164,2,125.999996154785,6|2|2,0:0|0:0|0:0,0:0:0:0:
201,152,66898,2,0,L|197:236,2,83.9999974365235,2|2|2,0:0|0:0|0:0,0:0:0:0:
214,69,67716,5,2,0:0:0:0:
297,123,68534,1,2,0:0:0:0:
223,55,68670,1,2,0:0:0:0:
232,41,69489,2,0,L|279:38,2,41.9999987182618,2|2|2,0:0|0:0|0:0,0:0:0:0:
147,36,69898,6,0,L|100:33,1,41.9999987182618,2|2,0:0|0:0,0:0:0:0:
21,30,70170,2,0,L|18:71,1,41.9999987182618,2|2,0:0|0:0,0:0:0:0:
70,138,70443,2,0,P|73:159|74:181,1,41.9999987182618,2|2,0:0|0:0,0:0:0:0:
57,262,70716,1,2,0:0:0:0:
57,262,70852,2,0,P|98:253|146:251,1,83.9999974365235,2|2,0:0|0:0,0:0:0:0:
163,331,71261,2,0,P|127:353|96:382,2,83.9999974365235,2|0|0,0:0|0:0|0:0,0:0:0:0:
243,304,72080,5,2,0:0:0:0:
278,228,72352,1,2,0:0:0:0:
278,228,72489,2,0,B|291:191|291:191|295:144,2,83.9999974365235,2|0|0,0:0|0:0|0:0,0:0:0:0:
292,236,73716,1,2,0:0:0:0:
364,278,73989,1,2,0:0:0:0:
436,236,74261,5,2,0:0:0:0:
446,225,74943,2,0,L|448:175,1,41.9999987182618,2|2,0:0|0:0,0:0:0:0:
452,98,75216,1,2,0:0:0:0:
452,98,75352,2,0,P|418:51|352:39,2,125.999996154785,2|2|2,0:0|0:0|0:0,0:0:0:0:
371,122,76443,6,0,P|347:127|325:139,1,41.9999987182618,2|2,0:0|0:0,0:0:0:0:
263,185,76716,1,2,0:0:0:0:
263,185,76852,2,0,L|179:182,1,83.9999974365235,2|2,0:0|0:0,0:0:0:0:
110,231,77261,1,2,0:0:0:0:
61,162,77398,1,2,0:0:0:0:
61,162,77534,6,0,P|58:120|50:78,1,83.9999974365235,2|2,0:0|0:0,0:0:0:0:
121,32,77943,1,2,0:0:0:0:
196,69,78080,1,2,0:0:0:0:
196,69,78216,1,2,0:0:0:0:
275,42,78352,1,2,0:0:0:0:
275,42,78489,1,2,0:0:0:0:
337,96,78625,6,0,B|371:161|371:161|373:178|373:178|406:187|431:226,1,167.999994873047,2|2,0:0|0:0,0:0:0:0:
355,256,79443,1,2,0:0:0:0:
355,256,79580,6,0,B|298:259|298:259|285:267|285:267|267:267|267:267|218:287|160:272,1,196.349999400787,2|2,0:0|3:2,0:0:0:0:
160,256,80807,6,0,B|165:185|165:185|177:159|177:159|189:110,1,140,14|14,3:2|3:2,0:0:0:0:
347,195,81216,2,0,B|342:124|342:124|329:98|329:98|320:59,1,140,10|14,3:2|3:2,0:0:0:0:
256,192,81625,2,0,L|261:262,1,70,0|0,3:2|3:2,0:0:0:0:
144,299,81898,5,4,3:2:0:0:
110,154,82034,1,0,3:2:0:0:
160,305,82170,2,0,L|165:235,1,70,0|0,3:2|3:2,0:0:0:0:
250,63,82443,5,2,0:0:0:0:
267,60,82716,1,2,0:0:0:0:
284,57,82989,6,0,B|362:52|362:52|382:45|382:45|456:42,1,167.999994873047,6|2,0:0|0:0,0:0:0:0:
363,204,83398,2,0,B|284:199|284:199|264:192|264:192|196:189,1,167.999994873047,6|2,0:0|0:0,0:0:0:0:
9,134,83807,1,4,0:1:0:0:
142,271,83943,6,0,P|168:194|125:126,1,167.999994873047
11,117,84352,2,0,L|7:32,1,83.9999974365235,8|0,0:0|0:0,0:0:0:0:
72,206,84625,2,0,L|68:291,1,83.9999974365235,2|0,0:0|0:0,0:0:0:0:
118,108,84898,2,0,L|122:23,1,83.9999974365235,10|0,0:0|0:0,0:0:0:0:
286,170,85170,6,0,B|297:203|294:235|294:235|302:246|302:246|300:260|300:260|303:301|319:334,1,167.999994873047,2|8,0:0|0:0,0:0:0:0:
196,189,85580,2,0,P|216:109|288:76,1,167.999994873047,0|0,0:0|0:0,0:0:0:0:
376,151,85989,1,10,0:0:0:0:
182,204,86125,6,0,P|99:193|9:188,1,167.999994873047,0|0,0:0|0:0,0:0:0:0:
168,286,86534,2,0,P|126:290|86:302,1,83.9999974365235,8|0,0:0|0:0,0:0:0:0:
19,367,86807,1,2,0:0:0:0:
19,367,86875,1,2,0:0:0:0:
19,367,86943,1,2,0:0:0:0:
102,160,87080,1,8,0:0:0:0:
183,272,87216,1,0,0:0:0:0:
314,229,87352,6,0,L|407:226,1,83.9999974365235,6|2,0:0|0:0,0:0:0:0:
185,162,87625,2,0,L|102:160,1,83.9999974365235,10|2,0:0|0:0,0:0:0:0:
307,83,87898,2,0,P|337:58|358:10,1,83.9999974365235,2|2,0:0|0:0,0:0:0:0:
448,132,88170,1,10,0:0:0:0:
287,75,88307,6,0,L|119:69,1,167.999994873047,2|0,0:0|0:0,0:0:0:0:
96,239,88716,2,0,P|128:186|185:162,1,125.999996154785,8|0,0:0|0:0,0:0:0:0:
198,179,88989,2,0,L|196:263,1,83.9999974365235,2|0,0:0|0:0,0:0:0:0:
309,166,89261,2,0,L|307:83,1,83.9999974365235,10|0,0:0|0:0,0:0:0:0:
286,281,89534,6,0,B|320:282|347:291|347:291|371:286|371:286|395:304|445:315,1,167.999994873047,6|8,0:0|0:0,0:0:0:0:
271,265,89943,2,0,B|199:262|199:262|183:272|183:272|144:277|112:300,1,167.999994873047,0|2,0:0|0:0,0:0:0:0:
37,259,90284,1,2,0:0:0:0:
37,259,90352,2,0,P|49:219|52:177,1,83.9999974365235,10|0,0:0|0:0,0:0:0:0:
16,34,90625,6,0,P|44:64|79:87,1,83.9999974365235,6|2,0:0|0:0,0:0:0:0:
221,128,90898,2,0,P|180:136|142:155,1,83.9999974365235,6|2,0:0|0:0,0:0:0:0:
194,268,91170,2,0,L|235:269,3,41.9999987182618,6|2|2|2,0:0|0:0|0:0|0:0,0:0:0:0:
256,275,91443,1,6,0:0:0:0:
275,282,91511,1,2,0:0:0:0:
294,289,91580,1,2,0:0:0:0:
313,296,91648,1,2,0:0:0:0:
332,303,91716,6,0,L|336:247,2,55.9999982910157,4|0|0,3:2|3:0|3:0,0:0:0:0:
421,232,91989,2,0,L|417:176,2,55.9999982910157,0|0|0,3:0|3:0|3:0,0:0:0:0:
332,161,92261,2,0,L|336:105,2,55.9999982910157,0|0|0,3:0|3:0|3:0,0:0:0:0:
421,90,92534,2,0,L|417:34,2,55.9999982910157,4|0|0,3:2|3:0|3:0,0:0:0:0:
332,19,92807,5,6,3:2:0:0:
332,19,92898,2,0,P|303:27|278:43,1,55.9999982910157,2|2,3:2|3:2,0:0:0:0:
198,59,93080,2,0,P|171:49|144:46,2,55.9999982910157,2|2|2,3:2|3:2|3:2,0:0:0:0:
255,121,93352,1,6,3:2:0:0:
255,121,93443,2,0,P|247:150|231:175,1,55.9999982910157,2|2,3:2|3:2,0:0:0:0:
188,243,93625,2,0,P|178:269|175:296,2,55.9999982910157,2|2|2,3:2|3:2|3:2,0:0:0:0:
116,198,93898,6,0,L|60:193,2,55.9999982910157,6|2|2,3:2|3:2|3:2,0:0:0:0:
161,126,94170,2,0,L|166:70,2,55.9999982910157,2|2|2,3:2|3:2|3:2,0:0:0:0:
233,171,94443,2,0,P|272:184|322:189,1,83.9999974365235,0|2,3:0|3:2,0:0:0:0:
397,172,94648,1,2,3:2:0:0:
397,172,94716,2,0,P|433:153|472:121,1,83.9999974365235,2|2,3:2|0:0,0:0:0:0:
484,252,94989,6,0,L|482:299,3,41.9999987182618,6|2|2|2,0:0|0:0|0:0|0:0,0:0:0:0:
437,282,95261,2,0,L|432:328,3,41.9999987182618,2|2|2|2,0:0|0:0|0:0|0:0,0:0:0:0:
388,309,95534,2,0,L|381:355,3,41.9999987182618,2|2|2|2,0:0|0:0|0:0|0:0,0:0:0:0:
337,333,95807,2,0,P|295:319|256:314,1,83.9999974365235,2|2,0:0|0:0,0:0:0:0:
212,100,96080,6,0,P|164:151|172:248,1,167.999994873047,2|2,3:2|3:2,0:0:0:0:
344,244,96489,2,0,P|353:162|301:100,1,167.999994873047,4|2,3:2|0:0,0:0:0:0:
256,192,96898,1,2,0:0:0:0:
256,212,96966,1,2,0:0:0:0:
256,232,97034,1,2,0:0:0:0:
191,100,97170,6,0,P|143:151|151:248,1,167.999994873047,2|2,3:2|3:2,0:0:0:0:
365,244,97580,2,0,P|374:162|322:100,1,167.999994873047,6|2,3:2|0:0,0:0:0:0:
256,252,97989,1,2,0:0:0:0:
256,272,98057,1,2,0:0:0:0:
256,292,98125,1,2,0:0:0:0:
256,312,98193,1,2,0:0:0:0:
256,332,98261,6,0,L|88:323,1,167.999994873047,4|0,3:2|3:0,0:0:0:0:
256,192,98670,1,0,0:0:0:0:
256,192,98807,2,0,L|423:183,1,167.999994873047,6|2,3:2|3:2,0:0:0:0:
256,52,99216,1,0,0:0:0:0:
256,52,99352,6,0,L|197:48,2,55.9999982910157,6|2|2,3:2|3:2|3:2,0:0:0:0:
187,142,99625,2,0,L|131:144,2,55.9999982910157,2|2|2,3:2|3:2|3:2,0:0:0:0:
118,52,99898,2,0,L|62:49,2,55.9999982910157,6|2|2,3:2|3:2|3:2,0:0:0:0:
49,142,100170,2,0,L|46:197,2,55.9999982910157,2|2|2,3:2|3:2|3:2,0:0:0:0:
135,238,100443,5,6,0:0:0:0:
226,200,100580,2,0,L|295:197,1,70,0|8,0:0|0:0,0:0:0:0:
389,224,100852,2,0,P|423:234|452:255,2,70,2|0|0,0:0|0:0|0:0,0:0:0:0:
366,130,101261,6,0,P|376:96|397:67,2,70,10|0|0,0:0|0:0|0:0,0:0:0:0:
295,197,101670,2,0,P|261:186|232:166,2,70,0|10|0,0:0|0:0|0:0,0:0:0:0:
317,291,102080,2,0,P|308:324|288:352,1,70,2|0,0:0|0:0,0:0:0:0:
168,339,102352,2,0,P|152:309|146:275,1,70,10|0,0:0|0:0,0:0:0:0:
57,232,102625,5,2,0:0:0:0:
71,135,102761,2,0,L|140:137,1,70,0|8,0:0|0:0,0:0:0:0:
213,71,103034,2,0,L|282:68,2,70,2|0|0,0:0|0:0|0:0,0:0:0:0:
154,149,103443,6,0,L|151:218,2,70,10|0|0,0:0|0:0|0:0,0:0:0:0:
251,156,103852,2,0,L|320:153,2,70,0|10|0,0:0|0:0|0:0,0:0:0:0:
289,248,104261,2,0,L|358:250,1,70,2|0,0:0|0:0,0:0:0:0:
495,337,104534,2,0,P|462:324|427:319,1,70,10|0,0:0|0:0,0:0:0:0:
333,345,104807,5,6,0:0:0:0:
236,357,104943,2,0,P|201:351|168:339,1,70,0|8,0:0|0:0,0:0:0:0:
91,280,105216,2,0,B|80:247|80:247|75:210,2,70,2|0|0,0:0|0:0|0:0,0:0:0:0:
173,224,105625,6,0,B|171:189|171:189|175:153,2,70,10|0|0,0:0|0:0|0:0,0:0:0:0:
266,191,106034,2,0,B|272:157|272:157|287:123,2,70,0|10|0,0:0|0:0|0:0,0:0:0:0:
350,242,106443,2,0,B|380:226|380:226|410:204,1,70,2|0,0:0|0:0,0:0:0:0:
475,72,106716,2,0,B|438:66|438:66|408:55,1,70,10|0,0:0|0:0,0:0:0:0:
315,30,106989,5,6,0:0:0:0:
287,125,107125,2,0,L|217:120,1,70,0|8,0:0|0:0,0:0:0:0:
345,194,107398,1,0,0:0:0:0:
256,211,107534,2,0,L|186:206,1,70,0|0,0:0|0:0,0:0:0:0:
225,297,107807,2,0,L|155:292,1,70,10|0,0:0|0:0,0:0:0:0:
45,345,108080,6,0,L|41:303,3,35,6|2|2|2,0:0|0:0|0:0|0:0,0:0:0:0:
38,271,108352,2,0,L|34:229,3,35,6|2|2|2,0:0|0:0|0:0|0:0,0:0:0:0:
30,197,108625,2,0,P|29:178|26:155,3,35,6|2|2|2,0:0|0:0|0:0|0:0,0:0:0:0:
37,147,108898,1,6,0:0:0:0:
50,135,108966,1,2,0:0:0:0:
65,127,109034,1,2,0:0:0:0:
81,123,109102,1,2,0:0:0:0:
97,123,109170,6,0,L|105:36,1,83.9999974365235,14|0,3:2|3:2,0:0:0:0:
222,180,109443,2,0,L|229:263,1,83.9999974365235,8|2,3:2|3:2,0:0:0:0:
269,95,109716,2,0,P|229:83|188:88,1,83.9999974365235,8|0,3:2|3:2,0:0:0:0:
49,207,109989,2,0,P|89:219|130:214,1,83.9999974365235,10|0,3:2|3:2,0:0:0:0:
222,180,110261,5,8,3:2:0:0:
136,312,110398,2,0,L|52:315,2,83.9999974365235,2|8|0,3:2|3:2|3:2,0:0:0:0:
282,257,110807,2,0,L|366:260,1,83.9999974365235,10|0,3:2|3:2,0:0:0:0:
131,214,111080,2,0,L|47:211,1,83.9999974365235,10|0,3:2|3:2,0:0:0:0:
319,167,111352,6,0,L|322:83,1,83.9999974365235,10|0,3:2|3:2,0:0:0:0:
365,259,111625,2,0,P|404:273|445:278,1,83.9999974365235,8|2,3:2|3:2,0:0:0:0:
501,137,111898,2,0,L|504:53,1,83.9999974365235,8|0,3:2|3:2,0:0:0:0:
282,257,112170,2,0,P|241:249|201:233,1,83.9999974365235,10|0,3:2|3:2,0:0:0:0:
283,277,112443,5,8,3:2:0:0:
410,152,112580,2,0,L|413:68,2,83.9999974365235,2|8|0,3:2|3:2|3:2,0:0:0:0:
408,359,112988,2,0,L|324:362,1,83.9999974365235,10|0,3:2|3:2,0:0:0:0:
154,119,113261,2,0,L|238:122,1,83.9999974365235,10|0,3:2|3:2,0:0:0:0:
289,258,113534,5,14,3:2:0:0:
143,313,113670,1,2,3:2:0:0:
305,255,113807,1,10,3:2:0:0:
154,119,113943,2,0,B|145:83|145:83|149:30,1,83.9999974365235,2|10,3:2|3:2,0:0:0:0:
240,25,114216,1,2,3:2:0:0:
199,201,114352,2,0,B|163:210|163:210|116:206,1,83.9999974365235,10|2,3:2|3:2,0:0:0:0:
281,156,114625,5,10,3:2:0:0:
281,156,114761,2,0,B|290:192|290:192|286:238,1,83.9999974365235,2|10,3:2|3:2,0:0:0:0:
256,332,115034,1,2,3:2:0:0:
116,206,115170,1,10,3:2:0:0:
116,206,115307,1,0,3:2:0:0:
236,74,115443,2,0,B|272:65|272:65|318:68,1,83.9999974365235,14|0,3:2|3:2,0:0:0:0:
256,332,115716,6,0,L|88:323,1,167.999994873047,14|10,3:2|3:2,0:0:0:0:
256,192,116125,2,0,L|423:183,1,167.999994873047,4|0,3:2|3:2,0:0:0:0:
256,52,116534,1,14,3:2:0:0:
235,50,116602,1,0,0:0:0:0:
214,49,116670,1,8,3:2:0:0:
193,47,116739,1,8,3:2:0:0:
172,46,116807,5,8,3:2:0:0:
3,124,116943,1,2,3:2:0:0:
156,232,117080,2,0,L|149:315,1,83.9999974365235,2|2,3:2|3:2,0:0:0:0:
59,336,117352,1,2,3:2:0:0:
172,224,117489,1,2,3:2:0:0:
22,116,117625,2,0,L|15:32,1,83.9999974365235,2|2,3:2|3:2,0:0:0:0:
172,135,117898,6,0,L|219:138,3,46.6666666666667,4|4|4|4,3:0|3:0|3:0|3:0,0:0:0:0:
264,53,118352,1,4,3:0:0:0:
264,53,118443,6,0,B|299:46|335:53|335:53|373:37|373:37|425:38|470:65|470:65|484:128|443:170|446:173|450:177|413:214|426:296,1,450.799984866944,6|0,3:2|0:0,0:0:0:0:
