osu file format v14

[General]
AudioFilename: audio.mp3
AudioLeadIn: 0
PreviewTime: 82443
Countdown: 0
SampleSet: Soft
StackLeniency: 0.3
Mode: 0
LetterboxInBreaks: 0
WidescreenStoryboard: 0

[Editor]
Bookmarks: 19953,20727,29243,55980,56798,63752,64434,80730,90207,91707,94980,95252,96752,97161,97843,98252,108071,109161
DistanceSpacing: 0.65
BeatDivisor: 4
GridSize: 4
TimelineZoom: 2

[Metadata]
Title:Preserved Valkyria
TitleUnicode:Preserved Valkyria
Artist:penoreri
ArtistUnicode:ぺのれり
Creator:Kroytz
Version:Rio's MAXIMUM
Source:SOUND VOLTEX III GRAVITY WARS
Tags:sdvx konami arcade championship kac song contest Renumi Akitoshi -Laura- pkk Sharkie Zexous Kawashiro Fushimi Rio
BeatmapID:1366188
BeatmapSetID:644642

[Difficulty]
HPDrainRate:6
CircleSize:3.8
OverallDifficulty:9.3
ApproachRate:9.6
SliderMultiplier:3.19999990463257
SliderTickRate:1

[Events]
//Background and Video events
0,0,"BG.png",0,0
//Break Periods
2,44863,46580
//Storyboard Layer 0 (Background)
//Storyboard Layer 1 (Fail)
//Storyboard Layer 2 (Pass)
//Storyboard Layer 3 (Foreground)
//Storyboard Sound Samples

[TimingPoints]
1373,387.096774193548,4,2,7,80,1,0
4276,-133.333333333333,4,2,7,80,0,0
7179,-100,4,2,7,80,0,0
7566,-133.333333333333,4,2,7,80,0,0
23050,-133.333333333333,4,1,7,80,0,0
29243,-400,4,2,7,50,0,0
29340,-400,4,2,7,40,0,0
29437,-400,4,2,7,30,0,0
29534,-400,4,2,7,20,0,0
29631,-400,4,2,7,10,0,0
29727,-400,4,2,7,20,0,0
29824,-400,4,2,7,30,0,0
29921,-400,4,2,7,40,0,0
30018,-400,4,2,7,50,0,0
30114,-400,4,2,7,40,0,0
30211,-400,4,2,7,30,0,0
30308,-400,4,2,7,20,0,0
30405,-400,4,2,7,10,0,0
30502,-400,4,2,7,20,0,0
30598,-400,4,2,7,30,0,0
30695,-400,4,2,7,40,0,0
30792,-400,4,2,7,50,0,0
30889,-400,4,2,7,40,0,0
30985,-400,4,2,7,30,0,0
31082,-400,4,2,7,20,0,0
31179,-400,4,2,7,10,0,0
31276,-400,4,2,7,20,0,0
31372,-400,4,2,7,30,0,0
31469,-400,4,2,7,40,0,0
31566,-400,4,2,7,50,0,0
31663,-400,4,2,7,40,0,0
31760,-400,4,2,7,30,0,0
31856,-400,4,2,7,20,0,0
31953,-400,4,2,7,10,0,0
32050,-400,4,2,7,20,0,0
32147,-400,4,2,7,30,0,0
32243,-400,4,2,7,40,0,0
32340,-400,4,2,7,50,0,0
32437,-400,4,2,7,40,0,0
32534,-400,4,2,7,30,0,0
32631,-400,4,2,7,20,0,0
32727,-400,4,2,7,10,0,0
32824,-400,4,2,7,20,0,0
32921,-400,4,2,7,30,0,0
33018,-400,4,2,7,40,0,0
33114,-200,4,2,7,100,0,0
33792,-200,4,2,7,5,0,0
33889,-200,4,2,7,80,0,0
35340,-200,4,2,7,5,0,0
35437,-133.333333333333,4,2,7,50,0,0
35534,-133.333333333333,4,2,7,40,0,0
35631,-133.333333333333,4,2,7,30,0,0
35727,-133.333333333333,4,2,7,20,0,0
35824,-133.333333333333,4,2,7,10,0,0
35921,-133.333333333333,4,2,7,20,0,0
36018,-133.333333333333,4,2,7,30,0,0
36114,-133.333333333333,4,2,7,40,0,0
36211,-133.333333333333,4,2,7,50,0,0
36308,-133.333333333333,4,2,7,40,0,0
36405,-133.333333333333,4,2,7,30,0,0
36502,-133.333333333333,4,2,7,20,0,0
36598,-133.333333333333,4,2,7,10,0,0
36695,-133.333333333333,4,2,7,20,0,0
36792,-133.333333333333,4,2,7,30,0,0
36889,-133.333333333333,4,2,7,40,0,0
36985,-133.333333333333,4,2,7,50,0,0
37082,-133.333333333333,4,2,7,40,0,0
37179,-133.333333333333,4,2,7,30,0,0
37276,-133.333333333333,4,2,7,20,0,0
37372,-133.333333333333,4,2,7,10,0,0
37469,-133.333333333333,4,2,7,20,0,0
37566,-133.333333333333,4,2,7,30,0,0
37663,-133.333333333333,4,2,7,40,0,0
37760,-133.333333333333,4,2,7,50,0,0
37856,-133.333333333333,4,2,7,40,0,0
37953,-133.333333333333,4,2,7,30,0,0
38050,-133.333333333333,4,2,7,20,0,0
38147,-100,4,2,7,100,0,0
39308,-200,4,2,0,80,0,0
39985,-200,4,2,0,5,0,0
40082,-200,4,2,0,80,0,0
40760,-200,4,2,0,5,0,0
40856,-200,4,2,0,80,0,0
41631,-100,4,2,0,80,0,0
46276,400,4,2,0,80,1,0
46676,413.793103448276,4,2,0,80,1,0
47089,461.538461538462,4,2,0,80,1,0
47550,530.973451327434,4,2,0,80,1,0
48080,272.727272727273,4,2,0,80,1,0
56261,-100,4,2,0,90,0,0
56534,-133.333333333333,4,2,0,100,0,0
65534,-200,4,2,17,80,0,0
80807,-133.333333333333,4,2,17,80,0,0
82716,-100,4,2,17,80,0,0
82920,-100,4,2,17,5,0,0
82989,-100,4,2,0,80,0,1
83193,-100,4,2,0,5,0,1
83261,-100,4,2,0,80,0,1
83602,-100,4,2,0,5,0,1
83670,-100,4,2,0,80,0,1
84011,-100,4,2,0,5,0,1
84080,-100,4,2,0,80,0,1
88716,-133.333333333333,4,2,0,80,0,1
89261,-100,4,2,0,80,0,1
91716,-133.333333333333,4,2,0,80,0,1
96080,-100,4,2,0,80,0,1
99352,-133.333333333333,4,2,0,80,0,1
100443,-133.333333333333,4,2,0,80,0,0
109170,-100,4,1,0,80,0,1
112989,-66.6666666666667,4,2,0,80,0,1
117080,-66.6666666666667,4,2,0,100,0,1
117898,-66.6666666666667,4,2,0,60,0,1
118443,-250,4,2,0,30,0,0
122261,-100,4,2,0,5,0,0

[Colours]
Combo1 : 192,68,192
Combo2 : 255,68,68
Combo3 : 255,128,68
Combo4 : 255,255,85
Combo5 : 96,255,68
Combo6 : 0,128,255

[HitObjects]
96,92,1373,6,0,P|124:176|256:228,1,239.999992847443,4|0,1:0|0:0,0:0:0:0:
343,224,1760,2,0,P|296:139|256:227,1,239.999992847443,4|0,0:0|0:0,0:0:0:0:
412,296,2147,2,2,P|460:224|396:64,2,239.999992847443
384,304,3114,6,0,B|224:236|256:380|78:303,1,319.999990463257,2|0,0:0|0:0,0:0:0:0:
124,150,3695,2,0,P|218:173|144:236,2,239.999992847443,2|2|0,0:0|0:0|0:0,0:0:0:0:
124,150,4663,5,0,0:0:0:0:
104,184,4760,1,0,0:0:0:0:
196,36,4953,1,2,0:0:0:0:
212,72,5050,2,0,P|284:108|384:8,1,240.000002002716
332,224,5631,1,2,0:0:0:0:
332,224,5824,2,0,P|373:177|464:200,1,120.000001001358
427,174,6114,6,0,P|444:116|392:88,1,120.000001001358
424,212,6405,1,0,0:0:0:0:
404,244,6502,1,0,0:0:0:0:
372,264,6598,1,0,0:0:0:0:
336,268,6695,1,0,0:0:0:0:
300,256,6792,2,0,P|232:252|176:340,1,180.000001502037,2|0,0:0|0:0,0:0:0:0:
115,167,7179,2,0,P|208:230|175:337,1,239.999992847443
2,287,7566,6,0,L|120:262,1,120.000001001358,4|0,0:0|0:0,0:0:0:0:
44,180,7856,1,0,0:0:0:0:
76,192,7953,2,0,L|190:228,1,120.000001001358,2|0,0:0|0:0,0:0:0:0:
165,119,8243,1,0,0:0:0:0:
187,146,8340,2,0,L|267:234,1,120.000001001358
300,128,8631,1,0,0:0:0:0:
306,161,8728,2,0,L|331:278,1,120.000001001358,2|0,0:0|0:0,0:0:0:0:
368,360,9018,5,0,0:0:0:0:
368,360,9114,2,0,P|412:320|419:260,1,120.000001001358
233,226,9405,1,0,0:0:0:0:
233,226,9501,2,0,P|272:270|331:278,1,120.000001001358,2|0,0:0|0:0,0:0:0:0:
322,130,9792,1,0,0:0:0:0:
322,130,9888,2,0,P|313:158|314:188,1,60.0000005006791,2|0,0:0|0:0,0:0:0:0:
460,180,10082,2,0,P|432:170|402:172,1,60.0000005006791,2|0,0:0|0:0,0:0:0:0:
411,320,10276,2,0,P|420:291|419:262,1,60.0000005006791,2|0,0:0|0:0,0:0:0:0:
272,270,10469,2,0,P|301:279|331:278,1,60.0000005006791,2|0,0:0|0:0,0:0:0:0:
464,88,10663,5,4,0:0:0:0:
464,88,10792,1,2,0:0:0:0:
322,130,10921,1,2,0:0:0:0:
476,164,11050,5,2,0:0:0:0:
476,164,11179,1,2,0:0:0:0:
348,201,11308,1,2,0:0:0:0:
488,240,11437,5,2,0:0:0:0:
488,240,11566,1,2,0:0:0:0:
374,273,11695,1,2,0:0:0:0:
504,316,11824,5,2,0:0:0:0:
504,316,11953,1,2,0:0:0:0:
404,345,12082,1,2,0:0:0:0:
374,273,12211,6,0,P|332:320|338:381,1,120.000001001358
300,348,12502,1,0,0:0:0:0:
260,348,12598,1,0,0:0:0:0:
220,356,12695,1,0,0:0:0:0:
180,340,12792,1,0,0:0:0:0:
160,304,12889,1,0,0:0:0:0:
160,228,12985,6,0,P|106:275|11:242,1,180.000001502037,2|0,0:0|0:0,0:0:0:0:
2,158,13372,2,0,P|55:110|150:143,1,180.000001502037
160,228,13760,5,4,0:0:0:0:
304,280,13953,1,0,0:0:0:0:
356,136,14147,1,0,0:0:0:0:
212,84,14340,1,0,0:0:0:0:
304,280,14534,5,0,0:0:0:0:
416,220,14727,5,0,0:0:0:0:
464,223,14823,1,0,0:0:0:0:
500,257,14920,1,0,0:0:0:0:
507,305,15017,1,0,0:0:0:0:
482,347,15114,1,0,0:0:0:0:
435,364,15210,1,0,0:0:0:0:
389,348,15308,5,0,0:0:0:0:
364,308,15404,1,0,0:0:0:0:
324,282,15501,1,0,0:0:0:0:
276,275,15598,1,0,0:0:0:0:
231,289,15695,1,0,0:0:0:0:
195,320,15791,1,0,0:0:0:0:
148,328,15889,1,0,0:0:0:0:
108,304,15985,1,0,0:0:0:0:
100,256,16082,5,0,0:0:0:0:
129,218,16179,1,0,0:0:0:0:
174,232,16276,1,0,0:0:0:0:
174,280,16373,1,0,0:0:0:0:
129,295,16469,1,0,0:0:0:0:
100,256,16566,1,0,0:0:0:0:
92,208,16663,1,0,0:0:0:0:
104,160,16760,1,0,0:0:0:0:
88,116,16856,5,2,0:0:0:0:
136,124,16953,1,0,0:0:0:0:
184,112,17050,1,0,0:0:0:0:
216,76,17147,1,0,0:0:0:0:
244,36,17243,1,0,0:0:0:0:
284,12,17340,1,0,0:0:0:0:
332,8,17437,1,0,0:0:0:0:
376,28,17534,1,0,0:0:0:0:
396,72,17631,5,0,0:0:0:0:
396,120,17727,1,0,0:0:0:0:
372,160,17824,1,0,0:0:0:0:
348,200,17921,1,0,0:0:0:0:
344,248,18018,1,0,0:0:0:0:
368,288,18114,1,0,0:0:0:0:
412,308,18211,1,0,0:0:0:0:
460,300,18308,1,0,0:0:0:0:
488,260,18405,5,0,0:0:0:0:
492,212,18501,1,0,0:0:0:0:
464,172,18598,1,0,0:0:0:0:
420,152,18695,1,0,0:0:0:0:
372,160,18792,1,0,0:0:0:0:
326,145,18889,1,0,0:0:0:0:
326,97,18985,1,0,0:0:0:0:
372,82,19082,1,0,0:0:0:0:
400,121,19179,6,0,L|440:174,1,60.0000005006791,2|0,0:0|0:0,0:0:0:0:
326,97,19372,2,0,L|324:30,1,60.0000005006791,2|0,0:0|0:0,0:0:0:0:
372,160,19566,2,0,L|333:214,1,60.0000005006791,2|0,3:2|0:0,0:0:0:0:
372,82,19760,2,0,L|434:60,1,60.0000005006791,2|0,0:0|0:0,0:0:0:0:
326,145,19953,5,4,0:0:0:0:
300,137,20017,1,0,0:0:0:0:
274,129,20082,1,0,0:0:0:0:
249,121,20146,1,0,0:0:0:0:
223,113,20211,1,0,0:0:0:0:
198,106,20275,1,0,0:0:0:0:
172,98,20340,1,0,3:0:0:0:
196,130,20404,1,0,0:0:0:0:
208,168,20469,1,0,0:0:0:0:
208,208,20533,1,0,0:0:0:0:
196,246,20598,1,0,0:0:0:0:
172,278,20662,1,0,0:0:0:0:
140,301,20727,6,0,L|77:323,1,60.0000005006791
185,238,20921,2,0,L|249:258,1,60.0000005006791,2|0,0:0|0:0,0:0:0:0:
111,263,21114,2,0,L|71:210,1,60.0000005006791,2|0,3:2|0:0,0:0:0:0:
185,287,21308,2,0,L|187:353,1,60.0000005006791
140,224,21502,5,4,0:0:0:0:
136,176,21598,1,0,0:0:0:0:
153,132,21695,1,0,0:0:0:0:
188,100,21792,1,0,0:0:0:0:
220,64,21889,1,0,3:0:0:0:
172,56,21985,1,0,0:0:0:0:
124,64,22082,1,0,0:0:0:0:
88,96,22179,1,0,0:0:0:0:
48,120,22276,5,0,0:0:0:0:
2,105,22372,1,4,0:1:0:0:
2,57,22469,1,0,0:0:0:0:
48,42,22566,1,0,0:0:0:0:
76,81,22663,1,0,0:0:0:0:
116,108,22760,1,4,0:1:0:0:
164,116,22856,1,0,0:0:0:0:
212,108,22953,1,0,0:0:0:0:
248,76,23050,5,4,1:0:0:0:
260,164,23147,1,0,1:0:0:0:
332,108,23243,1,0,1:0:0:0:
332,108,23340,1,0,1:0:0:0:
216,272,23534,5,0,1:0:0:0:
448,96,23727,5,2,1:0:0:0:
484,180,23824,1,0,0:0:0:0:
332,72,24018,5,0,0:0:0:0:
260,128,24115,1,0,0:0:0:0:
412,8,24308,5,2,0:0:0:0:
332,292,24502,5,2,0:0:0:0:
124,92,24695,5,0,0:0:0:0:
52,148,24792,1,0,0:0:0:0:
136,180,24888,1,0,0:0:0:0:
112,0,25082,5,0,0:0:0:0:
80,324,25276,5,2,0:0:0:0:
152,268,25373,1,0,0:0:0:0:
40,60,25566,5,0,0:0:0:0:
124,92,25662,1,2,0:0:0:0:
0,204,25856,5,2,0:0:0:0:
336,156,26050,5,0,0:0:0:0:
248,168,26147,5,4,0:0:0:0:
304,240,26243,1,0,0:3:0:0:
336,156,26340,1,0,0:0:0:0:
336,156,26437,1,0,0:0:0:0:
226,14,26631,5,0,0:0:0:0:
364,304,26824,5,2,0:0:0:0:
435,243,26921,1,0,0:3:0:0:
128,176,27114,5,0,0:0:0:0:
208,124,27211,1,0,0:0:0:0:
172,384,27405,5,2,0:0:0:0:
108,0,27598,5,2,0:0:0:0:
142,265,27792,5,0,0:0:0:0:
56,228,27889,1,0,0:0:0:0:
142,265,27986,1,0,0:3:0:0:
384,75,28179,5,2,0:0:0:0:
426,379,28372,5,2,0:1:0:0:
206,6,28598,5,4,0:0:0:0:
130,166,28727,5,4,0:0:0:0:
306,152,28856,5,4,0:0:0:0:
122,64,28985,5,4,0:0:0:0:
222,210,29114,5,4,0:0:0:0:
298,50,29243,6,0,L|304:40,78,9.99999970197678
314,26,33114,6,4,B|336:4|372:4|408:30|417:79|390:106|345:156|372:219|426:228,1,279.99999165535,4|0,1:0|0:1,0:1:0:0:
408,222,33889,2,0,B|312:152|264:264|168:196|168:196|240:226|272:322|204:414|96:414|44:334,1,599.999982118607,4|0,0:1|0:0,0:0:0:0:
106,270,35437,2,0,P|120:276|131:287,54,30.0000002503395,4|0|0|0|0|0|0|0|0|0|0|0|0|0|0|0|0|0|0|0|0|0|0|0|0|0|0|0|0|0|0|0|0|0|0|0|0|0|0|0|0|0|0|0|0|0|0|0|0|0|0|0|0|0|0,1:0|3:0|3:0|3:0|3:0|3:0|3:0|3:0|3:0|3:0|3:0|3:0|3:0|3:0|3:0|3:0|3:0|3:0|3:0|3:0|3:0|3:0|3:0|3:0|3:0|3:0|3:0|3:0|3:0|3:0|3:0|3:0|3:0|3:0|3:0|3:0|3:0|3:0|3:0|3:0|3:0|3:0|3:0|3:0|3:0|3:0|3:0|3:0|3:0|3:0|3:0|3:0|3:0|3:0|3:0,3:0:0:0:
160,322,38147,6,0,P|160:250|280:206,1,213.333326975505,0|0,1:0|0:0,0:0:0:0:
312,222,38469,1,0,0:0:0:0:
351,218,38534,1,4,1:1:0:0:
383,195,38598,1,0,0:0:0:0:
397,158,38663,1,0,0:0:0:0:
390,119,38727,1,0,0:0:0:0:
364,90,38792,1,0,0:0:0:0:
326,79,38856,1,0,0:0:0:0:
288,89,38921,5,0,0:0:0:0:
322,94,38985,1,0,0:0:0:0:
351,75,39050,1,0,0:0:0:0:
359,41,39114,1,0,0:0:0:0:
342,11,39179,1,0,0:0:0:0:
309,0,39243,1,0,0:0:0:0:
277,14,39308,6,0,B|255:36|255:72|281:108|330:117|357:90|407:45|470:72|500:128,1,279.99999165535,4|0,1:0|0:0,0:0:0:0:
460,284,40082,2,0,B|396:244|416:168|416:168|376:248|280:228,1,279.99999165535,4|0,0:0|0:0,0:0:0:0:
208,192,40856,1,0,0:0:0:0:
99,342,41147,1,0,0:0:0:0:
24,172,41437,1,0,0:0:0:0:
124,128,41631,5,0,0:0:0:0:
112,240,41824,2,0,P|66:223|48:208,2,53.3333317438762,0|0|0,1:0|2:0|2:0,2:0:0:0:
196,232,42018,2,0,P|264:212|344:324,1,159.999995231628,0|0,1:0|0:0,0:0:0:0:
368,340,42308,2,0,P|356:252|460:188,1,159.999995231628,0|0,3:0|0:0,0:0:0:0:
448,284,42598,2,0,L|408:40,1,239.999992847443,0|0,3:0|3:0,0:0:0:0:
264,332,43082,5,0,0:0:0:0:
264,332,43179,2,0,L|296:136,1,159.999995231628,0|0,3:0|0:0,0:0:0:0:
368,120,43469,2,0,P|302:78|227:99,1,159.999995231628,0|0,1:0|0:0,0:0:0:0:
104,216,43760,2,0,P|52:136|152:176,2,239.999992847443,0|0|0,3:0|3:0|3:0,0:0:0:0:
120,212,44405,1,0,0:0:0:0:
136,200,44469,1,0,0:0:0:0:
156,184,44534,1,2,0:0:0:0:
188,180,44598,1,2,0:0:0:0:
224,188,44663,1,2,0:0:0:0:
344,172,47089,5,2,0:0:0:0:
360,196,47550,1,0,0:0:0:0:
376,220,48080,5,4,1:0:0:0:
360,196,48216,1,0,0:0:0:0:
344,172,48352,1,0,0:0:0:0:
272,296,48489,5,0,3:0:0:0:
270,267,48625,1,0,0:0:0:0:
268,238,48761,1,0,0:0:0:0:
136,136,48898,5,0,0:0:0:0:
152,160,49034,1,0,0:0:0:0:
168,184,49170,1,0,0:0:0:0:
240,60,49307,5,0,3:0:0:0:
242,89,49443,1,0,0:0:0:0:
244,118,49580,1,0,0:0:0:0:
368,46,49716,5,0,0:0:0:0:
355,72,49852,1,0,0:0:0:0:
369,190,49989,5,0,3:0:0:0:
352,165,50125,1,0,0:0:0:0:
215,120,50261,5,0,0:0:0:0:
244,118,50398,1,0,0:0:0:0:
273,116,50534,1,0,0:0:0:0:
160,192,50670,5,0,3:0:0:0:
186,204,50807,1,0,0:0:0:0:
212,217,50943,1,0,0:0:0:0:
58,131,51080,5,0,0:0:0:0:
29,133,51216,1,0,0:0:0:0:
0,135,51352,1,0,0:0:0:0:
113,59,51489,5,0,3:0:0:0:
87,47,51625,1,0,0:0:0:0:
61,34,51761,1,0,0:0:0:0:
196,24,51898,5,0,0:0:0:0:
180,0,52034,1,0,0:0:0:0:
185,114,52170,5,0,3:0:0:0:
213,112,52307,1,0,0:0:0:0:
113,59,52443,5,4,1:0:0:0:
100,84,52580,1,0,0:0:0:0:
87,109,52716,1,0,0:0:0:0:
233,84,52852,5,0,3:0:0:0:
209,99,52989,1,0,0:0:0:0:
185,114,53125,1,0,0:0:0:0:
324,165,53261,5,0,0:0:0:0:
296,166,53398,1,0,0:0:0:0:
267,167,53534,1,0,0:0:0:0:
362,281,53670,5,0,3:0:0:0:
337,268,53807,1,0,0:0:0:0:
312,254,53943,1,0,0:0:0:0:
393,206,54080,5,4,1:0:0:0:
422,205,54216,1,0,0:0:0:0:
413,128,54352,5,0,3:0:0:0:
437,113,54489,1,0,0:0:0:0:
320,128,54625,5,4,1:0:0:0:
319,100,54761,1,0,0:0:0:0:
318,71,54898,1,0,0:0:0:0:
232,112,55034,5,0,3:0:0:0:
231,83,55170,1,0,0:0:0:0:
230,56,55307,1,0,0:0:0:0:
144,88,55443,5,0,3:0:0:0:
144,58,55580,1,0,0:0:0:0:
260,184,55716,5,4,1:0:0:0:
284,208,55784,1,0,0:0:0:0:
316,212,55852,1,0,3:0:0:0:
348,204,55920,1,0,0:0:0:0:
368,176,55989,5,0,1:0:0:0:
335,167,56057,1,0,0:0:0:0:
305,179,56125,1,0,3:0:0:0:
281,202,56193,1,0,0:0:0:0:
272,236,56261,5,0,0:0:0:0:
311,218,56330,1,0,3:0:0:0:
338,183,56398,1,0,3:0:0:0:
355,143,56466,1,0,3:0:0:0:
355,99,56534,5,0,1:0:0:0:
316,134,56602,1,0,1:0:0:0:
298,183,56670,1,0,1:0:0:0:
289,236,56739,1,0,1:0:0:0:
298,288,56807,5,4,1:2:0:0:
235,127,56943,1,0,0:0:0:0:
380,323,57080,2,0,P|455:350|505:339,1,120.000001001358,0|0,1:0|0:0,0:0:0:0:
396,65,57352,1,0,3:0:0:0:
298,288,57489,1,0,3:0:0:0:
217,57,57625,1,0,1:0:0:0:
440,154,57761,1,0,0:0:0:0:
184,304,57898,5,0,3:0:0:0:
262,125,58034,1,0,3:0:0:0:
327,310,58170,1,0,1:0:0:0:
148,232,58307,1,0,1:0:0:0:
396,221,58443,2,0,P|402:140|378:95,1,120.000001001358,4|0,0:0|0:0,0:0:0:0:
223,259,58716,2,0,P|216:339|240:384,1,120.000001001358,0|0,1:0|0:0,0:0:0:0:
56,108,58989,5,4,0:0:0:0:
237,155,59125,1,0,3:0:0:0:
56,108,59261,1,0,1:0:0:0:
106,289,59398,1,0,1:0:0:0:
106,289,59466,1,0,3:0:0:0:
106,289,59534,2,0,P|133:213|122:163,1,120.000001001358,0|0,3:0|0:0,0:0:0:0:
5,331,59807,1,0,1:0:0:0:
219,281,59943,1,0,0:0:0:0:
149,99,60080,5,0,3:0:0:0:
299,259,60216,1,0,3:0:0:0:
369,10,60352,1,0,1:0:0:0:
209,160,60489,1,0,1:0:0:0:
419,224,60625,2,0,P|372:158|325:138,1,120.000001001358,4|0,0:0|0:0,0:0:0:0:
193,288,60898,2,0,P|239:353|286:373,1,120.000001001358,0|0,1:0|0:0,0:0:0:0:
459,97,61170,5,4,1:0:0:0:
296,260,61307,1,2,0:0:0:0:
238,39,61443,1,2,1:2:0:0:
376,140,61580,5,0,0:0:0:0:
200,188,61716,1,2,0:0:0:0:
246,11,61852,1,2,0:0:0:0:
305,218,61989,5,0,1:0:0:0:
172,183,62125,1,2,0:0:0:0:
268,85,62261,1,2,0:0:0:0:
338,252,62398,5,0,0:0:0:0:
273,188,62534,1,2,1:2:0:0:
361,163,62670,1,0,0:0:0:0:
286,382,62807,6,0,P|249:335|250:277,1,120.000001001358,4|0,0:0|0:0,0:0:0:0:
236,82,63080,2,0,P|272:128|272:187,1,120.000001001358,0|0,1:0|0:0,0:0:0:0:
101,308,63352,5,4,1:0:0:0:
249,277,63489,2,0,L|307:263,2,60.0000005006791,0|0|0,0:0|0:0|1:0,0:0:0:0:
69,165,63761,5,0,0:0:0:0:
92,184,63830,1,0,0:0:0:0:
119,195,63898,1,0,0:0:0:0:
148,199,63966,1,0,0:0:0:0:
178,197,64034,1,0,0:0:0:0:
206,187,64102,1,0,0:0:0:0:
232,171,64170,1,0,1:0:0:0:
253,149,64239,1,0,0:0:0:0:
268,124,64307,1,0,0:0:0:0:
276,95,64375,1,0,0:0:0:0:
278,65,64443,2,0,P|274:41|259:8,1,60.0000005006791,2|0,0:0|0:0,0:0:0:0:
360,170,64580,5,4,0:0:0:0:
282,67,64716,1,0,1:0:0:0:
232,186,64852,1,0,0:0:0:0:
428,222,64989,2,0,P|446:165|424:111,1,120.000001001358,4|0,0:0|0:0,0:0:0:0:
152,154,65261,2,0,P|149:212|184:260,1,120.000001001358,0|0,1:0|0:0,0:0:0:0:
316,298,65534,5,4,1:0:0:0:
339,298,65943,1,2,0:0:0:0:
361,289,66352,1,2,0:0:0:0:
152,332,66898,1,0,0:0:0:0:
129,332,67170,1,2,0:0:0:0:
107,323,67443,1,0,0:0:0:0:
96,301,67716,6,0,B|70:191|177:189|141:59|141:59|57:64|30:155,1,399.999988079071,8|0,0:3|0:0,0:0:0:0:
188,266,68534,1,2,0:0:0:0:
188,266,68670,1,0,0:0:0:0:
143,232,69489,1,0,0:0:0:0:
140,217,69625,1,0,0:0:0:0:
145,202,69761,1,0,0:0:0:0:
158,192,69898,5,2,0:0:0:0:
199,190,70034,1,0,0:0:0:0:
228,163,70170,1,0,0:0:0:0:
228,122,70307,1,0,0:0:0:0:
228,163,70443,1,2,0:0:0:0:
256,208,70580,1,0,0:0:0:0:
300,224,70716,1,0,0:0:0:0:
380,153,70852,2,0,P|343:94|300:148,1,159.999995231628,0|2,0:0|0:0,0:0:0:0:
344,234,71261,2,0,B|284:271|253:213|191:255,2,159.999995231628,2|0|0,0:0|0:0|0:0,0:0:0:0:
107,325,72080,6,0,P|156:267|103:178,1,159.999995231628,2|0,0:0|0:0,0:0:0:0:
56,152,72489,2,0,P|130:165|181:75,2,159.999995231628,0|0|2,0:0|0:0|0:0,0:0:0:0:
190,256,73716,2,0,P|239:269|292:250,1,79.9999976158142,2|0,0:0|0:0,0:0:0:0:
382,128,73989,2,0,P|346:163|336:218,1,79.9999976158142
396,376,74261,5,0,0:0:0:0:
396,343,74398,1,0,0:0:0:0:
385,312,74534,1,0,0:0:0:0:
364,286,74670,1,0,0:0:0:0:
364,286,74943,1,0,0:0:0:0:
392,303,75080,1,0,0:0:0:0:
424,309,75216,1,0,0:0:0:0:
457,303,75352,2,0,P|405:257|512:227,2,239.999992847443,2|2|0,0:0|0:0|0:0,0:0:0:0:
213,264,76443,6,0,P|164:204|178:116,1,159.999995231628,2|0,0:0|0:0,0:0:0:0:
176,0,76852,2,0,P|148:72|65:104,1,159.999995231628,0|2,0:0|0:0,0:0:0:0:
0,125,77261,1,0,0:0:0:0:
34,197,77398,1,0,0:0:0:0:
72,266,77534,2,0,B|137:294|160:236|228:268,1,159.999995231628
274,343,77943,1,0,0:0:0:0:
186,345,78080,1,2,0:0:0:0:
227,268,78216,1,0,0:0:0:0:
275,194,78352,1,0,0:0:0:0:
321,119,78489,1,0,0:0:0:0:
364,42,78625,5,2,0:0:0:0:
408,120,78761,1,0,0:0:0:0:
321,119,78898,1,0,0:0:0:0:
364,42,79034,1,0,0:0:0:0:
500,104,79170,2,0,P|477:183|408:214,1,159.999995231628,0|2,0:0|0:0,0:0:0:0:
324,212,79580,2,0,P|254:246|234:321,1,159.999995231628,2|0,0:0|0:0,0:0:0:0:
228,225,79989,1,0,0:0:0:0:
154,163,80125,1,0,0:0:0:0:
58,169,80261,1,0,0:0:0:0:
111,250,80398,1,0,0:0:0:0:
154,163,80534,1,0,0:0:0:0:
58,169,80670,1,0,0:0:0:0:
111,250,80807,6,0,P|141:180|66:184,1,180.000001502037,4|0,0:0|0:0,0:0:0:0:
65,184,81080,1,0,1:0:0:0:
308,164,81216,6,0,P|251:229|264:316,1,180.000001502037
264,316,81489,1,0,1:0:0:0:
187,109,81625,5,4,0:0:0:0:
272,324,81761,1,0,1:0:0:0:
272,52,81898,5,0,1:0:0:0:
110,250,82034,1,0,1:0:0:0:
19,11,82170,1,0,1:0:0:0:
19,11,82307,1,0,1:0:0:0:
298,175,82443,6,0,B|394:201|372:122|470:152,1,180.000001502037
346,270,82716,6,0,B|215:309|244:204|117:238,1,239.999992847443
298,175,82989,6,0,P|306:81|232:149,1,239.999992847443,4|0,1:2|0:0,0:0:0:0:
177,358,83261,1,0,0:0:0:0:
320,159,83398,6,0,P|280:73|250:169,1,239.999992847443,4|0,0:0|0:0,0:0:0:0:
306,379,83670,1,0,0:0:0:0:
331,135,83807,6,0,P|254:80|276:178,1,239.999992847443,4|0,1:2|0:0,0:0:0:0:
428,332,84080,1,0,0:0:0:0:
184,232,84216,1,0,0:0:0:0:
403,70,84352,6,0,B|437:151|376:221|376:221|336:262|321:313|332:367,2,319.999990463257,0|0|0,1:0|0:0|1:0,0:0:0:0:
428,332,85034,1,0,1:0:0:0:
225,194,85170,6,0,P|221:64|331:134,1,319.999990463257,4|0,0:0|1:0,0:0:0:0:
280,312,85580,1,0,1:0:0:0:
165,59,85716,2,0,B|118:34|47:53|47:53|78:77,1,159.999995231628
319,32,85989,1,0,1:0:0:0:
124,266,86125,6,0,B|99:320|132:360|132:360|242:343|249:212|180:154|92:174,1,319.999990463257,4|0,0:1|0:0,0:0:0:0:
29,263,86534,2,0,P|57:335|131:359,1,159.999995231628,0|0,1:0|0:0,0:0:0:0:
80,82,86807,5,4,0:0:0:0:
124,266,86943,1,0,0:0:0:0:
157,116,87080,5,0,1:0:0:0:
29,263,87216,1,0,1:0:0:0:
0,54,87352,5,4,1:2:0:0:
31,263,87489,1,0,1:0:0:0:
88,66,87625,5,0,1:0:0:0:
132,250,87761,1,0,1:0:0:0:
173,77,87898,5,0,1:0:0:0:
226,237,88034,1,0,1:0:0:0:
256,90,88170,5,0,1:0:0:0:
314,225,88307,1,0,1:0:0:0:
300,25,88443,5,4,1:0:0:0:
226,237,88580,1,0,1:0:0:0:
226,236,88716,6,0,P|274:203|284:146,1,120.000001001358,0|0,1:0|0:0,0:0:0:0:
165,319,88989,6,0,P|251:331|323:264,1,120.000001001358,4|0,0:0|0:0,0:0:0:0:
140,176,89261,6,0,P|127:262|194:334,1,159.999995231628,4|0,1:0|1:0,3:0:0:0:
172,71,89534,6,0,P|85:81|33:165,1,159.999995231628,4|0,1:2|0:0,0:0:0:0:
165,319,89807,1,0,1:0:0:0:
328,192,89943,2,0,P|414:178|486:245,1,159.999995231628,2|0,0:0|0:0,0:0:0:0:
174,293,90216,1,2,0:0:0:0:
154,258,90284,1,0,0:0:0:0:
153,218,90352,1,0,0:0:0:0:
189,234,90420,1,0,0:0:0:0:
210,268,90489,1,2,0:0:0:0:
212,309,90557,1,0,0:0:0:0:
196,345,90625,5,4,0:1:0:0:
234,316,90693,1,0,0:0:0:0:
280,303,90761,1,0,0:0:0:0:
328,310,90830,1,0,0:0:0:0:
369,334,90898,1,0,0:0:0:0:
417,317,90966,1,0,0:0:0:0:
450,277,91034,1,0,0:0:0:0:
452,226,91102,1,0,0:0:0:0:
448,169,91170,5,0,3:0:0:0:
402,199,91239,1,0,3:0:0:0:
347,197,91307,1,0,3:0:0:0:
303,163,91375,1,0,3:0:0:0:
289,110,91443,1,0,3:0:0:0:
308,58,91511,1,0,3:0:0:0:
354,28,91580,1,0,3:0:0:0:
409,30,91648,1,0,3:0:0:0:
452,64,91716,6,0,P|464:101|448:165,2,80.0000006675721,4|0|0,1:0|0:0|0:0,0:0:0:0:
289,110,91989,2,0,P|297:148|342:195,2,80.0000006675721,0|0|0,1:0|0:0|0:0,0:0:0:0:
406,213,92261,2,0,P|396:258|341:315,2,80.0000006675721,0|0|0,1:0|0:0|0:0,0:0:0:0:
207,161,92534,2,0,P|192:199|193:239,2,80.0000006675721,0|0|0,1:0|0:0|0:0,0:0:0:0:
321,180,92807,5,4,1:2:0:0:
265,226,92898,1,2,0:0:0:0:
193,239,92989,1,2,0:0:0:0:
119,233,93080,1,2,1:2:0:0:
51,208,93170,1,2,0:0:0:0:
3,153,93261,1,2,0:0:0:0:
93,303,93352,5,2,1:2:0:0:
119,233,93443,1,2,0:0:0:0:
173,185,93534,1,2,0:0:0:0:
242,154,93625,1,2,1:2:0:0:
314,141,93716,1,2,0:0:0:0:
384,165,93807,1,2,0:0:0:0:
384,20,93898,5,6,0:2:0:0:
332,69,93989,1,2,0:0:0:0:
314,141,94080,1,2,0:0:0:0:
328,212,94170,1,2,1:2:0:0:
371,271,94261,1,2,0:0:0:0:
435,303,94352,1,2,0:0:0:0:
508,312,94443,5,2,1:2:0:0:
384,165,94580,1,0,0:0:0:0:
416,156,94648,1,0,0:0:0:0:
452,168,94716,1,0,1:0:0:0:
328,312,94852,1,0,0:0:0:0:
291,91,94989,5,4,0:0:0:0:
335,91,95057,1,0,0:0:0:0:
372,115,95125,1,0,0:0:0:0:
390,156,95193,1,0,0:0:0:0:
382,200,95261,1,0,1:0:0:0:
386,243,95330,1,0,0:0:0:0:
419,271,95398,1,0,0:0:0:0:
462,267,95466,1,0,0:0:0:0:
490,234,95534,5,0,0:0:0:0:
486,191,95602,1,0,0:0:0:0:
453,163,95670,1,0,0:0:0:0:
412,168,95739,1,0,0:0:0:0:
412,216,95807,1,0,1:0:0:0:
412,216,95875,1,0,0:0:0:0:
412,216,95943,1,0,1:0:0:0:
412,216,96011,1,0,0:0:0:0:
412,216,96080,6,0,P|479:164|335:79,1,319.999990463257,4|0,1:0|0:0,0:0:0:0:
216,296,96489,2,0,P|149:244|293:159,1,319.999990463257,0|0,1:0|0:0,0:0:0:0:
352,316,96830,1,0,0:0:0:0:
395,295,96898,1,0,0:0:0:0:
415,261,96966,1,0,0:0:0:0:
413,229,97034,1,0,0:0:0:0:
399,211,97102,1,0,0:0:0:0:
385,199,97170,6,0,B|364:275|404:337|460:358|460:358|436:312|384:306|351:316,1,319.999990463257,4|0,1:0|0:0,0:0:0:0:
262,264,97580,2,0,B|246:288|240:338|259:382|259:382|324:369|351:316,1,239.999992847443,4|0,0:0|0:0,0:0:0:0:
385,199,97852,1,0,3:0:0:0:
367,135,97920,1,0,3:0:0:0:
329,87,97989,1,0,3:0:0:0:
274,67,98057,1,0,3:0:0:0:
218,68,98125,1,0,3:0:0:0:
177,94,98193,1,0,3:0:0:0:
152,140,98261,5,4,1:0:0:0:
151,189,98330,1,0,3:0:0:0:
179,229,98398,1,0,3:0:0:0:
225,246,98466,1,0,3:0:0:0:
272,233,98534,1,0,3:0:0:0:
303,194,98602,1,0,3:0:0:0:
306,145,98670,1,0,3:0:0:0:
280,104,98739,1,0,3:0:0:0:
236,84,98807,5,0,3:0:0:0:
218,134,98875,1,0,3:0:0:0:
234,187,98943,1,0,3:0:0:0:
276,222,99011,1,0,3:0:0:0:
329,227,99080,1,0,3:0:0:0:
378,201,99148,1,0,3:0:0:0:
404,154,99216,1,0,3:0:0:0:
401,101,99284,1,0,3:0:0:0:
366,58,99352,6,0,L|281:19,1,80.0000006675721,4|0,1:2|0:0,0:0:0:0:
227,257,99534,2,0,L|141:219,1,80.0000006675721,4|0,1:2|0:0,0:0:0:0:
144,44,99716,2,0,L|59:5,1,80.0000006675721,4|0,0:0|0:0,0:0:0:0:
40,236,99898,5,2,0:0:0:0:
88,164,99989,1,2,0:0:0:0:
0,160,100080,1,2,0:0:0:0:
73,255,100170,5,0,0:0:0:0:
80,176,100261,1,0,0:0:0:0:
8,208,100352,1,0,0:0:0:0:
73,255,100443,6,0,P|102:206|86:118,1,120.000001001358,4|0,1:2|0:0,0:0:0:0:
0,64,100716,1,0,1:0:0:0:
179,246,100852,1,0,0:0:0:0:
248,0,100989,1,0,1:0:0:0:
72,216,101125,5,0,1:0:0:0:
219,256,101261,1,0,1:0:0:0:
181,108,101398,1,0,1:0:0:0:
159,312,101534,5,0,0:0:0:0:
322,152,101670,1,0,1:0:0:0:
100,90,101807,2,0,L|-16:56,1,120.000001001358,0|0,1:0|0:0,0:0:0:0:
219,255,102080,6,0,P|227:197|204:142,1,120.000001001358,4|0,1:2|0:0,0:0:0:0:
32,213,102352,2,0,P|52:266|111:308,1,120.000001001358,0|0,1:0|0:0,0:0:0:0:
352,223,102625,5,4,0:0:0:0:
240,352,102761,1,0,0:0:0:0:
408,384,102898,1,0,1:0:0:0:
264,160,103034,5,0,0:0:0:0:
367,250,103170,1,0,1:0:0:0:
394,117,103307,1,0,1:0:0:0:
349,269,103443,5,0,1:0:0:0:
482,113,103580,1,0,0:0:0:0:
281,74,103716,5,0,1:0:0:0:
360,295,103852,1,0,1:0:0:0:
129,251,103989,2,0,L|-28:224,1,120.000001001358,0|0,1:0|0:0,0:0:0:0:
384,176,104261,6,0,P|438:200|472:248,1,120.000001001358,4|0,0:0|0:0,0:0:0:0:
272,384,104534,2,0,P|237:335|232:276,1,120.000001001358,0|0,1:0|0:0,0:0:0:0:
336,64,104807,5,4,1:2:0:0:
192,192,104943,1,0,0:0:0:0:
153,3,105080,1,0,1:0:0:0:
328,208,105216,5,0,0:0:0:0:
177,239,105352,1,0,1:0:0:0:
225,92,105489,1,0,1:0:0:0:
240,304,105625,5,0,1:0:0:0:
57,243,105761,1,0,1:0:0:0:
227,135,105898,5,0,0:0:0:0:
154,355,106034,1,0,1:0:0:0:
0,182,106170,2,0,L|132:226,1,120.000001001358,0|0,1:0|0:0,0:0:0:0:
369,284,106443,6,0,L|255:322,1,120.000001001358,4|0,0:0|0:0,0:0:0:0:
145,96,106716,2,0,P|203:91|255:120,1,120.000001001358,0|0,1:0|0:0,0:0:0:0:
256,263,106989,5,4,0:0:0:0:
256,121,107125,1,0,0:0:0:0:
331,196,107261,1,0,1:0:0:0:
162,186,107398,5,0,0:0:0:0:
256,92,107534,1,0,1:0:0:0:
256,286,107670,1,0,1:0:0:0:
132,184,107807,5,0,1:0:0:0:
256,62,107943,1,0,0:0:0:0:
256,326,108080,5,4,1:0:0:0:
295,350,108148,1,0,0:0:0:0:
342,343,108216,1,0,0:0:0:0:
371,306,108284,1,0,0:0:0:0:
369,259,108352,1,0,1:0:0:0:
337,225,108420,1,0,0:0:0:0:
316,184,108489,1,0,0:0:0:0:
320,136,108557,1,0,0:0:0:0:
344,96,108625,5,0,1:2:0:0:
336,44,108693,1,0,3:0:0:0:
300,8,108761,1,0,3:0:0:0:
248,1,108830,1,0,3:0:0:0:
203,27,108898,1,0,1:0:0:0:
183,74,108966,1,0,3:0:0:0:
195,124,109034,1,0,3:0:0:0:
235,157,109102,1,0,3:0:0:0:
287,158,109170,5,4,1:0:0:0:
344,16,109307,1,0,0:0:0:0:
358,239,109443,1,0,0:0:0:0:
396,76,109580,5,2,0:0:0:0:
432,314,109716,1,0,0:0:0:0:
452,132,109852,1,0,0:0:0:0:
512,384,109989,5,2,0:2:0:0:
512,184,110125,1,0,0:0:0:0:
432,314,110261,1,0,0:0:0:0:
452,132,110398,5,2,0:0:0:0:
358,239,110534,1,0,0:0:0:0:
396,76,110670,1,0,0:0:0:0:
287,158,110807,6,0,P|314:93|396:76,1,159.999995231628,2|0,0:2|2:0,0:0:0:0:
336,312,111080,2,0,L|176:244,1,159.999995231628,2|0,1:0|2:0,0:0:0:0:
0,168,111352,5,2,0:2:0:0:
0,368,111489,1,0,0:0:0:0:
60,116,111625,1,0,0:0:0:0:
80,298,111761,5,2,0:0:0:0:
116,60,111898,1,0,0:0:0:0:
154,223,112034,1,0,0:0:0:0:
168,0,112170,5,2,0:2:0:0:
225,142,112307,1,0,0:0:0:0:
116,60,112443,1,0,0:0:0:0:
154,223,112580,5,2,0:0:0:0:
60,116,112716,1,0,0:0:0:0:
80,298,112852,1,0,0:0:0:0:
0,167,112989,6,0,P|101:126|153:223,1,240.000002002716,2|0,1:2|0:0,0:0:0:0:
219,82,113261,2,0,P|131:27|101:126,1,240.000002002716,2|0,1:0|0:0,0:0:0:0:
332,216,113534,5,4,1:0:0:0:
112,296,113670,1,2,1:2:0:0:
221,63,113807,1,2,1:2:0:0:
317,328,113943,5,0,1:0:0:0:
41,199,114080,1,2,1:0:0:0:
350,87,114216,1,0,1:0:0:0:
221,362,114352,5,0,1:0:0:0:
125,97,114489,1,2,1:2:0:0:
359,206,114625,1,2,1:2:0:0:
139,286,114761,5,0,1:0:0:0:
229,96,114898,1,2,1:0:0:0:
30,168,115034,1,0,1:0:0:0:
243,267,115170,5,2,1:2:0:0:
154,24,115307,1,0,1:0:0:0:
35,278,115443,5,0,1:2:0:0:
322,174,115580,1,0,1:0:0:0:
23,35,115716,5,4,1:0:0:0:
135,344,115852,1,0,1:0:0:0:
347,93,115989,1,0,1:0:0:0:
212,332,116125,5,4,1:0:0:0:
312,53,116261,1,0,1:0:0:0:
503,279,116398,1,0,1:0:0:0:
217,167,116534,5,4,1:0:0:0:
232,122,116602,1,0,1:0:0:0:
280,122,116670,1,0,1:0:0:0:
294,167,116739,1,0,3:0:0:0:
256,196,116807,1,0,3:0:0:0:
256,48,116943,5,4,1:2:0:0:
152,324,117080,5,2,0:0:0:0:
416,76,117216,1,2,0:0:0:0:
124,200,117352,5,2,0:0:0:0:
388,200,117489,1,2,0:0:0:0:
96,76,117625,5,2,0:0:0:0:
360,324,117761,1,2,0:0:0:0:
256,6,117898,5,0,1:0:0:0:
200,64,117989,1,0,1:0:0:0:
256,120,118080,1,0,3:0:0:0:
312,64,118170,1,0,3:0:0:0:
120,376,118352,5,0,3:0:0:0:
196,352,118443,2,0,B|256:312|284:224|265:166|265:166|168:164|128:224|128:224|196:236|266:169|266:169|256:112|156:8|32:64|32:64|80:112|204:148|248:-12|412:12|456:44|456:44|352:88|348:176|348:176|344:252|392:284|460:292|528:296|534:178|515:152|482:137|448:152|432:184|432:184,1,1791.99994659424,4|0,0:1|0:0,0:0:0:0:
