osu file format v14

[General]
AudioFilename: audio.mp3
AudioLeadIn: 0
PreviewTime: 82443
Countdown: 0
SampleSet: Soft
StackLeniency: 0.3
Mode: 0
LetterboxInBreaks: 0
WidescreenStoryboard: 0

[Editor]
Bookmarks: 80730
DistanceSpacing: 1
BeatDivisor: 4
GridSize: 4
TimelineZoom: 2

[Metadata]
Title:Preserved Valkyria
TitleUnicode:Preserved Valkyria
Artist:penoreri
ArtistUnicode:ぺのれり
Creator:Kroytz
Version:Akitoshi's NOVICE
Source:SOUND VOLTEX III GRAVITY WARS
Tags:sdvx konami arcade championship kac song contest Renumi Akitoshi -Laura- pkk Sharkie Zexous Kawashiro Fushimi Rio
BeatmapID:1366184
BeatmapSetID:644642

[Difficulty]
HPDrainRate:4
CircleSize:3.3
OverallDifficulty:4.5
ApproachRate:5.5
SliderMultiplier:1.1
SliderTickRate:1

[Events]
//Background and Video events
0,0,"BG.png",0,0
//Break Periods
2,29314,31989
2,44927,46955
2,65734,79682
//Storyboard Layer 0 (Background)
//Storyboard Layer 1 (Fail)
//Storyboard Layer 2 (Pass)
//Storyboard Layer 3 (Foreground)
//Storyboard Sound Samples

[TimingPoints]
1373,387.096774193548,4,2,1,70,1,0
46276,400,4,2,1,70,1,0
46676,413.793103448276,4,2,1,70,1,0
47089,461.538461538462,4,2,1,70,1,0
47550,530.973451327434,4,2,1,70,1,0
48080,272.727272727273,4,2,1,70,1,0
56807,-100,4,2,1,70,0,0
83807,-95.2380952380952,4,2,1,80,0,1
100443,-100,4,2,1,70,0,0
109170,-95.2380952380952,4,2,1,80,0,1
118443,-100,4,2,1,70,0,0
122261,-100,4,2,1,5,0,0

[Colours]
Combo1 : 192,68,192
Combo2 : 255,68,68
Combo3 : 255,128,68
Combo4 : 255,255,85
Combo5 : 96,255,68
Combo6 : 0,128,255

[HitObjects]
450,196,1373,6,0,P|389:182|325:206,1,110,6|2,0:0|0:0,0:0:0:0:
244,240,2147,2,0,L|150:235,2,82.5,2|2|2,0:0|0:0|0:0,0:0:0:0:
338,296,3114,1,2,0:0:0:0:
429,234,3502,5,2,0:0:0:0:
429,234,3695,2,0,L|415:58,1,165,2|2,0:0|0:0,0:0:0:0:
320,11,4663,1,2,0:0:0:0:
240,87,5050,2,0,P|206:96|84:54,1,165,2|2,0:0|0:0,0:0:0:0:
39,28,5824,6,0,B|18:134|18:134|34:199,1,165,2|2,0:0|0:0,0:0:0:0:
88,284,6792,1,2,0:0:0:0:
194,312,7179,1,2,0:0:0:0:
285,250,7566,6,0,P|346:266|402:257,2,110,6|2|2,0:0|0:0|0:0,0:0:0:0:
194,188,8727,1,2,0:0:0:0:
285,127,9114,2,0,P|346:111|402:120,1,110,2|2,0:0|0:0,0:0:0:0:
471,192,9889,2,0,L|473:258,1,55,2|2,0:0|0:0,0:0:0:0:
508,288,10276,2,0,L|506:354,1,55,2|2,0:0|0:0,0:0:0:0:
457,368,10663,6,0,P|403:372|346:351,1,110,2|2,0:0|0:0,0:0:0:0:
287,264,11437,2,0,P|233:260|176:281,1,110,2|2,0:0|0:0,0:0:0:0:
78,317,12211,2,0,B|47:279|47:279|54:148,1,165,2|2,0:0|0:0,0:0:0:0:
65,109,12985,1,2,0:0:0:0:
167,68,13372,1,2,0:0:0:0:
274,97,13760,6,0,L|258:221,2,110,6|2|2,0:0|0:0|0:0,0:0:0:0:
355,23,14921,1,2,0:0:0:0:
436,97,15308,2,0,L|452:221,2,110,2|2|2,0:0|0:0|0:0,0:0:0:0:
355,23,16469,2,0,L|293:33,1,55,2|0,0:0|0:0,0:0:0:0:
246,43,16856,6,0,P|181:33|133:48,2,110,2|2|2,0:0|0:0|0:0,0:0:0:0:
315,128,18018,1,2,0:0:0:0:
229,196,18405,2,0,P|219:261|234:309,1,110,2|2,0:0|0:0,0:0:0:0:
325,247,19179,2,0,L|329:184,1,55,2|0,0:0|0:0,0:0:0:0:
359,146,19566,2,0,L|355:83,1,55,2|0,0:0|0:0,0:0:0:0:
325,44,19953,6,0,B|268:33|268:33|219:50|219:50|157:16|81:54|68:116|84:160,1,330,6|2,0:0|0:0,0:0:0:0:
114,261,21502,2,0,B|194:283|262:230|262:230|345:254,1,220,6|2,0:0|0:0,0:0:0:0:
374,263,22469,2,0,L|385:350,2,82.5,6|6|6,0:0|0:0|3:2,0:0:0:0:
256,192,23243,12,6,29114,3:2:0:0:
63,223,33114,6,0,P|116:203|219:243,1,165,4|0,3:2|0:0,0:0:0:0:
258,270,33889,2,0,B|475:239|475:239|459:171|393:144,1,330,4|0,3:0|0:0,0:0:0:0:
307,115,35437,5,4,3:0:0:0:
256,192,35631,12,8,38147,3:2:0:0:
257,190,39308,6,0,P|202:180|131:180,1,110,4|0,0:2|0:0,0:0:0:0:
37,190,40082,1,4,0:2:0:0:
194,345,40856,2,0,L|281:355,2,82.5,4|4|4,3:0|3:0|3:0,0:0:0:0:
151,309,41631,5,4,3:2:0:0:
256,192,41824,12,6,44727,3:2:0:0:
74,209,48080,6,0,P|125:198|192:213,1,110,6|0,0:0|0:0,0:0:0:0:
220,246,48489,2,0,L|343:237,1,110,2|0,0:0|0:0,0:0:0:0:
384,229,48898,1,2,0:0:0:0:
430,70,49307,2,0,P|386:26|324:12,1,110,2|0,0:0|0:0,0:0:0:0:
286,14,49716,1,2,0:0:0:0:
187,63,49989,1,2,0:0:0:0:
229,164,50261,6,0,L|223:285,1,110,2|0,0:0|0:0,0:0:0:0:
215,328,50670,2,0,P|151:341|93:325,1,110,2|0,0:0|0:0,0:0:0:0:
59,305,51080,1,2,0:0:0:0:
85,198,51352,2,0,B|116:135|66:102|105:36,1,165,2|0,0:0|0:0,0:0:0:0:
155,18,51898,1,2,0:0:0:0:
261,46,52170,1,2,0:0:0:0:
265,156,52443,6,0,P|320:167|376:155,1,110,6|0,0:0|0:0,0:0:0:0:
420,130,52852,2,0,L|428:248,1,110,2|0,0:0|0:0,0:0:0:0:
430,294,53261,1,2,0:0:0:0:
275,352,53670,2,0,P|223:328|193:286,1,110,2|0,0:0|0:0,0:0:0:0:
170,235,54080,2,0,L|58:244,1,110,6|0,0:0|0:0,0:0:0:0:
30,137,54625,6,0,P|26:88|53:34,1,110,6|0,0:0|0:0,0:0:0:0:
106,22,55034,2,0,B|160:39|160:39|226:30,1,110,2|0,0:0|0:0,0:0:0:0:
267,21,55443,1,2,0:0:0:0:
302,125,55716,2,0,P|275:172|280:241,1,110,6|6,3:2|3:2,0:0:0:0:
299,333,56261,2,0,L|360:327,1,55,6|2,3:2|3:2,0:0:0:0:
402,353,56534,2,0,L|463:347,1,55,6|2,3:2|3:2,0:0:0:0:
511,354,56807,6,0,L|504:219,1,110,6|8,0:2|0:2,0:0:0:0:
500,189,57216,2,0,P|450:161|383:161,1,110,2|0,0:2|0:0,0:0:0:0:
345,172,57625,1,10,0:2:0:0:
261,243,57898,2,0,L|272:318,2,55,0|2|8,0:0|0:2|0:2,0:0:0:0:
212,143,58443,2,0,L|134:140,1,55,2|2,0:2|0:2,0:0:0:0:
113,106,58716,2,0,L|35:109,1,55,10|2,0:2|0:2,0:0:0:0:
5,89,58989,6,0,L|18:219,1,110,2|8,0:2|0:2,0:0:0:0:
24,253,59398,2,0,P|83:256|132:285,1,110,2|0,0:2|0:0,0:0:0:0:
162,321,59807,1,10,0:2:0:0:
265,283,60080,2,0,L|337:291,2,55,0|2|8,0:2|0:2|0:2,0:0:0:0:
189,202,60625,2,0,L|183:131,1,55,2|2,0:2|0:2,0:0:0:0:
147,105,60898,2,0,L|153:34,1,55,10|2,0:2|0:2,0:0:0:0:
195,17,61170,6,0,P|248:37|308:30,1,110,6|8,0:2|0:2,0:0:0:0:
352,14,61580,2,0,L|344:143,1,110,2|0,0:2|0:0,0:0:0:0:
311,167,61989,2,0,L|318:240,1,55,10|0,0:2|0:0,0:0:0:0:
276,324,62398,2,0,P|219:334|165:318,1,110,2|0,0:2|0:0,0:0:0:0:
123,290,62807,1,6,0:2:0:0:
78,189,63080,1,10,0:2:0:0:
123,89,63352,6,0,L|236:83,1,110,6|2,0:2|0:2,0:0:0:0:
283,60,63761,1,6,0:2:0:0:
429,135,64170,2,0,P|443:204|432:249,1,110,6|6,0:2|0:2,0:0:0:0:
402,286,64580,1,2,0:2:0:0:
240,250,64989,2,0,B|124:241,1,110,6|10,0:2|0:2,0:0:0:0:
40,305,65534,5,6,0:0:0:0:
256,195,80807,6,0,L|140:206,1,110,14|14,3:2|3:2,0:0:0:0:
97,231,81216,2,0,P|75:175|79:118,1,110,10|14,3:2|3:2,0:0:0:0:
110,83,81625,1,0,3:2:0:0:
110,83,81761,2,0,B|140:79|179:89|179:89|209:70|254:74|254:74|284:90|330:83,1,220,0|0,3:2|3:2,0:0:0:0:
324,83,82989,6,0,L|338:214,1,110,6|2,0:0|0:0,0:0:0:0:
387,210,83398,2,0,L|373:341,1,110,6|2,0:0|0:0,0:0:0:0:
330,356,83807,6,0,B|276:325|276:325|162:333,1,173.24999471283,4|0,0:1|0:0,0:0:0:0:
108,343,84352,1,8,0:0:0:0:
33,254,84625,1,2,0:0:0:0:
61,142,84898,1,10,0:0:0:0:
158,80,85170,6,0,P|216:96|280:84,1,115.49999647522,2|8,0:0|0:0,0:0:0:0:
378,47,85716,2,0,L|390:115,1,57.7499982376099,0|0,0:0|0:0,0:0:0:0:
427,154,85989,1,10,0:0:0:0:
427,154,86125,2,0,L|414:277,1,115.49999647522,0|0,0:0|0:0,0:0:0:0:
404,326,86534,1,8,0:0:0:0:
291,352,86807,2,0,P|262:356|222:352,1,57.7499982376099,2|0,0:0|0:0,0:0:0:0:
190,315,87080,2,0,P|161:319|121:315,1,57.7499982376099,10|0,0:0|0:0,0:0:0:0:
87,281,87352,6,0,L|71:154,1,115.49999647522,6|10,0:0|0:0,0:0:0:0:
60,109,87761,2,0,P|110:80|179:79,1,115.49999647522,2|2,0:0|0:0,0:0:0:0:
222,93,88170,1,10,0:0:0:0:
286,194,88443,1,6,0:0:0:0:
286,194,88580,2,0,L|409:183,1,115.49999647522,0|0,0:0|0:0,0:0:0:0:
458,180,88989,1,2,0:0:0:0:
508,76,89261,1,10,0:0:0:0:
403,26,89534,6,0,P|334:19|276:44,1,115.49999647522,6|8,0:0|0:0,0:0:0:0:
249,74,89943,2,0,L|114:61,1,115.49999647522,0|0,0:0|0:0,0:0:0:0:
76,57,90352,1,8,0:0:0:0:
10,151,90625,2,0,P|2:214|27:278,1,115.49999647522,6|6,0:0|0:0,0:0:0:0:
112,327,91170,2,0,L|171:320,1,57.7499982376099,6|2,0:0|0:0,0:0:0:0:
213,283,91443,2,0,L|272:290,1,57.7499982376099,6|2,0:0|0:0,0:0:0:0:
320,318,91716,6,0,B|333:279|334:251|334:251|322:205|322:205|364:173|347:101|347:101|284:130|222:95,1,346.49998942566,4|4,3:2|3:2,0:0:0:0:
131,48,92807,6,0,B|74:83|65:138|65:138|87:192|87:192|51:236|51:236|43:299|84:357,1,346.49998942566,6|2,3:2|3:2,0:0:0:0:
191,326,93898,6,0,B|254:311|254:311|298:334|298:334|354:308|412:336|412:336|471:328|471:328|506:260,1,346.49998942566,6|2,3:2|3:2,0:0:0:0:
480,165,94989,6,0,B|426:139|367:142|367:142|306:184|260:160|260:160|198:195|142:169,1,346.49998942566,6|2,0:0|0:0,0:0:0:0:
81,78,96080,6,0,P|114:40|184:21,1,115.49999647522,2|2,3:2|3:2,0:0:0:0:
224,49,96489,2,0,L|347:39,1,115.49999647522,4|2,3:2|0:0,0:0:0:0:
396,34,96898,1,2,0:0:0:0:
471,121,97170,2,0,P|485:180|468:238,1,115.49999647522,2|2,3:2|3:2,0:0:0:0:
427,271,97580,2,0,P|368:257|310:274,1,115.49999647522,6|2,3:2|0:0,0:0:0:0:
267,302,97989,1,2,0:0:0:0:
159,343,98261,6,0,L|148:224,1,115.49999647522,4|0,3:2|3:0,0:0:0:0:
118,185,98670,1,0,0:0:0:0:
118,185,98807,2,0,L|129:66,1,115.49999647522,6|2,3:2|3:2,0:0:0:0:
239,36,99352,2,0,P|299:27|366:49,1,115.49999647522,6|2,3:2|3:2,0:0:0:0:
419,134,99898,2,0,P|428:194|406:261,1,115.49999647522,6|2,3:2|3:2,0:0:0:0:
317,299,100443,6,0,L|205:289,1,110,6|8,0:0|0:0,0:0:0:0:
112,232,100989,2,0,L|40:241,2,55,2|0|10,0:0|0:0|0:0,0:0:0:0:
145,188,101398,2,0,P|179:154|251:136,1,110,0|0,0:0|0:0,0:0:0:0:
292,141,101807,1,10,0:0:0:0:
398,170,102080,2,0,L|407:234,1,55,2|0,0:0|0:0,0:0:0:0:
451,255,102352,2,0,L|442:319,1,55,10|0,0:0|0:0,0:0:0:0:
408,352,102625,6,0,P|353:363|287:337,1,110,2|8,0:0|0:0,0:0:0:0:
213,282,103170,2,0,L|136:287,2,55,2|0|10,0:0|0:0|0:0,0:0:0:0:
256,247,103580,2,0,P|269:196|253:133,1,110,0|0,0:0|0:0,0:0:0:0:
221,98,103989,1,10,0:0:0:0:
111,110,104261,2,0,L|102:175,1,55,2|0,0:0|0:0,0:0:0:0:
65,204,104534,2,0,L|74:269,1,55,10|0,0:0|0:0,0:0:0:0:
95,308,104807,6,0,P|142:301|215:323,1,110,6|8,0:0|0:0,0:0:0:0:
244,350,105216,2,0,L|359:340,1,110,2|0,0:0|0:0,0:0:0:0:
394,302,105625,2,0,L|451:307,1,55,10|2,0:0|0:0,0:0:0:0:
490,204,106034,2,0,P|499:150|477:84,1,110
445,58,106443,1,2,0:0:0:0:
334,70,106716,2,0,L|278:64,1,55,10|0,0:0|0:0,0:0:0:0:
228,43,106989,6,0,P|209:89|214:156,1,110,6|8,0:0|0:0,0:0:0:0:
222,202,107398,2,0,P|176:183|109:188,1,110,2|0,0:0|0:0,0:0:0:0:
68,212,107807,1,10,0:0:0:0:
82,321,108080,2,0,P|128:340|195:335,1,110,6|6,0:0|0:0,0:0:0:0:
288,293,108625,2,0,L|367:296,1,55,6|0,0:0|0:0,0:0:0:0:
389,324,108898,2,0,L|468:321,1,55,6|2,0:0|0:0,0:0:0:0:
497,342,109170,6,0,L|486:218,1,115.49999647522,14|8,3:2|3:2,0:0:0:0:
472,170,109580,2,0,P|413:151|340:156,1,115.49999647522,2|0,3:2|3:2,0:0:0:0:
303,162,109989,1,10,3:2:0:0:
215,86,110261,2,0,L|222:4,2,57.7499982376099,8|2|8,3:2|3:2|3:2,0:0:0:0:
127,162,110807,2,0,L|134:244,1,57.7499982376099,10|0,3:2|3:2,0:0:0:0:
179,252,111080,2,0,L|172:334,1,57.7499982376099,10|0,3:2|3:2,0:0:0:0:
156,364,111352,6,0,P|97:370|27:338,1,115.49999647522,10|8,3:2|3:2,0:0:0:0:
16,301,111761,2,0,L|26:179,1,115.49999647522,2|0,3:2|3:2,0:0:0:0:
37,129,112170,1,10,3:2:0:0:
143,83,112443,2,0,L|138:15,2,57.7499982376099,8|2|8,3:2|3:2|3:2,0:0:0:0:
193,187,112989,2,0,P|236:192|267:187,1,57.7499982376099,10|0,3:2|3:2,0:0:0:0:
300,161,113261,2,0,P|343:166|374:161,1,57.7499982376099,10|0,3:2|3:2,0:0:0:0:
408,137,113534,6,0,L|421:265,1,115.49999647522,14|10,3:2|3:2,0:0:0:0:
426,309,113943,2,0,P|372:293|296:303,1,115.49999647522,2|2,3:2|3:2,0:0:0:0:
265,329,114352,2,0,L|197:323,1,57.7499982376099,10|2,3:2|3:2,0:0:0:0:
93,303,114761,2,0,P|56:259|45:181,1,115.49999647522,2|2,3:2|3:2,0:0:0:0:
48,145,115170,1,14,3:2:0:0:
124,58,115443,1,14,3:2:0:0:
226,112,115716,6,0,L|233:237,1,115.49999647522,14|10,3:2|3:2,0:0:0:0:
255,280,116125,2,0,P|314:293|371:279,1,115.49999647522,4|0,3:2|3:2,0:0:0:0:
416,250,116534,1,14,3:2:0:0:
449,80,116943,2,0,L|458:16,2,57.7499982376099,2|2|2,3:2|3:2|3:2,0:0:0:0:
408,121,117352,2,0,P|373:122|345:118,1,57.7499982376099,2|2,3:2|3:2,0:0:0:0:
298,94,117625,2,0,P|263:93|235:97,1,57.7499982376099,2|2,3:2|3:2,0:0:0:0:
199,136,117898,2,0,L|71:129,1,115.49999647522,4|4,3:0|3:0,0:0:0:0:
28,34,118443,5,6,3:2:0:0:
256,192,118580,12,0,122261,0:0:0:0:
