osu file format v14

[General]
AudioFilename: audio.mp3
AudioLeadIn: 0
PreviewTime: 82463
Countdown: 0
SampleSet: Soft
StackLeniency: 0.6
Mode: 0
LetterboxInBreaks: 0
WidescreenStoryboard: 0

[Editor]
DistanceSpacing: 1
BeatDivisor: 6
GridSize: 4
TimelineZoom: 3.499999

[Metadata]
Title:Preserved Valkyria
TitleUnicode:Preserved Valkyria
Artist:penoreri
ArtistUnicode:ぺのれり
Creator:KnightC0re
Version:Valkyrie
Source:SOUND VOLTEX III GRAVITY WARS
Tags:mizki sepia -jordan- sdvx konami
BeatmapID:1133461
BeatmapSetID:535118

[Difficulty]
HPDrainRate:5.5
CircleSize:4
OverallDifficulty:9.6
ApproachRate:10
SliderMultiplier:1.4
SliderTickRate:1

[Events]
//Background and Video events
0,0,"bg.png",0,0
//Break Periods
//Storyboard Layer 0 (Background)
//Storyboard Layer 1 (Fail)
//Storyboard Layer 2 (Pass)
//Storyboard Layer 3 (Foreground)
//Storyboard Sound Samples

[TimingPoints]
1402,387.096774193548,4,2,1,70,1,0
2176,-83.3333333333333,4,2,1,70,0,0
4498,-133.333333333333,4,2,1,70,0,0
6143,-100,4,2,1,70,0,0
7208,-100,4,2,2,70,0,0
7595,-200,4,2,1,70,0,0
8369,-100,4,2,1,70,0,0
9143,-66.6666666666667,4,2,1,70,0,0
10111,-59.8802395209581,4,2,1,70,0,0
10305,-54.3478260869565,4,2,1,70,0,0
10498,-50,4,2,1,70,0,0
10692,-79.9999999999999,4,2,1,70,0,0
13789,-100,4,2,1,70,0,0
19208,-66.6666666666667,4,2,1,70,0,0
20756,-83.3333333333333,4,2,1,70,0,0
23079,-66.6666666666667,4,2,1,70,0,0
24724,-100,4,2,1,70,0,0
25305,-66.6666666666667,4,2,1,70,0,0
27627,-58.8235294117647,4,2,1,70,0,0
28498,-58.8235294117647,4,2,2,70,0,0
29272,-58.8235294117647,4,2,1,10,0,0
32369,-58.8235294117647,4,2,5,70,0,0
33143,-100,4,2,2,70,0,0
33821,-100,4,2,1,70,0,0
33918,-100,4,2,2,70,0,0
35369,-100,4,2,1,70,0,0
35466,-100,4,2,2,70,0,0
38176,-100,4,2,3,50,0,0
38369,-100,4,2,1,70,0,0
38563,-66.6666666666667,4,2,1,70,0,0
38950,-66.6666666666667,4,2,2,70,0,0
39337,-66.6666666666667,4,2,2,70,0,0
39724,-76.9230769230769,4,2,1,70,0,0
39982,-76.9230769230769,4,2,2,70,0,0
40111,-76.9230769230769,4,2,2,70,0,0
40498,-76.9230769230769,4,2,1,70,0,0
40885,-76.9230769230769,4,2,2,70,0,0
41660,-76.9230769230769,4,2,1,70,0,0
43498,-90.9090909090909,4,2,1,70,0,0
43789,-111.111111111111,4,2,1,70,0,0
44079,-142.857142857143,4,2,1,70,0,0
45531,-66.6666666666667,4,2,1,20,0,0
46305,400,4,2,1,20,1,0
46705,413.793103448276,4,2,1,20,1,0
47118,461.538461538462,4,2,1,20,1,0
47579,521.739130434783,4,2,1,20,1,0
48100,272.727272727273,4,2,1,70,1,0
48100,-76.9230769230769,4,2,1,70,0,0
55736,-100,4,2,4,70,0,0
56009,-80,4,2,4,70,0,0
56281,-66.6666666666667,4,2,4,70,0,0
56554,-50,4,2,4,70,0,0
56827,-50,4,2,1,70,0,0
57645,-66.6666666666667,4,2,1,70,0,0
64190,-57.1428571428571,4,2,1,70,0,0
65554,-57.1428571428571,4,2,1,70,0,0
65963,-83.3333333333333,4,2,1,20,0,0
80827,-55.5555555555556,4,2,1,70,0,1
81645,-55.5555555555556,4,2,2,70,0,1
82463,-133.333333333333,4,2,1,70,0,0
82736,-57.1428571428571,4,2,1,70,0,0
83009,-66.6666666666667,4,2,1,70,0,1
84372,-100,4,2,1,70,0,1
84645,-83.3333333333333,4,2,1,70,0,1
84918,-66.6666666666667,4,2,1,70,0,1
89009,-66.6666666666667,4,2,1,70,0,1
89281,-57.1428571428571,4,2,1,70,0,1
89554,-66.6666666666667,4,2,1,70,0,1
91736,-66.6666666666667,4,2,1,70,0,1
92827,-66.6666666666667,4,2,1,70,0,1
93372,-58.8235294117647,4,2,1,70,0,1
93918,-62.5,4,2,1,70,0,1
94600,-66.6666666666667,4,2,1,70,0,1
95009,-57.1428571428571,4,2,1,70,0,1
95554,-50,4,2,1,70,0,1
96100,-66.6666666666667,4,2,1,70,0,1
97190,-57.1428571428571,4,2,1,70,0,1
98281,-66.6666666666667,4,2,1,70,0,1
99372,-62.5,4,2,1,70,0,1
99918,-55.5555555555556,4,2,2,70,0,1
100463,-79.9999999999999,4,2,1,70,0,0
102645,-71.4285714285714,4,2,1,70,0,0
104827,-66.6666666666667,4,2,1,70,0,0
108100,-80,4,2,1,70,0,0
108236,-71.4285714285714,4,2,1,70,0,0
108372,-66.6666666666667,4,2,1,70,0,0
108509,-50,4,2,1,70,0,0
109190,-62.5,4,2,1,70,0,1
115736,-50,4,2,1,70,0,1
116963,-50,4,2,3,50,0,1
117918,-50,4,2,3,50,0,0
118463,-100,4,2,4,70,0,0

[Colours]
Combo1 : 255,255,0
Combo2 : 192,192,192
Combo3 : 0,0,255
Combo4 : 0,255,255

[HitObjects]
144,76,1402,5,4,0:0:0:0:
420,136,1789,1,0,0:0:0:0:
214,221,2176,6,0,P|277:225|341:202,2,125.999996154785
392,72,3143,5,0,0:0:0:0:
235,33,3531,1,0,0:0:0:0:
235,33,3724,6,0,L|184:155,2,125.999996154785
417,239,4692,1,0,0:0:0:0:
432,207,4789,1,0,0:0:0:0:
436,173,4885,1,0,0:0:0:0:
429,139,4982,1,0,0:0:0:0:
412,108,5079,1,0,0:0:0:0:
139,101,5466,5,0,0:0:0:0:
235,33,5660,1,0,0:0:0:0:
246,150,5853,1,0,0:0:0:0:
326,283,6143,5,0,0:0:0:0:
361,279,6239,1,0,0:0:0:0:
392,263,6336,1,0,0:0:0:0:
417,239,6433,1,0,0:0:0:0:
432,207,6530,1,0,0:0:0:0:
436,173,6626,1,0,0:0:0:0:
429,139,6723,1,0,0:0:0:0:
412,108,6820,5,0,0:0:0:0:
92,304,7208,1,0,0:0:0:0:
124,120,7595,5,6,0:0:0:0:
112,107,7691,1,0,0:0:0:0:
107,90,7788,1,0,0:0:0:0:
110,73,7885,1,0,0:0:0:0:
176,24,7982,1,0,0:0:0:0:
190,34,8078,1,0,0:0:0:0:
200,48,8175,1,0,0:0:0:0:
204,65,8272,1,0,0:0:0:0:
172,148,8369,5,0,0:0:0:0:
196,172,8465,1,0,0:0:0:0:
228,186,8562,1,0,0:0:0:0:
263,187,8659,1,0,0:0:0:0:
320,116,8756,1,0,0:0:0:0:
286,107,8852,1,0,0:0:0:0:
251,112,8949,1,0,0:0:0:0:
220,128,9046,1,0,0:0:0:0:
152,224,9143,5,0,0:0:0:0:
179,268,9239,1,0,0:0:0:0:
222,298,9336,1,0,0:0:0:0:
273,309,9433,1,0,0:0:0:0:
388,288,9531,1,0,0:0:0:0:
353,249,9627,1,0,0:0:0:0:
341,198,9724,1,0,0:0:0:0:
354,148,9821,1,0,0:0:0:0:
389,110,9918,6,0,L|432:76,1,52.5000020027161
276,204,10111,2,0,L|212:256,1,58.4499981716538
388,208,10305,2,0,L|452:268,1,64.3999978381348
280,104,10498,2,0,L|208:36,1,70
344,264,10692,5,0,0:0:0:0:
238,340,10821,1,0,0:0:0:0:
247,208,10950,1,0,0:0:0:0:
374,322,11079,1,0,0:0:0:0:
450,230,11208,1,0,0:0:0:0:
460,358,11337,1,0,0:0:0:0:
285,260,11466,5,0,0:0:0:0:
166,260,11595,1,0,0:0:0:0:
107,157,11724,1,0,0:0:0:0:
166,55,11853,1,0,0:0:0:0:
285,55,11982,1,0,0:0:0:0:
344,157,12111,1,0,0:0:0:0:
285,260,12240,1,0,0:0:0:0:
166,55,12434,5,0,0:0:0:0:
210,48,12530,1,0,0:0:0:0:
253,53,12627,1,0,0:0:0:0:
294,67,12724,1,0,0:0:0:0:
331,90,12821,1,0,0:0:0:0:
361,122,12917,1,0,0:0:0:0:
384,159,13014,5,0,0:0:0:0:
456,280,13401,1,0,0:0:0:0:
232,144,13789,6,0,L|284:132,1,35,4|0,0:0|0:0,0:0:0:0:
120,168,13982,2,0,L|68:180,1,35
236,212,14176,2,0,L|276:240,1,35
100,108,14369,2,0,L|68:84,1,35
183,237,14563,5,0,0:0:0:0:
209,260,14659,1,0,0:0:0:0:
238,278,14756,1,0,0:0:0:0:
271,291,14853,1,0,0:0:0:0:
305,297,14950,1,0,0:0:0:0:
354,297,15046,1,0,0:0:0:0:
397,275,15143,1,0,0:0:0:0:
425,235,15240,1,0,0:0:0:0:
433,187,15337,5,0,0:0:0:0:
429,146,15433,1,0,0:0:0:0:
407,110,15530,1,0,0:0:0:0:
373,87,15627,1,0,0:0:0:0:
331,80,15724,1,0,0:0:0:0:
310,108,15820,1,0,0:0:0:0:
281,128,15917,1,0,0:0:0:0:
249,140,16014,1,0,0:0:0:0:
214,144,16111,5,0,0:0:0:0:
190,139,16207,1,0,0:0:0:0:
165,140,16304,1,0,0:0:0:0:
142,146,16401,1,0,0:0:0:0:
120,157,16498,1,0,0:0:0:0:
86,204,16594,1,0,0:0:0:0:
88,263,16691,1,0,0:0:0:0:
125,308,16788,1,0,0:0:0:0:
182,321,16885,5,0,0:0:0:0:
228,305,16981,1,0,0:0:0:0:
277,297,17078,1,0,0:0:0:0:
326,296,17175,1,0,0:0:0:0:
374,303,17272,1,0,0:0:0:0:
407,310,17368,1,0,0:0:0:0:
442,306,17465,1,0,0:0:0:0:
473,291,17562,1,0,0:0:0:0:
498,266,17660,1,0,0:0:0:0:
507,191,17756,1,0,0:0:0:0:
461,132,17853,1,0,0:0:0:0:
386,122,17950,1,0,0:0:0:0:
327,168,18047,1,0,0:0:0:0:
299,203,18143,1,0,0:0:0:0:
259,224,18240,1,0,0:0:0:0:
214,226,18337,1,0,0:0:0:0:
172,210,18434,5,0,0:0:0:0:
149,183,18530,1,0,0:0:0:0:
137,151,18627,1,0,0:0:0:0:
136,116,18724,1,0,0:0:0:0:
147,83,18821,1,0,0:0:0:0:
207,35,18917,1,0,0:0:0:0:
283,45,19014,1,0,0:0:0:0:
327,107,19111,1,0,0:0:0:0:
312,182,19208,6,0,P|313:211|325:251,1,52.5000020027161
169,353,19401,2,0,P|168:324|156:284,1,52.5000020027161
400,280,19595,6,0,P|371:281|331:293,1,52.5000020027161
138,123,19789,2,0,P|167:122|207:110,1,52.5000020027161
400,280,19982,5,4,0:0:0:0:
369,285,20046,1,0,0:0:0:0:
338,279,20111,1,0,0:0:0:0:
312,261,20175,1,0,0:0:0:0:
295,235,20240,2,0,L|280:187,1,35.0000013351441
267,86,20369,1,0,0:0:0:0:
247,61,20433,1,0,0:0:0:0:
221,45,20498,1,0,0:0:0:0:
190,39,20562,1,0,0:0:0:0:
159,45,20627,2,0,L|107:75,1,35.0000013351441
63,201,20756,5,0,0:0:0:0:
74,251,20852,1,0,0:0:0:0:
104,293,20950,2,0,L|136:323,1,41.9999987182618
233,242,21143,2,0,L|302:239,1,41.9999987182618
297,117,21337,2,0,L|344:65,1,41.9999987182618
172,34,21531,6,0,L|125:86,1,41.9999987182618,2|0,0:0|0:0,0:0:0:0:
63,201,21724,1,0,0:0:0:0:
101,259,21820,1,0,0:0:0:0:
166,286,21918,2,0,P|196:290|244:280,1,41.9999987182618
324,213,22111,1,0,0:0:0:0:
284,175,22207,1,0,0:0:0:0:
232,163,22305,6,0,P|206:167|180:180,1,41.9999987182618
230,349,22498,2,0,P|255:351|289:347,1,41.9999987182618,4|0,0:0|0:0,0:0:0:0:
474,123,22692,1,0,0:0:0:0:
406,93,22789,2,0,P|381:91|347:95,1,41.9999987182618,4|0,0:0|0:0,0:0:0:0:
105,220,22982,1,0,0:0:0:0:
119,259,23078,5,2,0:0:0:0:
147,290,23175,1,0,0:0:0:0:
184,309,23272,1,0,0:0:0:0:
225,313,23369,1,0,0:0:0:0:
424,196,23562,5,0,0:0:0:0:
208,80,23755,1,0,0:0:0:0:
185,65,23852,1,0,0:0:0:0:
316,301,24046,1,0,0:0:0:0:
330,322,24143,1,0,0:0:0:0:
358,60,24337,1,0,0:0:0:0:
182,230,24531,1,0,0:0:0:0:
207,295,24724,5,0,0:0:0:0:
194,262,24821,1,0,0:0:0:0:
182,230,24917,1,0,0:0:0:0:
358,60,25111,1,0,0:0:0:0:
316,301,25305,6,0,L|284:243,1,52.5000020027161
208,80,25595,2,0,L|278:118,1,52.5000020027161
424,196,25885,1,0,0:0:0:0:
217,305,26079,1,0,0:0:0:0:
265,317,26176,5,4,0:0:0:0:
336,306,26272,1,0,0:0:0:0:
394,262,26369,1,0,0:0:0:0:
424,196,26466,1,0,0:0:0:0:
160,128,26660,5,0,0:0:0:0:
276,248,26853,2,0,L|295:321,1,52.5000020027161
160,128,27143,2,0,L|140:54,1,52.5000020027161
428,172,27434,1,0,0:0:0:0:
184,328,27627,1,0,0:0:0:0:
151,278,27724,5,4,0:0:0:0:
129,201,27820,1,0,0:0:0:0:
150,125,27917,1,0,0:0:0:0:
207,70,28014,1,0,0:0:0:0:
428,172,28208,1,0,0:0:0:0:
84,72,28401,1,0,0:0:0:0:
91,80,28498,5,4,0:0:0:0:
221,206,28627,1,0,0:0:0:0:
189,28,28756,1,0,0:0:0:0:
110,189,28885,1,4,0:0:0:0:
269,106,29014,1,0,0:0:0:0:
91,80,29143,1,0,0:0:0:0:
178,316,29272,5,0,0:0:0:0:
143,296,29336,1,0,0:0:0:0:
118,266,29401,1,0,0:0:0:0:
107,228,29465,1,0,0:0:0:0:
110,189,29530,1,0,0:0:0:0:
128,154,29594,1,0,0:0:0:0:
162,128,29660,2,0,P|178:118|204:110,5,39.6666674232483
390,311,30047,5,0,0:0:0:0:
385,271,30111,1,0,0:0:0:0:
367,236,30176,1,0,0:0:0:0:
337,209,30240,1,0,0:0:0:0:
301,194,30305,1,0,0:0:0:0:
262,192,30369,1,0,0:0:0:0:
226,202,30434,2,0,P|204:211|186:222,5,39.6666674232483
270,132,30821,5,0,0:0:0:0:
309,126,30886,1,0,0:0:0:0:
346,140,30950,1,0,0:0:0:0:
373,168,31015,1,0,0:0:0:0:
386,205,31079,1,0,0:0:0:0:
383,244,31144,1,0,0:0:0:0:
363,278,31208,5,0,0:0:0:0:
343,244,31272,1,0,0:0:0:0:
340,205,31337,1,0,0:0:0:0:
353,168,31401,1,0,0:0:0:0:
380,140,31466,1,0,0:0:0:0:
417,126,31530,1,0,0:0:0:0:
456,132,31595,6,0,P|455:110|444:72,5,39.6666674232483
289,113,31982,5,0,0:0:0:0:
254,131,32046,1,0,0:0:0:0:
216,144,32111,1,0,0:0:0:0:
177,149,32175,1,0,0:0:0:0:
137,147,32240,1,0,0:0:0:0:
99,137,32304,1,0,0:0:0:0:
61,117,32369,6,0,L|25:81,11,39.6666674232483
65,157,33143,6,0,P|157:249|237:190,1,245,6|0,0:0|0:0,0:0:0:0:
312,72,33918,2,0,B|308:160|368:184|336:252|336:252|296:280|273:203|234:196|234:196|208:268|208:268|144:260|184:192|128:154,1,525
224,68,35466,6,0,B|176:36|120:48|120:48|144:108|192:128|192:128|167:173|192:224|192:224|256:168|296:244|364:148|364:148|392:200|392:200|464:180|442:90|442:90|404:56|352:88|313:47|313:47|280:112,1,910,2|0,0:0|0:0,0:0:0:0:
188,344,38176,1,8,0:0:0:0:
452,96,38563,5,0,0:0:0:0:
420,80,38627,1,0,0:0:0:0:
386,75,38692,1,0,0:0:0:0:
351,80,38756,1,0,0:0:0:0:
320,95,38821,1,0,0:0:0:0:
294,119,38885,1,0,0:0:0:0:
277,149,38950,5,0,0:0:0:0:
263,181,39014,1,0,0:0:0:0:
239,206,39079,1,0,0:0:0:0:
208,222,39143,1,0,0:0:0:0:
173,225,39208,1,0,0:0:0:0:
140,216,39272,1,0,0:0:0:0:
110,195,39337,6,0,B|165:150|165:150|238:123|238:123|288:77,1,210.000008010865,6|0,0:0|0:0,0:0:0:0:
379,183,39982,1,0,0:0:0:0:
409,197,40047,1,0,0:0:0:0:
434,220,40111,6,0,B|406:284|322:233|259:321,1,181.999991668702,4|0,0:0|0:0,0:0:0:0:
203,83,40885,5,0,0:0:0:0:
479,173,41176,1,0,0:0:0:0:
203,262,41466,1,0,0:0:0:0:
375,27,41660,5,4,0:0:0:0:
379,229,41853,1,0,0:0:0:0:
204,134,42047,1,0,0:0:0:0:
248,123,42143,1,0,0:0:0:0:
454,175,42337,1,0,0:0:0:0:
409,185,42433,1,0,0:0:0:0:
375,319,42627,5,0,0:0:0:0:
354,278,42723,1,0,0:0:0:0:
248,123,42918,2,0,L|192:91,2,45.4999979171754
388,209,43208,6,0,L|435:220,1,45.4999979171754
303,262,43498,2,0,L|256:273,1,38.5000011749268
380,300,43789,2,0,L|427:311,1,31.4999990386963
316,337,44079,2,0,L|275:346,1,24.4999992523194
379,370,44369,1,0,0:0:0:0:
394,346,44433,1,0,0:0:0:0:
405,321,44498,1,0,0:0:0:0:
412,294,44562,1,0,0:0:0:0:
414,266,44627,1,0,0:0:0:0:
411,239,44691,1,0,0:0:0:0:
403,212,44756,5,4,0:0:0:0:
356,96,45531,5,0,0:0:0:0:
474,143,45724,1,0,0:0:0:0:
350,174,45918,1,0,0:0:0:0:
432,76,46111,1,0,0:0:0:0:
432,204,46305,2,0,B|408:256|412:288|412:288|380:272|340:280,1,140
184,200,47118,5,0,0:0:0:0:
213,184,47579,1,0,0:0:0:0:
396,64,48100,6,0,L|296:92,2,90.9999958343508,2|0|0,0:0|0:0|0:0,0:0:0:0:
197,163,48509,2,0,L|297:191,2,90.9999958343508
376,344,48918,6,0,L|404:219,2,90.9999958343508
359,77,49327,2,0,L|331:202,2,90.9999958343508
142,310,49736,6,0,L|170:185,1,90.9999958343508
266,72,50009,2,0,L|238:197,1,90.9999958343508
356,84,50281,5,0,0:0:0:0:
412,240,50418,2,0,L|322:224,1,90.9999958343508
132,72,50690,1,0,0:0:0:0:
84,292,50827,2,0,L|189:274,1,90.9999958343508
392,244,51100,5,0,0:0:0:0:
160,307,51236,2,0,L|197:202,1,90.9999958343508
404,44,51509,1,0,0:0:0:0:
107,87,51645,2,0,L|144:192,1,90.9999958343508
352,280,51918,6,0,L|255:309,1,90.9999958343508
124,208,52190,2,0,L|230:177,1,90.9999958343508
408,196,52463,5,2,0:0:0:0:
468,336,52600,1,0,0:0:0:0:
477,240,52736,1,0,0:0:0:0:
300,186,52872,5,0,0:0:0:0:
373,115,53009,1,0,0:0:0:0:
303,282,53145,1,0,0:0:0:0:
295,94,53281,5,0,0:0:0:0:
387,254,53418,1,0,0:0:0:0:
225,130,53554,1,0,0:0:0:0:
304,245,53690,5,0,0:0:0:0:
267,54,53827,1,0,0:0:0:0:
142,162,53963,1,0,0:0:0:0:
152,336,54100,5,2,0:0:0:0:
152,336,54236,1,0,0:0:0:0:
404,140,54372,1,0,0:0:0:0:
404,140,54509,1,0,0:0:0:0:
96,92,54645,6,0,L|208:52,1,90.9999958343508,2|0,0:0|0:0,0:0:0:0:
348,76,54918,1,0,0:0:0:0:
138,107,55054,6,0,L|245:157,1,90.9999958343508
392,272,55327,1,0,0:0:0:0:
104,316,55463,5,0,0:0:0:0:
392,144,55600,1,0,0:0:0:0:
240,312,55736,5,2,0:0:0:0:
207,301,55804,1,0,0:0:0:0:
184,275,55872,1,0,0:0:0:0:
178,241,55940,1,0,0:0:0:0:
192,208,56009,5,2,0:0:0:0:
234,198,56077,1,0,0:0:0:0:
264,167,56145,1,0,0:0:0:0:
272,125,56213,1,0,0:0:0:0:
255,85,56281,5,2,0:0:0:0:
307,85,56349,1,0,0:0:0:0:
353,110,56417,1,0,0:0:0:0:
382,153,56485,1,0,0:0:0:0:
388,204,56554,5,2,0:0:0:0:
368,270,56622,1,0,0:0:0:0:
318,317,56690,1,0,0:0:0:0:
250,330,56758,1,0,0:0:0:0:
185,307,56826,5,2,0:0:0:0:
115,174,56963,1,0,0:0:0:0:
360,299,57100,1,0,0:0:0:0:
120,244,57236,5,0,0:0:0:0:
260,198,57372,1,0,0:0:0:0:
59,335,57509,1,0,0:0:0:0:
152,264,57645,6,0,P|224:284|280:272,1,105.000004005432
226,81,57918,1,0,0:0:0:0:
89,220,58054,6,0,P|51:184|30:137,1,105.000004005432
181,90,58327,1,0,0:0:0:0:
128,296,58463,5,0,0:0:0:0:
392,200,58600,1,0,0:0:0:0:
168,148,58736,1,0,0:0:0:0:
364,308,58872,1,0,0:0:0:0:
180,64,59009,5,2,0:0:0:0:
92,284,59145,2,0,P|156:278|224:302,1,105.000004005432
400,344,59418,5,0,0:0:0:0:
448,85,59554,2,0,P|396:74|344:81,1,105.000004005432
172,240,59827,5,0,0:0:0:0:
364,159,59963,1,0,0:0:0:0:
133,63,60100,1,0,0:0:0:0:
352,316,60236,5,0,0:0:0:0:
269,124,60372,1,0,0:0:0:0:
437,221,60509,1,0,0:0:0:0:
256,56,60645,5,0,0:0:0:0:
312,264,60781,1,0,0:0:0:0:
348,132,60918,1,0,0:0:0:0:
184,324,61054,1,0,0:0:0:0:
128,52,61190,5,2,0:0:0:0:
86,215,61327,1,0,0:0:0:0:
158,362,61463,1,0,0:0:0:0:
325,158,61600,5,0,0:0:0:0:
384,300,61736,1,0,0:0:0:0:
200,196,61872,1,0,0:0:0:0:
448,100,62009,5,0,0:0:0:0:
344,255,62145,2,0,P|280:267|212:251,1,105.000004005432
101,182,62418,5,0,0:0:0:0:
334,125,62554,2,0,P|270:113|202:129,1,105.000004005432
76,188,62827,5,0,0:0:0:0:
392,256,62963,1,0,0:0:0:0:
215,108,63100,1,0,0:0:0:0:
180,328,63236,1,0,0:0:0:0:
96,136,63372,5,2,0:0:0:0:
376,200,63509,2,0,P|407:206|448:224,2,52.5000020027161
112,88,63781,1,0,0:0:0:0:
84,132,63849,1,0,0:0:0:0:
75,183,63917,5,4,0:0:0:0:
87,234,63985,1,0,0:0:0:0:
116,277,64053,1,0,0:0:0:0:
160,306,64121,1,0,0:0:0:0:
211,316,64190,1,4,0:0:0:0:
258,277,64258,1,0,0:0:0:0:
314,253,64326,1,0,0:0:0:0:
374,244,64394,1,0,0:0:0:0:
435,251,64462,5,0,0:0:0:0:
216,112,64600,1,0,0:0:0:0:
448,64,64736,1,0,0:0:0:0:
240,256,64872,1,0,0:0:0:0:
365,52,65009,6,0,P|387:74|403:99,1,61.2500005841255
160,191,65145,2,0,P|176:166|198:144,1,61.2500005841255
369,240,65281,6,0,P|391:262|407:287,1,61.2500005841255
172,355,65418,2,0,P|188:330|210:308,1,61.2500005841255
345,166,65554,5,6,0:0:0:0:
120,308,65963,2,0,B|165:250|225:273|224:240|224:240|268:248|347:223,1,251.999992309571
468,188,66918,5,0,0:0:0:0:
383,133,67190,1,0,0:0:0:0:
293,178,67463,1,0,0:0:0:0:
192,144,67736,2,0,P|136:92|184:212,1,419.999987182618
267,153,68554,5,0,0:0:0:0:
336,252,68690,1,0,0:0:0:0:
96,140,69509,5,0,0:0:0:0:
204,104,69645,1,0,0:0:0:0:
63,67,69781,1,0,0:0:0:0:
308,172,69918,5,0,0:0:0:0:
450,126,70054,1,0,0:0:0:0:
308,80,70190,1,0,0:0:0:0:
395,200,70327,1,0,0:0:0:0:
395,51,70463,1,0,0:0:0:0:
308,172,70600,1,0,0:0:0:0:
395,200,70736,1,0,0:0:0:0:
450,126,70872,1,0,0:0:0:0:
144,76,71145,5,0,0:0:0:0:
144,76,71281,1,0,0:0:0:0:
352,268,71554,5,0,0:0:0:0:
188,308,71827,1,0,0:0:0:0:
277,158,72100,5,0,0:0:0:0:
127,214,72372,1,0,0:0:0:0:
127,214,72509,1,0,0:0:0:0:
156,293,72781,1,0,0:0:0:0:
256,80,73054,2,0,B|144:146|264:224|155:294,1,251.999992309571
332,208,73736,5,0,0:0:0:0:
332,208,74009,1,0,0:0:0:0:
220,96,74281,6,0,B|284:32|284:32|164:24|88:180,1,335.999989746094
24,288,74963,1,0,0:0:0:0:
132,248,75100,1,0,0:0:0:0:
192,332,75236,1,0,0:0:0:0:
92,64,75372,6,0,B|180:40|188:100|264:112|264:112|237:129|208:180,2,251.999992309571
388,88,76463,6,0,P|324:88|288:104,1,83.9999974365235
188,180,76736,2,0,P|252:180|288:164,1,83.9999974365235
270,173,77145,5,0,0:0:0:0:
188,180,77281,1,0,0:0:0:0:
237,248,77418,1,0,0:0:0:0:
237,248,77690,5,0,0:0:0:0:
307,192,77827,1,0,0:0:0:0:
284,104,77963,1,0,0:0:0:0:
169,171,78100,5,0,0:0:0:0:
83,229,78236,1,0,0:0:0:0:
169,171,78372,1,0,0:0:0:0:
253,116,78509,1,0,0:0:0:0:
336,68,78645,5,0,0:0:0:0:
309,236,78781,1,0,0:0:0:0:
253,116,78917,1,0,0:0:0:0:
422,279,79054,1,0,0:0:0:0:
251,353,79190,2,0,P|205:361|147:343,1,83.9999974365235
140,176,79463,1,0,0:0:0:0:
140,176,79600,1,0,0:0:0:0:
348,108,79872,5,0,0:0:0:0:
229,179,80009,1,0,0:0:0:0:
68,231,80145,1,0,0:0:0:0:
168,94,80281,1,0,0:0:0:0:
168,264,80418,1,0,0:0:0:0:
68,126,80554,1,0,0:0:0:0:
68,126,80690,1,0,0:0:0:0:
229,179,80827,6,0,L|376:212,1,125.999996154785,6|0,0:0|0:0,0:0:0:0:
426,352,81100,1,0,0:0:0:0:
249,347,81236,2,0,L|168:219,1,125.999996154785,6|0,0:0|0:0,0:0:0:0:
86,101,81509,1,0,0:0:0:0:
36,268,81645,1,0,0:0:0:0:
256,192,81781,1,0,0:0:0:0:
360,267,81918,5,6,0:0:0:0:
127,191,82054,1,0,0:0:0:0:
360,116,82190,1,6,0:0:0:0:
216,314,82327,1,0,0:0:0:0:
216,69,82463,6,0,P|260:56|296:60,1,78.7500030040742
216,69,82736,6,0,P|288:88|376:192,1,183.750001752377
385,306,83009,6,0,L|282:327,1,105.000004005432,6|0,0:0|0:0,0:0:0:0:
428,248,83281,1,0,0:0:0:0:
112,164,83418,6,0,L|218:187,1,105.000004005432
48,208,83690,1,4,0:0:0:0:
346,210,83827,2,0,P|341:155|290:106,1,105.000004005432
248,332,84100,5,4,0:0:0:0:
432,176,84236,1,0,0:0:0:0:
72,216,84372,6,0,P|100:169|141:140,1,105
81,246,84645,6,0,L|205:198,1,125.999996154785
70,281,84918,6,0,P|127:306|226:317,1,157.500006008148
375,215,85190,6,0,P|328:214|291:81,1,210.000008010865
503,239,85600,1,0,0:0:0:0:
247,146,85736,6,0,B|324:180|324:125|425:145,1,157.500006008148
367,284,86009,1,0,0:0:0:0:
274,24,86145,1,0,0:0:0:0:
433,232,86281,6,0,P|381:209|327:210,1,105.000004005432
207,76,86554,2,0,P|259:99|313:98,1,105.000004005432
104,48,86827,5,0,0:0:0:0:
154,37,86895,1,0,0:0:0:0:
202,55,86963,2,0,L|253:99,1,52.5000020027161
347,76,87100,2,0,L|335:142,1,52.5000020027161
401,213,87236,2,0,L|338:235,1,52.5000020027161
310,329,87372,5,0,0:0:0:0:
252,123,87509,1,0,0:0:0:0:
419,265,87645,5,0,0:0:0:0:
173,152,87781,1,0,0:0:0:0:
463,152,87918,5,0,0:0:0:0:
107,214,88054,1,0,0:0:0:0:
440,68,88190,5,0,0:0:0:0:
56,292,88327,2,0,B|133:282|133:331|207:321,1,157.500006008148
380,292,88600,5,0,0:0:0:0:
248,124,88736,1,0,0:0:0:0:
220,344,88872,1,0,0:0:0:0:
358,108,89009,6,0,B|277:76|277:128|202:97,1,157.500006008148
91,271,89281,6,0,B|183:307|183:248|269:283,1,183.750001752377
416,188,89554,6,0,P|374:118|289:99,1,157.500006008148,4|0,0:0|0:0,0:0:0:0:
132,100,89827,1,0,0:0:0:0:
197,264,89963,2,0,P|242:305|301:314,1,105.000004005432
448,220,90236,6,0,L|380:180,1,52.5000020027161
208,97,90372,1,0,0:0:0:0:
283,315,90509,1,0,0:0:0:0:
436,148,90645,5,0,0:0:0:0:
398,111,90713,1,0,0:0:0:0:
348,96,90781,1,0,0:0:0:0:
297,107,90849,1,0,0:0:0:0:
256,140,90918,1,0,0:0:0:0:
231,185,90986,1,0,0:0:0:0:
190,218,91054,1,0,0:0:0:0:
140,233,91122,1,0,0:0:0:0:
88,224,91190,5,0,0:0:0:0:
78,156,91258,1,0,0:0:0:0:
117,100,91326,1,0,0:0:0:0:
184,86,91394,1,0,0:0:0:0:
243,121,91463,1,0,0:0:0:0:
265,187,91531,1,0,0:0:0:0:
316,234,91599,1,0,0:0:0:0:
383,251,91667,1,0,0:0:0:0:
452,232,91736,6,0,P|423:212|390:200,2,70.0000026702882,6|0|0,0:0|0:0|0:0,0:0:0:0:
243,256,92009,2,0,P|271:275|304:287,2,70.0000026702882
486,234,92281,2,0,P|465:205|438:183,2,70.0000026702882
209,254,92554,2,0,P|229:282|256:304,2,70.0000026702882
149,51,92828,5,6,0:0:0:0:
108,93,92918,1,0,0:0:0:0:
96,151,93009,1,0,0:0:0:0:
117,206,93100,1,0,0:0:0:0:
128,263,93190,1,0,0:0:0:0:
113,321,93281,1,0,0:0:0:0:
76,366,93372,5,2,0:0:0:0:
75,287,93462,1,0,0:0:0:0:
102,212,93553,1,2,0:0:0:0:
153,153,93644,1,0,0:0:0:0:
223,115,93735,1,2,0:0:0:0:
301,105,93826,1,0,0:0:0:0:
378,123,93918,5,6,0:0:0:0:
336,183,94008,1,0,0:0:0:0:
269,216,94099,1,0,0:0:0:0:
196,213,94190,1,0,0:0:0:0:
124,196,94280,1,0,0:0:0:0:
56,224,94371,1,0,0:0:0:0:
18,287,94462,5,0,0:0:0:0:
368,140,94600,1,0,0:0:0:0:
368,140,94668,1,0,0:0:0:0:
368,140,94736,1,0,0:0:0:0:
56,224,94872,1,0,0:0:0:0:
420,60,95009,5,6,0:0:0:0:
359,65,95077,1,0,0:0:0:0:
307,97,95145,1,0,0:0:0:0:
274,147,95213,1,0,0:0:0:0:
266,208,95281,1,4,0:0:0:0:
320,181,95349,1,0,0:0:0:0:
349,128,95417,1,0,0:0:0:0:
341,68,95485,1,0,0:0:0:0:
301,23,95554,5,6,0:0:0:0:
233,13,95622,1,0,0:0:0:0:
175,50,95690,1,0,0:0:0:0:
156,116,95758,1,0,0:0:0:0:
185,178,95827,1,6,0:0:0:0:
214,240,95895,1,0,0:0:0:0:
195,306,95963,1,0,0:0:0:0:
137,343,96031,1,0,0:0:0:0:
69,333,96100,6,0,P|109:275|152:254,1,105.000004005432,14|0,0:0|0:0,0:0:0:0:
24,136,96372,1,0,0:0:0:0:
400,192,96509,2,0,B|437:158|437:158|373:134|373:134|333:170|290:158,1,210.000008010865,12|0,0:0|0:0,0:0:0:0:
108,285,96918,1,0,0:0:0:0:
114,233,96986,1,0,0:0:0:0:
108,181,97054,1,0,0:0:0:0:
92,131,97122,1,0,0:0:0:0:
67,86,97190,6,0,B|102:83|129:105|129:105|158:127|205:117,1,122.500001168251,14|0,0:0|0:0,0:0:0:0:
334,77,97463,1,0,0:0:0:0:
64,328,97600,2,0,B|108:288|96:248|96:248|155:250|187:200|187:200|225:218|268:200,1,245.000002336502,12|0,0:0|0:0,0:0:0:0:
448,116,98009,6,0,L|468:181,1,61.2500005841255
186,341,98145,2,0,L|204:282,1,61.2500005841255
336,60,98281,5,6,0:0:0:0:
270,39,98371,1,0,0:0:0:0:
204,59,98462,1,0,0:0:0:0:
161,113,98553,1,0,0:0:0:0:
155,181,98644,1,0,0:0:0:0:
190,241,98735,1,0,0:0:0:0:
256,272,98827,5,6,0:0:0:0:
250,203,98917,1,0,0:0:0:0:
206,150,99008,1,0,0:0:0:0:
140,132,99099,1,0,0:0:0:0:
75,156,99190,1,0,0:0:0:0:
36,213,99281,1,0,0:0:0:0:
38,282,99372,5,6,0:0:0:0:
111,270,99462,1,0,0:0:0:0:
181,245,99553,1,0,0:0:0:0:
246,207,99644,1,0,0:0:0:0:
302,159,99735,1,0,0:0:0:0:
349,101,99826,1,0,0:0:0:0:
384,36,99918,5,0,0:0:0:0:
301,39,100008,1,0,0:0:0:0:
232,85,100099,1,0,0:0:0:0:
197,160,100190,1,0,0:0:0:0:
206,243,100281,1,0,0:0:0:0:
257,308,100372,1,0,0:0:0:0:
376,344,100463,6,0,L|320:252,1,87.5,6|0,0:0|0:0,0:0:0:0:
232,85,100736,1,0,0:0:0:0:
432,96,100872,6,0,L|340:152,1,87.5
166,246,101145,1,0,0:0:0:0:
293,348,101281,6,0,L|341:244,1,87.5
149,132,101554,1,0,0:0:0:0:
184,356,101690,6,0,L|136:252,1,87.5
358,110,101963,1,0,0:0:0:0:
280,272,102100,5,0,0:0:0:0:
180,112,102236,1,0,0:0:0:0:
227,344,102372,5,0,0:0:0:0:
298,106,102509,1,0,0:0:0:0:
112,324,102645,6,0,L|240:276,1,97.9999970092774
298,106,102918,1,0,0:0:0:0:
88,88,103054,6,0,L|216:136,1,97.9999970092774
35,201,103327,1,0,0:0:0:0:
160,336,103463,6,0,L|224:224,1,97.9999970092774
232,74,103736,1,0,0:0:0:0:
368,344,103872,6,0,L|304:232,1,97.9999970092774
108,305,104145,1,0,0:0:0:0:
376,256,104281,5,0,0:0:0:0:
224,84,104418,1,0,0:0:0:0:
432,200,104554,5,0,0:0:0:0:
224,272,104690,1,0,0:0:0:0:
376,144,104827,5,6,0:0:0:0:
268,20,104963,1,0,0:0:0:0:
280,136,105100,1,0,0:0:0:0:
324,308,105236,5,0,0:0:0:0:
168,228,105372,1,0,0:0:0:0:
335,174,105509,1,0,0:0:0:0:
276,344,105645,5,0,0:0:0:0:
140,216,105781,1,0,0:0:0:0:
364,272,105918,1,0,0:0:0:0:
213,128,106054,5,0,0:0:0:0:
350,127,106190,1,0,0:0:0:0:
104,276,106327,1,0,0:0:0:0:
160,76,106463,5,0,0:0:0:0:
344,320,106600,1,0,0:0:0:0:
128,224,106736,5,0,0:0:0:0:
376,72,106872,1,0,0:0:0:0:
48,320,107009,5,6,0:0:0:0:
112,56,107145,1,0,0:0:0:0:
156,260,107281,1,0,0:0:0:0:
44,131,107418,5,0,0:0:0:0:
318,220,107554,1,0,0:0:0:0:
200,104,107690,1,0,0:0:0:0:
96,240,107827,5,0,0:0:0:0:
416,96,107963,1,0,0:0:0:0:
310,241,108100,6,0,L|360:192,1,43.75
188,116,108236,2,0,L|144:160,1,48.9999985046387
392,312,108372,6,0,L|436:260,1,52.5000020027161
120,44,108509,2,0,L|64:108,1,70
256,352,108645,5,0,0:0:0:0:
204,306,108713,1,0,0:0:0:0:
193,239,108781,1,0,0:0:0:0:
229,180,108849,1,0,0:0:0:0:
292,156,108918,1,0,0:0:0:0:
292,224,108986,1,0,0:0:0:0:
254,282,109054,1,0,0:0:0:0:
190,309,109122,1,0,0:0:0:0:
122,295,109190,5,14,0:0:0:0:
122,112,109327,1,0,0:0:0:0:
284,336,109463,1,0,0:0:0:0:
136,208,109600,5,0,0:0:0:0:
356,128,109736,1,0,0:0:0:0:
196,136,109872,1,0,0:0:0:0:
232,344,110009,5,0,0:0:0:0:
194,83,110145,1,0,0:0:0:0:
167,269,110281,1,0,0:0:0:0:
408,152,110418,5,0,0:0:0:0:
332,99,110554,1,0,0:0:0:0:
392,280,110690,1,0,0:0:0:0:
132,108,110827,5,0,0:0:0:0:
352,208,110963,1,0,0:0:0:0:
120,248,111100,5,0,0:0:0:0:
380,84,111236,1,0,0:0:0:0:
317,347,111372,5,6,0:0:0:0:
461,294,111508,1,0,0:0:0:0:
240,312,111645,1,0,0:0:0:0:
406,342,111781,5,0,0:0:0:0:
390,119,111918,1,0,0:0:0:0:
284,266,112054,1,0,0:0:0:0:
440,148,112190,5,0,0:0:0:0:
164,204,112327,1,0,0:0:0:0:
332,292,112463,1,0,0:0:0:0:
188,64,112600,5,0,0:0:0:0:
232,308,112736,1,0,0:0:0:0:
64,160,112872,1,0,0:0:0:0:
356,256,113009,5,0,0:0:0:0:
120,112,113145,1,0,0:0:0:0:
392,80,113281,5,0,0:0:0:0:
112,260,113418,1,0,0:0:0:0:
432,324,113554,5,14,0:0:0:0:
396,116,113690,2,0,P|339:139|277:196,1,112
80,336,113963,5,0,0:0:0:0:
104,108,114100,2,0,P|148:74|200:54,1,112
372,16,114372,5,0,0:0:0:0:
444,296,114509,2,0,P|384:289|307:261,1,112
112,48,114781,5,0,0:0:0:0:
84,320,114918,2,0,P|139:313|193:297,1,112
376,136,115190,5,6,0:0:0:0:
112,256,115327,1,0,0:0:0:0:
400,312,115463,5,6,0:0:0:0:
72,84,115600,1,0,0:0:0:0:
368,56,115736,5,14,0:0:0:0:
288,320,115872,2,0,L|332:176,1,140
200,344,116145,5,0,0:0:0:0:
100,12,116281,2,0,L|148:172,1,140
112,88,116554,5,0,0:0:0:0:
440,236,116690,1,0,0:0:0:0:
212,268,116827,5,6,0:0:0:0:
392,140,116963,1,8,0:0:0:0:
148,220,117100,1,8,0:0:0:0:
404,300,117236,1,8,0:0:0:0:
96,140,117372,5,8,0:0:0:0:
460,208,117509,1,8,0:0:0:0:
44,296,117645,1,8,0:0:0:0:
484,60,117781,1,8,0:0:0:0:
144,344,117918,5,8,0:0:0:0:
77,326,117986,1,8,0:0:0:0:
31,274,118054,1,0,0:0:0:0:
23,205,118122,1,0,0:0:0:0:
54,144,118190,1,0,0:0:0:0:
324,356,118395,5,0,0:0:0:0:
324,356,118463,2,0,B|436:312|469:261|469:261|380:284|265:284|265:284|396:224|473:150|473:150|336:192|232:216|232:216|352:140|465:21|465:21|296:104|200:136|200:136|56:192|12:216|0:300|44:376|124:384|200:360|208:296|160:224|100:280,1,1960,4|0,0:0|0:0,0:0:0:0:
