osu file format v14

[General]
AudioFilename: audio.mp3
AudioLeadIn: 0
PreviewTime: 82463
Countdown: 0
SampleSet: Soft
StackLeniency: 0.6
Mode: 0
LetterboxInBreaks: 0
WidescreenStoryboard: 1

[Editor]
DistanceSpacing: 1
BeatDivisor: 4
GridSize: 4
TimelineZoom: 1.3

[Metadata]
Title:Preserved Valkyria
TitleUnicode:Preserved Valkyria
Artist:penoreri
ArtistUnicode:ぺのれり
Creator:KnightC0re
Version:Normal
Source:SOUND VOLTEX III GRAVITY WARS
Tags:mizki sepia -jordan- sdvx konami
BeatmapID:1133818
BeatmapSetID:535118

[Difficulty]
HPDrainRate:4
CircleSize:3.5
OverallDifficulty:3
ApproachRate:4
SliderMultiplier:1.4
SliderTickRate:1

[Events]
//Background and Video events
0,0,"bg.png",0,0
//Break Periods
2,29472,31823
2,44956,46660
2,65754,79387
2,100663,107870
//Storyboard Layer 0 (Background)
//Storyboard Layer 1 (Fail)
//Storyboard Layer 2 (Pass)
//Storyboard Layer 3 (Foreground)
//Storyboard Sound Samples

[TimingPoints]
1402,387.096774193548,4,2,1,70,1,0
1402,-133.333333333333,4,2,1,70,0,0
46305,400,4,2,1,70,1,0
46705,413.793103448276,4,2,1,70,1,0
47118,461.538461538462,4,2,1,70,1,0
47579,521.739130434783,4,2,1,70,1,0
48100,272.727272727273,4,2,1,70,1,0
48100,-166.666666666667,4,2,1,70,0,0
56827,-166.666666666667,4,2,1,70,0,0
65554,-166.666666666667,4,2,1,70,0,0
80827,-166.666666666667,4,2,1,70,0,1
82463,-166.666666666667,4,2,1,70,0,0
83009,-166.666666666667,4,2,1,70,0,1
100463,-166.666666666667,4,2,1,70,0,0
109190,-166.666666666667,4,2,1,70,0,1
117372,-166.666666666667,4,2,3,50,0,1
117918,-166.666666666667,4,2,3,50,0,0
118463,-166.666666666667,4,2,4,70,0,0

[Colours]
Combo1 : 255,255,0
Combo2 : 192,192,192
Combo3 : 0,0,255
Combo4 : 0,255,255

[HitObjects]
64,148,1402,6,0,P|100:84|328:100,1,315.000012016297,6|0,0:0|0:0,0:0:0:0:
392,224,3144,2,0,B|444:316|444:316|224:268,1,315.000012016297
100,228,4692,6,0,L|44:212,2,52.5000020027161
92,88,5660,2,0,P|116:72|156:68,1,52.5000020027161
228,76,6047,6,0,P|320:128|340:188,1,157.500006008148
336,256,6821,1,0,0:0:0:0:
240,196,7208,1,0,0:0:0:0:
128,132,7595,6,0,P|156:96|220:80,1,105.000004005432,6|0,0:0|0:0,0:0:0:0:
428,148,8369,2,0,P|400:184|336:200,1,105.000004005432
246,175,9143,5,0,0:0:0:0:
246,26,9531,1,0,0:0:0:0:
158,146,9918,1,0,0:0:0:0:
300,100,10305,1,0,0:0:0:0:
158,54,10692,5,0,0:0:0:0:
108,248,11466,1,0,0:0:0:0:
284,196,12240,2,0,P|320:236|208:212,1,315.000012016297
411,217,13789,6,0,P|305:108|156:131,1,315.000012016297,4|0,0:0|0:0,0:0:0:0:
76,208,15337,6,0,B|104:228|104:228|148:216|196:228,1,105.000004005432
288,288,16111,2,0,B|260:308|260:308|216:296|168:308,1,105.000004005432
56,328,16885,6,0,P|88:252|212:216,1,210.000008010865
320,272,18047,1,0,0:0:0:0:
412,192,18434,1,0,0:0:0:0:
412,192,18821,1,0,0:0:0:0:
344,100,19208,2,0,L|288:48,1,52.5000020027161
204,52,19595,2,0,L|148:56,1,52.5000020027161
78,140,19982,6,0,B|137:226|137:226|187:166|240:173,1,210.000008010865,6|0,0:0|0:0,0:0:0:0:
331,193,21143,1,0,0:0:0:0:
398,282,21531,2,0,B|302:338|302:338|220:257,1,210.000008010865,4|0,0:0|0:0,0:0:0:0:
144,176,22498,2,0,P|120:140|116:100,1,78.7500030040742,4|4,0:0|0:0,0:0:0:0:
256,192,23079,12,0,25401,0:0:0:0:
256,192,26176,12,0,29272,0:0:0:0:
272,112,33143,5,6,0:0:0:0:
176,184,33918,2,0,P|144:209|173:107,1,315.000012016297
256,192,35466,12,0,38176,0:0:0:0:
112,112,38563,6,0,B|204:68|204:68|316:112,1,210.000008010865,0|6,0:0|0:0,0:0:0:0:
420,160,40111,2,0,B|448:212|412:264|412:264|312:212|212:288,1,315.000012016297,4|0,0:0|0:0,0:0:0:0:
256,192,41660,12,4,44756,0:0:0:0:
128,248,48100,6,0,P|136:172|296:124,1,251.999992309571,6|0,0:0|0:0,0:0:0:0:
404,164,49190,1,0,0:0:0:0:
328,268,49736,1,0,0:0:0:0:
200,248,50281,6,0,B|210:179|210:179|258:144,2,125.999996154785
284,294,51372,1,0,0:0:0:0:
444,216,51918,2,0,L|344:228,1,83.9999974365235
249,264,52463,6,0,B|260:180|260:180|341:139,1,167.999994873047,4|0,0:0|0:0,0:0:0:0:
448,128,53281,1,0,0:0:0:0:
448,128,53554,6,0,P|416:158|384:196,1,83.9999974365235
392,264,54100,2,0,P|364:295|333:324,1,83.9999974365235
244,312,54645,6,0,L|164:288,3,83.9999974365235
80,216,55736,2,0,B|116:140|116:140|204:152|292:120,1,251.999992309571
376,52,56827,5,2,0:0:0:0:
408,200,57236,1,0,0:0:0:0:
284,284,57645,1,0,0:0:0:0:
140,220,58054,1,0,0:0:0:0:
256,144,58463,1,0,0:0:0:0:
256,144,58736,1,0,0:0:0:0:
256,144,59009,6,0,B|212:176|212:176|228:232|204:260,1,125.999996154785,2|0,0:0|0:0,0:0:0:0:
127,208,59827,2,0,B|115:176|123:132|123:132|67:108,1,125.999996154785
213,178,60645,1,0,0:0:0:0:
213,178,60918,1,0,0:0:0:0:
213,178,61190,5,6,0:0:0:0:
434,80,61600,1,0,0:0:0:0:
313,292,62009,1,0,0:0:0:0:
287,48,62418,1,0,0:0:0:0:
451,230,62827,2,0,P|395:222|362:189,1,83.9999974365235
256,192,63372,12,6,65554,0:0:0:0:
192,88,80827,6,0,P|116:180|304:132,1,503.999984619141,6|0,0:0|0:0,0:0:0:0:
220,188,83009,6,0,P|240:128|284:76,2,125.999996154785,6|0|0,0:0|0:0|0:0,0:0:0:0:
145,282,84372,2,0,P|179:306|237:314,2,83.9999974365235
88,176,85190,6,0,B|155:122|155:122|248:104,1,167.999994873047
360,123,86009,1,0,0:0:0:0:
448,192,86281,5,0,0:0:0:0:
348,236,86554,1,0,0:0:0:0:
256,176,86827,2,0,P|204:140|180:136,1,83.9999974365235
96,176,87372,6,0,P|152:336|248:264,1,335.999989746094,6|0,0:0|0:0,0:0:0:0:
260,148,89009,2,0,P|228:112|184:104,1,83.9999974365235
96,108,89554,6,0,P|31:194|134:229,1,251.999992309571,4|0,0:0|0:0,0:0:0:0:
224,176,90645,2,0,P|296:144|384:172,1,167.999994873047
456,312,91736,6,0,B|376:276|296:312|296:312|216:356|120:328,1,335.999989746094,6|0,0:0|0:0,0:0:0:0:
84,208,93372,1,0,0:0:0:0:
56,72,93918,6,0,B|136:108|216:72|216:72|296:28|392:56,1,335.999989746094,6|0,0:0|0:0,0:0:0:0:
408,200,95554,2,0,L|320:248,1,83.9999974365235
208,296,96100,6,0,P|184:248|248:236,1,125.999996154785,14|8,0:0|0:0,0:0:0:0:
304,296,97190,6,0,P|328:248|264:236,1,125.999996154785,14|8,0:0|0:0,0:0:0:0:
256,192,98281,12,0,100463,0:0:0:0:
152,188,109190,6,0,L|268:120,1,125.999996154785
360,196,110009,2,0,L|244:264,1,125.999996154785
132,324,110827,1,0,0:0:0:0:
132,324,111100,1,0,0:0:0:0:
132,324,111372,6,0,P|104:280|140:220,1,125.999996154785,2|0,0:0|0:0,0:0:0:0:
268,188,112190,1,0,0:0:0:0:
360,352,112600,1,0,0:0:0:0:
448,212,113009,2,0,P|460:176|444:116,1,83.9999974365235
368,80,113554,5,4,0:0:0:0:
308,220,113963,1,0,0:0:0:0:
220,104,114372,1,0,0:0:0:0:
160,252,114781,1,0,0:0:0:0:
372,316,115190,2,0,P|340:332|288:336,1,83.9999974365235
225,293,115736,6,0,P|225:212|183:178,2,125.999996154785,6|0|0,0:0|0:0|0:0,0:0:0:0:
136,332,116827,6,0,L|100:240,1,83.9999974365235
68,152,117372,2,0,P|128:120|152:124,1,83.9999974365235,8|8,0:0|0:0,0:0:0:0:
244,176,117918,1,0,0:0:0:0:
256,192,118463,12,0,122281,0:0:0:0:
