osu file format v14

[General]
AudioFilename: audio.mp3
AudioLeadIn: 0
PreviewTime: 82463
Countdown: 0
SampleSet: Soft
StackLeniency: 0.6
Mode: 0
LetterboxInBreaks: 0
WidescreenStoryboard: 1

[Editor]
DistanceSpacing: 1
BeatDivisor: 4
GridSize: 4
TimelineZoom: 3.499999

[Metadata]
Title:Preserved Valkyria
TitleUnicode:Preserved Valkyria
Artist:penoreri
ArtistUnicode:ぺのれり
Creator:KnightC0re
Version:Insane
Source:SOUND VOLTEX III GRAVITY WARS
Tags:mizki sepia -jordan- sdvx konami
BeatmapID:1172637
BeatmapSetID:535118

[Difficulty]
HPDrainRate:6
CircleSize:4
OverallDifficulty:6.7
ApproachRate:9
SliderMultiplier:1.4
SliderTickRate:1

[Events]
//Background and Video events
0,0,"bg.png",0,0
//Break Periods
2,29343,31769
2,46505,47500
2,65754,80227
2,100663,107500
//Storyboard Layer 0 (Background)
//Storyboard Layer 1 (Fail)
//Storyboard Layer 2 (Pass)
//Storyboard Layer 3 (Foreground)
//Storyboard Sound Samples

[TimingPoints]
1402,387.096774193548,4,2,1,70,1,0
1402,-100,4,2,1,70,0,0
13789,-83.3333333333333,4,2,1,70,0,0
28498,-83.3333333333333,4,2,2,70,0,0
32369,-83.3333333333333,4,2,5,70,0,0
33143,-83.3333333333333,4,2,2,70,0,0
38176,-83.3333333333333,4,2,3,50,0,0
38563,-83.3333333333333,4,2,1,70,0,0
38950,-83.3333333333333,4,2,2,70,0,0
39337,-83.3333333333333,4,2,1,70,0,0
40885,-83.3333333333333,4,2,2,70,0,0
41660,-83.3333333333333,4,2,1,70,0,0
46305,400,4,2,1,20,1,0
46705,413.793103448276,4,2,1,20,1,0
47118,461.538461538462,4,2,1,20,1,0
47579,521.739130434783,4,2,1,20,1,0
48100,272.727272727273,4,2,1,70,1,0
48100,-100,4,2,1,70,0,0
56827,-100,4,2,1,70,0,0
64463,-100,4,2,3,70,0,0
65554,-100,4,2,1,70,0,0
80827,-100,4,2,1,70,0,1
81918,-100,4,2,2,70,0,1
82463,-200,4,2,1,70,0,0
83009,-100,4,2,1,70,0,1
100463,-100,4,2,1,70,0,0
109190,-100,4,2,1,70,0,1
116963,-100,4,2,3,50,0,1
117918,-100,4,2,3,50,0,0
118463,-100,4,2,4,70,0,0

[Colours]
Combo1 : 255,255,0
Combo2 : 192,192,192
Combo3 : 0,0,255
Combo4 : 0,255,255

[HitObjects]
77,90,1402,6,0,L|216:104,1,140,6|0,0:0|0:0,0:0:0:0:
154,188,2176,2,0,L|42:200,2,105
312,168,3143,5,0,0:0:0:0:
400,216,3531,1,0,0:0:0:0:
312,168,3724,2,0,P|256:160|200:180,1,105
120,236,4305,1,0,0:0:0:0:
224,328,4692,6,0,L|280:352,4,35
160,228,5660,2,0,L|173:145,1,70
272,80,6047,5,0,0:0:0:0:
272,80,6143,1,0,0:0:0:0:
272,80,6240,1,0,0:0:0:0:
272,80,6337,1,0,0:0:0:0:
272,80,6434,2,0,L|324:96,4,35
412,172,7208,1,0,0:0:0:0:
320,292,7595,5,4,0:0:0:0:
188,240,7982,1,0,0:0:0:0:
356,168,8369,1,0,0:0:0:0:
176,100,8756,1,0,0:0:0:0:
76,184,9143,6,0,P|72:224|112:288,1,105
192,248,9531,2,0,P|256:220|300:224,1,105
400,264,9918,5,0,0:0:0:0:
476,184,10111,1,0,0:0:0:0:
356,148,10305,1,0,0:0:0:0:
444,64,10498,1,0,0:0:0:0:
336,32,10692,6,0,L|275:54,2,46.6666666666667
304,128,11079,2,0,L|243:150,2,46.6666666666667
212,60,11466,2,0,L|156:84,2,46.6666666666667
180,156,11853,2,0,L|119:178,2,46.6666666666667
79,93,12240,6,0,B|22:200|117:262|117:262|133:252|133:252|148:269|148:269|195:249,1,280
188,251,13401,1,0,0:0:0:0:
420,176,13789,6,0,P|448:144|448:88,1,83.9999974365235,4|0,0:0|0:0,0:0:0:0:
404,40,14176,2,0,P|376:72|376:128,1,83.9999974365235
376,228,14563,6,0,L|332:244,3,41.9999987182618
296,256,14950,1,0,0:0:0:0:
255,263,15046,1,0,0:0:0:0:
214,255,15143,1,0,0:0:0:0:
180,231,15240,1,0,0:0:0:0:
158,195,15337,6,0,L|144:148,3,41.9999987182618
132,116,15724,2,0,L|120:76,3,41.9999987182618
108,36,16111,5,0,0:0:0:0:
149,27,16207,1,0,0:0:0:0:
190,30,16304,1,0,0:0:0:0:
230,44,16401,1,0,0:0:0:0:
264,68,16498,1,0,0:0:0:0:
296,95,16594,1,0,0:0:0:0:
335,111,16691,1,0,0:0:0:0:
376,114,16788,1,0,0:0:0:0:
417,103,16885,6,0,L|472:68,3,41.9999987182618
484,48,17272,1,0,0:0:0:0:
445,33,17368,1,0,0:0:0:0:
403,34,17465,1,0,0:0:0:0:
365,52,17562,1,0,0:0:0:0:
338,83,17660,6,0,L|316:132,3,41.9999987182618
304,164,18047,1,0,0:0:0:0:
281,199,18143,1,0,0:0:0:0:
249,225,18240,1,0,0:0:0:0:
209,239,18337,1,0,0:0:0:0:
168,238,18434,6,0,L|120:216,3,41.9999987182618
136,304,18821,2,0,L|192:332,3,41.9999987182618
212,340,19208,6,0,L|322:315,1,83.9999974365235
264,232,19595,2,0,L|363:245,1,83.9999974365235
416,298,19982,6,0,B|450:235|401:177|401:177|388:146|413:115|413:115|372:102|372:102|352:74|352:74|287:70,1,335.999989746094,4|0,0:0|0:0,0:0:0:0:
204,112,20950,1,0,0:0:0:0:
100,164,21143,1,0,0:0:0:0:
204,112,21337,1,0,0:0:0:0:
284,192,21531,6,0,P|288:240|184:296,1,167.999994873047,4|0,0:0|0:0,0:0:0:0:
124,196,22305,5,0,0:0:0:0:
216,96,22498,1,4,0:0:0:0:
254,112,22594,1,0,0:0:0:0:
293,129,22691,1,0,0:0:0:0:
331,146,22788,1,4,0:0:0:0:
370,162,22885,1,0,0:0:0:0:
408,179,22981,1,0,0:0:0:0:
447,196,23078,5,4,0:0:0:0:
256,192,23176,12,0,25789,0:0:0:0:
140,168,26176,6,0,L|176:200,3,41.9999987182618,4|0|0|0,0:0|0:0|0:0|0:0,0:0:0:0:
268,256,26660,1,0,0:0:0:0:
388,200,26853,2,0,L|424:180,1,41.9999987182618
288,128,27143,2,0,L|240:104,1,41.9999987182618
408,64,27434,1,0,0:0:0:0:
284,200,27627,1,0,0:0:0:0:
284,200,27724,6,0,L|232:244,3,41.9999987182618,4|0|0|0,0:0|0:0|0:0|0:0,0:0:0:0:
160,304,28208,2,0,P|120:288|96:244,1,83.9999974365235
152,188,28498,6,0,L|235:165,2,55.9999982910157,6|0|0,0:0|0:0|0:0,0:0:0:0:
44,239,28885,2,0,L|127:262,2,55.9999982910157,6|0|0,0:0|0:0|0:0,0:0:0:0:
372,120,32369,6,0,L|324:132,11,27.9999991455078
316,136,33143,6,0,B|252:160|252:160|224:256|328:268|328:268|356:304|356:304|392:308|412:272,1,335.999989746094,4|0,0:0|0:0,0:0:0:0:
256,192,35466,12,8,38176,0:0:0:0:
360,140,38563,6,0,L|408:124,5,27.9999991455078
336,148,38950,2,0,L|300:160,6,27.9999991455078,0|0|0|0|0|0|6,0:0|0:0|0:0|0:0|0:0|0:0|0:0,0:0:0:0:
188,224,39724,1,0,0:0:0:0:
104,132,39982,6,0,L|140:96,2,27.9999991455078,0|0|4,0:0|0:0|0:0,0:0:0:0:
92,288,40498,1,0,0:0:0:0:
256,320,40885,5,0,0:0:0:0:
372,228,41176,1,0,0:0:0:0:
220,180,41466,1,0,0:0:0:0:
368,320,41660,5,6,0:0:0:0:
256,192,41756,12,4,44756,0:0:0:0:
152,268,45531,6,0,P|124:208|128:184,4,83.9999974365235
140,264,48100,6,0,P|176:280|228:272,2,70,6|0|0,0:0|0:0|0:0,0:0:0:0:
108,184,48509,2,0,P|104:144|120:104,2,70
236,212,48918,6,0,L|320:240,1,70
168,192,49190,1,0,0:0:0:0:
236,172,49327,6,0,L|320:144,1,70
168,192,49599,1,0,0:0:0:0:
200,104,49736,6,0,P|234:88|280:76,1,70
372,94,50009,2,0,P|407:107|448:130,1,70
372,252,50281,6,0,L|312:300,2,70
380,152,50690,2,0,L|371:228,2,70
316,76,51100,6,0,L|364:136,2,70
216,67,51509,2,0,L|292:76,2,70
152,128,51918,6,0,L|185:207,1,70
227,73,52190,2,0,L|195:153,1,70
296,200,52463,6,0,L|368:148,2,70,4|0|0,0:0|0:0|0:0,0:0:0:0:
200,224,52872,2,0,L|120:280,2,70
236,164,53281,6,0,L|184:92,2,70
260,260,53690,2,0,L|316:340,2,70
308,128,54100,6,0,L|398:116,1,70,4|0,0:0|0:0,0:0:0:0:
338,183,54372,2,0,L|410:239,1,70
192,232,54645,5,6,0:0:0:0:
256,192,55736,12,0,56554,0:0:0:0:
208,144,56827,6,0,L|324:64,1,140,6|0,0:0|0:0,0:0:0:0:
320,168,57236,2,0,L|204:248,1,140
112,208,57645,6,0,P|124:148|200:96,1,140
200,188,58054,2,0,P|188:248|112:300,1,140
60,244,58463,6,0,L|24:172,1,70
100,138,58736,2,0,L|136:66,1,70
216,96,59009,6,0,P|272:104|300:120,2,70
159,152,59418,2,0,P|205:118|236:109,2,70
160,232,59827,6,0,P|168:176|184:148,2,70
216,288,60236,2,0,P|182:242|173:211,2,70
296,288,60645,6,0,L|224:232,1,70
384,204,60918,2,0,L|296:212,1,70
352,288,61190,6,0,P|404:272|432:236,1,70,6|0,0:0|0:0,0:0:0:0:
468,176,61463,1,0,0:0:0:0:
352,288,61600,6,0,P|377:239|371:194,1,70
354,126,61873,1,0,0:0:0:0:
352,288,62009,6,0,P|336:236|300:208,1,70
240,172,62282,1,0,0:0:0:0:
190,285,62418,5,0,0:0:0:0:
289,261,62555,2,0,P|323:268|352:288,1,70
190,285,62827,6,0,P|140:312|116:344,1,70
72,252,63100,2,0,P|98:229|130:215,1,70
232,212,63372,5,6,0:0:0:0:
176,132,63509,2,0,L|140:88,2,35
328,160,63781,1,0,0:0:0:0:
341,171,63850,1,0,0:0:0:0:
354,183,63918,6,0,L|392:212,3,35
288,232,64190,2,0,L|256:208,3,35
187,161,64463,6,0,P|136:188|124:224,1,70,8|8,0:0|0:0,0:0:0:0:
148,300,64736,2,0,P|193:286|220:252,1,70,8|8,0:0|0:0,0:0:0:0:
296,192,65009,2,0,L|382:221,1,70
236,116,65281,1,0,0:0:0:0:
152,240,65554,5,6,0:0:0:0:
168,156,80827,6,0,P|216:132|248:132,1,70,6|0,0:0|0:0,0:0:0:0:
336,160,81100,1,0,0:0:0:0:
168,156,81236,6,0,P|218:172|241:195,1,70,4|0,0:0|0:0,0:0:0:0:
283,277,81509,1,0,0:0:0:0:
184,260,81645,5,0,0:0:0:0:
168,156,81781,1,0,0:0:0:0:
116,212,81918,6,0,P|92:164|100:128,1,70
220,104,82190,2,0,P|244:152|236:188,1,70
204,272,82463,6,0,P|236:288|308:280,1,105
380,224,83009,6,0,P|384:184|296:112,1,140,4|0,0:0|0:0,0:0:0:0:
248,152,83418,2,0,P|200:156|128:100,1,140
176,32,83827,1,0,0:0:0:0:
176,32,84100,6,0,L|240:104,1,70
184,180,84372,2,0,L|128:120,1,70
222,84,84645,6,0,L|286:156,1,70
230,232,84917,2,0,L|174:172,1,70
268,136,85190,6,0,P|348:184|408:176,1,140
459,74,85600,1,0,0:0:0:0:
473,170,85736,2,0,P|411:105|340:113,1,140
248,196,86145,1,0,0:0:0:0:
248,196,86281,6,0,L|304:260,1,70
160,208,86554,2,0,L|112:152,1,70
200,132,86827,2,0,L|256:84,1,70
208,268,87100,2,0,L|152:316,1,70
320,200,87372,6,0,L|396:232,1,70,4|0,0:0|0:0,0:0:0:0:
268,116,87645,2,0,L|188:80,1,70
284,276,87918,2,0,L|360:308,1,70
232,192,88190,1,0,0:0:0:0:
232,192,88327,2,0,P|164:160|92:164,1,140
128,256,88736,1,0,0:0:0:0:
128,256,88872,1,0,0:0:0:0:
128,256,89009,6,0,L|216:292,1,70
292,212,89281,2,0,L|216:180,1,70
108,132,89554,6,0,P|152:96|176:92,1,70,4|0,0:0|0:0,0:0:0:0:
180,176,89827,1,0,0:0:0:0:
180,176,89963,2,0,P|236:181|256:195,1,70
78,232,90236,1,0,0:0:0:0:
78,232,90304,1,0,0:0:0:0:
78,232,90372,1,0,0:0:0:0:
199,258,90509,1,0,0:0:0:0:
199,258,90645,6,0,L|229:310,3,35
117,317,90918,2,0,L|87:369,3,35
197,168,91190,2,0,L|227:116,3,35
123,120,91463,2,0,L|93:68,3,35
112,248,91736,6,0,L|50:274,5,46.6666666666667,6|0|0|0|0|0,0:0|0:0|0:0|0:0|0:0|0:0,0:0:0:0:
184,228,92281,2,0,L|251:201,5,46.6666666666667
168,296,92827,6,0,L|224:344,2,46.6666666666667,4|0|0,0:0|0:0|0:0,0:0:0:0:
244,280,93100,2,0,L|317:274,2,46.6666666666667
296,216,93372,2,0,L|344:159,2,46.6666666666667
276,144,93645,2,0,L|270:70,2,46.6666666666667
268,32,93918,5,4,0:0:0:0:
246,39,94009,1,0,0:0:0:0:
224,47,94100,1,0,0:0:0:0:
202,55,94190,1,0,0:0:0:0:
180,63,94281,1,0,0:0:0:0:
158,71,94372,1,0,0:0:0:0:
136,79,94463,5,0,0:0:0:0:
96,152,94600,2,0,L|40:172,2,35
184,168,94872,1,0,0:0:0:0:
192,256,95009,6,0,L|140:288,3,35
255,282,95281,2,0,L|241:341,3,35
320,256,95554,2,0,L|352:308,3,35
346,192,95827,2,0,L|405:206,3,35
320,128,96100,6,8,P|304:88|148:64,1,210
192,156,97190,6,8,P|208:196|364:220,1,210
256,192,98281,12,6,100463,0:0:0:0:
256,192,108100,12,0,109054,0:0:0:0:
384,144,109190,6,0,P|340:76|268:68,1,140,12|0,0:0|0:0,0:0:0:0:
288,152,109600,2,0,P|332:220|404:228,1,140
336,172,110009,2,0,P|292:104|220:96,1,140
240,180,110419,2,0,P|284:248|356:256,1,140
288,196,110827,6,0,P|328:228|372:232,1,70
188,136,111100,2,0,P|148:104|104:100,1,70
212,232,111372,6,0,B|152:268|152:268|84:240,1,140
156,176,111781,2,0,B|120:116|120:116|148:48,1,140
212,120,112190,2,0,B|272:84|272:84|340:112,1,140
268,176,112600,2,0,B|304:236|304:236|276:304,1,140
192,204,113009,6,0,P|216:248|248:264,1,70
348,220,113281,2,0,P|307:219|275:191,1,70
333,151,113554,6,0,P|385:127|393:47,1,140,12|0,0:0|0:0,0:0:0:0:
244,148,113963,2,0,L|208:228,2,70
171,274,114372,6,0,P|119:250|111:170,1,140
260,288,114781,2,0,L|224:352,2,70
152,348,115190,6,0,L|76:300,1,70
100,208,115463,2,0,L|168:252,1,70
273,243,115736,6,0,L|360:280,1,70,14|0,0:0|0:0,0:0:0:0:
440,220,116009,1,0,0:0:0:0:
440,220,116145,2,0,L|352:184,1,70
336,100,116418,1,0,0:0:0:0:
336,100,116554,2,0,P|296:116|268:144,1,70
184,216,116827,5,0,0:0:0:0:
251,308,116963,1,8,0:0:0:0:
360,273,117100,1,8,0:0:0:0:
360,158,117236,1,8,0:0:0:0:
251,123,117372,1,0,0:0:0:0:
160,248,117509,1,0,0:0:0:0:
176,88,117645,1,0,0:0:0:0:
240,200,117781,1,0,0:0:0:0:
112,158,117918,6,0,L|147:179,4,35,8|8|0|0|0,0:0|0:0|0:0|0:0|0:0,0:0:0:0:
217,217,118463,5,4,0:0:0:0:
256,192,118531,12,0,122281,0:0:0:0:
