osu file format v14

[General]
AudioFilename: audio.mp3
AudioLeadIn: 0
PreviewTime: 82463
Countdown: 0
SampleSet: Soft
StackLeniency: 0.5
Mode: 0
LetterboxInBreaks: 0
WidescreenStoryboard: 1

[Editor]
DistanceSpacing: 1
BeatDivisor: 4
GridSize: 4
TimelineZoom: 3.499999

[Metadata]
Title:Preserved Valkyria
TitleUnicode:Preserved Valkyria
Artist:penoreri
ArtistUnicode:ぺのれり
Creator:KnightC0re
Version:Hyper
Source:SOUND VOLTEX III GRAVITY WARS
Tags:mizki sepia -jordan- sdvx konami
BeatmapID:1177677
BeatmapSetID:535118

[Difficulty]
HPDrainRate:5
CircleSize:4
OverallDifficulty:6
ApproachRate:8
SliderMultiplier:1.4
SliderTickRate:1

[Events]
//Background and Video events
0,0,"bg.png",0,0
//Break Periods
2,29343,31469
2,46505,47233
2,65754,79927
2,102845,108290
//Storyboard Layer 0 (Background)
//Storyboard Layer 1 (Fail)
//Storyboard Layer 2 (Pass)
//Storyboard Layer 3 (Foreground)
//Storyboard Sound Samples

[TimingPoints]
1402,387.096774193548,4,2,1,70,1,0
1402,-100,4,2,1,70,0,0
28498,-100,4,2,2,70,0,0
32369,-100,4,2,5,70,0,0
33143,-100,4,2,1,70,0,0
38176,-100,4,2,3,50,0,0
39337,-100,4,2,1,70,0,0
45531,-100,4,2,1,20,0,0
46305,400,4,2,1,20,1,0
46705,413.793103448276,4,2,1,70,1,0
47118,461.538461538462,4,2,1,70,1,0
47579,521.739130434783,4,2,1,70,1,0
48100,272.727272727273,4,2,1,70,1,0
80827,-100,4,2,1,70,0,1
81918,-133.333333333333,4,2,2,70,0,1
82463,-100,4,2,1,70,0,0
83009,-100,4,2,1,70,0,1
87372,-133.333333333333,4,2,1,70,0,1
88327,-100,4,2,1,70,0,1
100463,-100,4,2,1,70,0,0
109190,-100,4,2,1,70,0,1
117372,-100,4,2,3,50,0,1
117918,-100,4,2,3,50,0,0
118463,-100,4,2,4,70,0,0

[Colours]
Combo1 : 255,255,0
Combo2 : 192,192,192
Combo3 : 0,0,255
Combo4 : 0,255,255

[HitObjects]
104,68,1402,5,6,0:0:0:0:
216,220,1789,1,0,0:0:0:0:
376,136,2176,2,0,P|424:104|480:96,2,105
344,288,3143,6,0,P|312:328|216:344,1,140
96,288,3724,1,0,0:0:0:0:
68,256,4014,1,0,0:0:0:0:
40,224,4305,1,0,0:0:0:0:
208,168,4692,6,0,L|248:128,4,35
166,288,5660,2,0,L|236:303,1,70
369,325,6047,5,0,0:0:0:0:
379,222,6240,1,0,0:0:0:0:
389,119,6434,2,0,L|396:56,4,35
272,168,7208,1,0,0:0:0:0:
192,280,7595,6,0,P|128:288|72:240,1,140,4|0,0:0|0:0,0:0:0:0:
248,144,8369,2,0,P|312:136|368:184,1,140
300,316,9143,6,0,L|212:172,1,140
172,56,9918,2,0,L|260:64,1,70
296,202,10305,2,0,L|208:194,1,70
92,224,10692,6,0,L|44:280,2,46.6666666666667
120,268,11079,2,0,L|94:337,2,46.6666666666667
163,299,11466,2,0,L|162:372,2,46.6666666666667
205,324,11853,2,0,L|229:393,2,46.6666666666667
253,333,12240,5,0,0:0:0:0:
176,148,12627,2,0,P|204:76|264:48,1,140
472,136,13401,1,0,0:0:0:0:
297,143,13789,6,0,L|232:168,1,70,4|0,0:0|0:0,0:0:0:0:
170,288,14176,2,0,L|236:264,1,70
368,224,14563,5,0,0:0:0:0:
429,128,14756,1,0,0:0:0:0:
429,128,14853,1,0,0:0:0:0:
429,128,14950,2,0,L|456:84,1,35
324,104,15143,2,0,L|297:148,1,35
256,228,15337,6,0,L|192:232,3,35
128,228,15724,2,0,L|101:190,3,35
72,116,16111,6,0,L|100:70,1,35
160,20,16305,2,0,L|200:48,1,35
264,104,16498,2,0,L|304:112,1,35
424,120,16692,2,0,L|396:88,1,35
332,32,16885,6,0,L|292:60,3,35
236,116,17272,2,0,L|196:160,3,35
152,209,17660,6,0,L|112:184,3,35
64,128,18047,2,0,L|52:92,3,35
124,28,18434,5,0,0:0:0:0:
158,22,18530,1,0,0:0:0:0:
193,26,18627,1,0,0:0:0:0:
224,40,18724,1,0,0:0:0:0:
251,63,18821,2,0,L|280:92,3,35
360,180,19208,5,0,0:0:0:0:
468,288,19401,1,0,0:0:0:0:
330,253,19595,1,0,0:0:0:0:
438,362,19788,1,0,0:0:0:0:
288,336,19982,6,0,B|259:265|91:265|80:156,1,280,4|0,0:0|0:0,0:0:0:0:
131,72,20950,1,0,0:0:0:0:
247,14,21143,1,0,0:0:0:0:
247,134,21337,1,0,0:0:0:0:
352,80,21531,6,0,P|400:80|472:144,1,140,4|0,0:0|0:0,0:0:0:0:
408,176,22305,2,0,P|393:155|345:154,1,70,0|4,0:0|0:0,0:0:0:0:
356,220,22692,1,0,0:0:0:0:
343,252,22788,1,4,0:0:0:0:
320,278,22885,1,0,0:0:0:0:
289,293,22982,1,0,0:0:0:0:
254,296,23079,5,4,0:0:0:0:
256,192,23176,12,0,25982,0:0:0:0:
124,256,26176,6,0,P|136:136|400:80,1,420,4|0,0:0|0:0,0:0:0:0:
326,123,27724,6,0,P|227:130|196:224,1,210,4|0,0:0|0:0,0:0:0:0:
272,188,28498,6,0,L|344:200,1,46.6666666666667,6|0,0:0|0:0,0:0:0:0:
272,256,28756,2,0,L|314:315,1,46.6666666666667,0|4,0:0|0:0,0:0:0:0:
223,304,29014,2,0,L|210:375,1,46.6666666666667
152,120,32369,6,0,L|120:96,12,23.3333333333333,0|0|0|0|0|0|0|0|0|0|0|0|4,0:0|0:0|0:0|0:0|0:0|0:0|0:0|0:0|0:0|0:0|0:0|0:0|0:0,0:0:0:0:
296,308,33918,2,0,P|436:141|220:168,1,560,0|2,0:0|0:0,0:0:0:0:
256,192,35563,12,8,38176,0:0:0:0:
244,316,38563,6,0,B|108:280|108:280|212:247|180:160,1,280,0|6,0:0|0:0,0:0:0:0:
416,184,40111,2,0,B|464:120|440:32|440:32|312:80|208:364,1,560,4|6,0:0|0:0,0:0:0:0:
256,192,41756,12,4,44756,0:0:0:0:
312,124,45531,5,0,0:0:0:0:
397,94,45724,1,0,0:0:0:0:
451,166,45918,1,0,0:0:0:0:
399,240,46111,1,0,0:0:0:0:
314,213,46305,1,0,0:0:0:0:
188,196,48100,6,0,L|144:136,2,70,4|0|0,0:0|0:0|0:0,0:0:0:0:
240,108,48645,2,0,L|251:34,2,70
336,104,49190,1,0,0:0:0:0:
460,190,49463,1,0,0:0:0:0:
451,95,49736,1,0,0:0:0:0:
318,204,50009,1,0,0:0:0:0:
176,268,50281,6,0,L|108:300,2,70
288,164,50827,2,0,L|356:132,2,70
100,176,51372,2,0,P|36:152|8:80,1,140
224,116,51918,2,0,P|288:140|316:212,1,140
228,288,52463,6,0,L|172:364,2,70,4|0|0,0:0|0:0|0:0,0:0:0:0:
132,240,53009,2,0,L|38:254,2,70
98,138,53554,2,0,L|21:81,2,70
146,42,54100,1,4,0:0:0:0:
304,116,54372,1,0,0:0:0:0:
156,212,54645,5,4,0:0:0:0:
192,312,55736,6,0,B|136:356|78:345|78:345|100:280|23:242|23:242|35:151|136:120,1,420
300,156,56827,6,0,L|460:204,1,140,6|0,0:0|0:0,0:0:0:0:
320,272,57372,2,0,L|160:320,1,140
96,208,57918,2,0,P|72:172|92:72,1,140
296,96,58463,1,0,0:0:0:0:
140,144,58736,1,0,0:0:0:0:
288,248,59009,6,0,P|364:268|432:228,1,140
320,152,59554,2,0,P|244:132|176:172,1,140
116,248,60100,2,0,B|84:300|84:300|140:288|192:300,1,140
360,324,60645,1,0,0:0:0:0:
216,184,60918,1,0,0:0:0:0:
80,68,61190,6,0,B|80:8|80:8|176:32,1,140,4|0,0:0|0:0,0:0:0:0:
308,104,61736,2,0,B|340:132|388:124|388:124|432:188,1,140
436,336,62281,2,0,P|376:316|288:340,1,140
124,372,62827,1,0,0:0:0:0:
36,200,63100,1,0,0:0:0:0:
192,88,63372,6,0,B|272:60|272:60|332:128|400:112,2,210,4|4|4,0:0|0:0|0:0,0:0:0:0:
96,212,64463,2,0,P|108:248|208:272,1,140
296,132,65009,2,0,B|264:128|248:104|248:104|180:180,1,140
96,340,65554,5,6,0:0:0:0:
160,112,80827,6,0,P|216:92|408:324,1,420,4|0,0:0|0:0,0:0:0:0:
240,308,81918,2,0,L|192:280,1,52.5000020027161
176,192,82190,2,0,L|128:164,1,52.5000020027161
248,340,83009,6,0,P|192:356|168:220,1,210,6|0,0:0|0:0,0:0:0:0:
288,84,83827,1,0,0:0:0:0:
456,168,84100,5,0,0:0:0:0:
280,248,84372,2,0,L|148:308,2,140
408,160,85190,6,0,P|440:120|336:140,1,280
396,280,86009,2,0,L|440:364,2,70
304,120,86554,1,0,0:0:0:0:
277,338,86827,1,0,0:0:0:0:
180,183,87100,1,0,0:0:0:0:
128,320,87372,6,0,L|80:360,1,52.5000020027161,4|0,0:0|0:0,0:0:0:0:
88,288,87645,2,0,L|25:282,1,52.5000020027161
82,237,87918,2,0,L|36:180,1,52.5000020027161
114,197,88190,1,0,0:0:0:0:
114,197,88327,2,0,B|120:126|120:126|152:148|216:136,1,140
300,88,88736,1,0,0:0:0:0:
436,184,89009,2,0,P|456:240|388:312,1,140
264,284,89554,6,0,B|204:260|112:296|112:352|200:376|216:296|164:184,1,280,4|0,0:0|0:0,0:0:0:0:
128,52,90372,1,0,0:0:0:0:
304,88,90645,2,0,P|384:120|412:176,1,140
412,304,91190,2,0,B|360:304|360:304|336:264|276:256,1,140
164,248,91736,6,0,P|120:248|64:160,1,140,4|0,0:0|0:0,0:0:0:0:
240,104,92281,2,0,P|284:104|340:192,1,140
328,308,92827,2,0,L|268:340,3,46.6666666666667
432,168,93372,2,0,L|492:136,3,46.6666666666667
240,104,93918,6,0,P|188:80|164:240,1,280,4|0,0:0|0:0,0:0:0:0:
344,312,94736,1,0,0:0:0:0:
444,216,95009,6,0,L|468:176,3,35
408,164,95281,2,0,L|384:124,3,35
444,112,95554,2,0,L|468:72,3,35
408,60,95827,2,0,L|384:20,3,35
353,81,96100,6,0,P|304:104|260:196,1,140,14|0,0:0|0:0,0:0:0:0:
288,344,96509,2,0,P|332:348|268:296,1,210,8|0,0:0|0:0,0:0:0:0:
96,340,97190,6,0,P|145:317|189:225,1,140,14|0,0:0|0:0,0:0:0:0:
161,77,97599,2,0,P|117:73|181:125,1,210,8|0,0:0|0:0,0:0:0:0:
376,84,98281,6,0,L|432:120,5,46.6666666666667
376,124,98827,2,0,L|320:160,5,46.6666666666667
376,164,99372,2,0,L|432:200,5,46.6666666666667
376,204,99918,2,0,L|320:240,3,46.6666666666667
160,320,100463,5,6,0:0:0:0:
256,192,100531,12,0,102645,0:0:0:0:
120,324,109190,6,0,L|78:183,1,140,6|0,0:0|0:0,0:0:0:0:
304,251,109736,2,0,L|346:110,1,140
125,87,110281,1,0,0:0:0:0:
328,14,110554,1,0,0:0:0:0:
118,50,110827,1,0,0:0:0:0:
333,51,111100,1,0,0:0:0:0:
125,13,111372,6,0,P|209:24|256:76,1,140,6|0,0:0|0:0,0:0:0:0:
292,244,111918,2,0,P|228:235|172:180,1,140
52,21,112463,1,0,0:0:0:0:
116,229,112736,1,0,0:0:0:0:
90,15,113009,1,0,0:0:0:0:
78,232,113282,1,0,0:0:0:0:
128,21,113554,6,0,B|159:52|217:37|217:37|248:96,1,140,14|0,0:0|0:0,0:0:0:0:
296,224,114100,2,0,B|312:260|316:296|316:296|360:284|396:296,1,140
509,156,114645,1,0,0:0:0:0:
244,210,114918,1,0,0:0:0:0:
509,201,115190,1,0,0:0:0:0:
243,162,115463,1,0,0:0:0:0:
494,246,115736,6,0,B|451:286|451:286|410:263|344:288,1,140,14|0,0:0|0:0,0:0:0:0:
190,375,116281,1,0,0:0:0:0:
59,179,116554,1,0,0:0:0:0:
254,50,116827,5,0,0:0:0:0:
427,266,117100,1,0,0:0:0:0:
449,72,117372,1,8,0:0:0:0:
232,244,117645,1,8,0:0:0:0:
232,244,118463,5,4,0:0:0:0:
256,192,118531,12,0,122281,0:0:0:0:
