osu file format v14

[General]
AudioFilename: audio.mp3
AudioLeadIn: 0
PreviewTime: 82463
Countdown: 0
SampleSet: Soft
StackLeniency: 0.7
Mode: 0
LetterboxInBreaks: 0
WidescreenStoryboard: 1

[Editor]
DistanceSpacing: 1
BeatDivisor: 4
GridSize: 4
TimelineZoom: 3.499999

[Metadata]
Title:Preserved Valkyria
TitleUnicode:Preserved Valkyria
Artist:penoreri
ArtistUnicode:ぺのれり
Creator:KnightC0re
Version:Hard
Source:SOUND VOLTEX III GRAVITY WARS
Tags:mizki sepia -jordan- sdvx konami
BeatmapID:1141898
BeatmapSetID:535118

[Difficulty]
HPDrainRate:5
CircleSize:3.9
OverallDifficulty:5
ApproachRate:7
SliderMultiplier:1.4
SliderTickRate:1

[Events]
//Background and Video events
0,0,"bg.png",0,0
//Break Periods
2,29343,32243
2,46505,47200
2,65754,79927
2,100663,107200
//Storyboard Layer 0 (Background)
//Storyboard Layer 1 (Fail)
//Storyboard Layer 2 (Pass)
//Storyboard Layer 3 (Foreground)
//Storyboard Sound Samples

[TimingPoints]
1402,387.096774193548,4,2,1,70,1,0
1402,-100,4,2,1,70,0,0
28498,-100,4,2,2,70,0,0
33143,-100,4,2,1,70,0,0
38563,-100,4,2,2,70,0,0
39337,-100,4,2,1,70,0,0
45531,-100,4,2,1,20,0,0
46305,400,4,2,1,20,1,0
46705,413.793103448276,4,2,1,70,1,0
47118,461.538461538462,4,2,1,70,1,0
47579,521.739130434783,4,2,1,70,1,0
48100,272.727272727273,4,2,1,70,1,0
80827,-100,4,2,1,70,0,1
81918,-200,4,2,2,70,0,1
82463,-100,4,2,1,70,0,0
83009,-100,4,2,1,70,0,1
100463,-100,4,2,1,70,0,0
109190,-100,4,2,1,70,0,1
117372,-100,4,2,3,50,0,1
117918,-100,4,2,3,50,0,0
118463,-100,4,2,4,70,0,0

[Colours]
Combo1 : 255,255,0
Combo2 : 192,192,192
Combo3 : 0,0,255
Combo4 : 0,255,255

[HitObjects]
88,76,1402,5,6,0:0:0:0:
176,116,1789,1,0,0:0:0:0:
268,160,2176,2,0,P|232:224|192:248,1,105
72,280,2756,1,0,0:0:0:0:
220,344,3143,5,0,0:0:0:0:
344,224,3531,1,0,0:0:0:0:
188,160,3724,2,0,P|158:156|77:130,2,105
320,96,4692,5,0,0:0:0:0:
464,72,5079,1,0,0:0:0:0:
396,257,5660,2,0,L|332:301,1,70
256,236,6047,6,0,L|184:248,1,70
108,208,6434,2,0,L|36:196,1,70
106,100,6821,2,0,B|166:66|166:66|234:118,2,140,0|0|4,0:0|0:0|0:0,0:0:0:0:
184,168,7982,6,0,P|240:176|292:116,1,140
244,248,8756,2,0,P|292:232|352:164,1,140
293,128,9531,2,0,P|349:98|421:160,2,140
96,192,10692,5,0,0:0:0:0:
188,240,11079,1,0,0:0:0:0:
288,184,11466,1,0,0:0:0:0:
380,228,11853,1,0,0:0:0:0:
464,160,12240,5,0,0:0:0:0:
268,96,13014,2,0,P|220:100|140:160,1,140
88,240,13789,6,0,L|171:245,1,70,6|0,0:0|0:0,0:0:0:0:
260,272,14176,2,0,L|343:267,1,70
410,190,14563,2,0,L|378:146,3,35
323,82,14950,2,0,L|271:90,3,35
200,113,15337,5,0,0:0:0:0:
183,118,15434,1,0,0:0:0:0:
166,122,15531,1,0,0:0:0:0:
149,127,15628,1,0,0:0:0:0:
133,132,15724,2,0,L|93:172,3,35
43,233,16111,6,0,L|67:273,3,35
164,246,16498,2,0,L|208:282,3,35
272,336,16885,5,0,0:0:0:0:
298,335,16981,1,0,0:0:0:0:
324,335,17078,1,0,0:0:0:0:
350,335,17175,1,0,0:0:0:0:
376,336,17272,2,0,L|424:312,3,35
473,243,17660,5,0,0:0:0:0:
464,218,17756,1,0,0:0:0:0:
449,196,17853,1,0,0:0:0:0:
429,179,17950,1,0,0:0:0:0:
408,172,18047,2,0,L|352:160,3,35
272,180,18434,6,0,L|232:212,1,35
172,256,18627,1,0,0:0:0:0:
172,256,18724,1,0,0:0:0:0:
172,256,18821,2,0,L|136:220,1,35
84,160,19014,1,0,0:0:0:0:
84,160,19111,1,0,0:0:0:0:
84,160,19208,6,0,L|132:132,1,35
100,68,19401,2,0,L|148:40,1,35
204,84,19595,2,0,L|232:132,1,35
296,100,19788,2,0,L|324:148,1,35
240,152,19982,6,0,P|298:205|351:64,1,280,4|0,0:0|0:0,0:0:0:0:
160,108,20950,2,0,L|256:112,2,70
56,208,21531,6,0,P|136:284|280:228,1,280,4|0,0:0|0:0,0:0:0:0:
348,140,22498,2,0,P|402:152|436:200,1,105,4|4,0:0|0:0,0:0:0:0:
452,292,23079,1,4,0:0:0:0:
256,192,23176,12,0,25401,0:0:0:0:
312,284,26176,6,0,P|240:304|332:168,1,420,4|0,0:0|0:0,0:0:0:0:
416,200,27724,5,4,0:0:0:0:
216,80,28498,2,0,L|202:147,2,46.6666666666667,4|0|0,0:0|0:0|0:0,0:0:0:0:
300,147,28885,2,0,L|314:214,2,46.6666666666667,4|0|0,0:0|0:0|0:0,0:0:0:0:
128,184,33143,5,4,0:0:0:0:
256,296,33918,2,0,P|328:268|192:272,1,560
256,192,35563,12,0,38176,0:0:0:0:
208,248,38563,6,0,L|232:276,12,23.3333333333333,0|0|0|0|0|0|0|0|0|0|0|0|4,0:0|0:0|0:0|0:0|0:0|0:0|0:0|0:0|0:0|0:0|0:0|0:0|0:0,0:0:0:0:
380,316,40111,2,0,P|324:300|440:296,1,560,4|4,0:0|0:0,0:0:0:0:
256,192,41756,12,4,44756,0:0:0:0:
156,116,45531,5,0,0:0:0:0:
221,92,45724,1,0,0:0:0:0:
291,90,45918,1,0,0:0:0:0:
358,110,46111,1,0,0:0:0:0:
415,150,46305,1,0,0:0:0:0:
312,272,48100,6,0,P|260:284|172:260,1,140,6|0,0:0|0:0,0:0:0:0:
124,156,48645,2,0,P|184:144|272:176,1,140
368,212,49190,5,0,0:0:0:0:
440,144,49463,1,0,0:0:0:0:
352,100,49736,1,0,0:0:0:0:
428,44,50009,1,0,0:0:0:0:
300,52,50281,6,0,B|252:72|252:72|216:176,1,140
216,292,50827,2,0,B|264:272|264:272|300:168,1,140
267,114,51372,6,0,P|321:114|372:196,1,140
372,280,51918,1,0,0:0:0:0:
260,316,52190,1,0,0:0:0:0:
144,352,52463,6,0,P|88:296|96:236,1,140
200,268,53009,2,0,P|208:212|128:156,1,140
62,169,53554,5,0,0:0:0:0:
56,78,53827,1,0,0:0:0:0:
152,157,54100,1,4,0:0:0:0:
144,70,54372,1,0,0:0:0:0:
224,48,54645,6,0,P|272:36|356:80,1,140,4|0,0:0|0:0,0:0:0:0:
432,164,55190,2,0,P|356:208|284:180,1,140
176,124,55736,5,0,0:0:0:0:
256,192,55804,12,0,56690,0:0:0:0:
288,92,56827,6,0,P|328:116|360:212,1,140
312,300,57372,2,0,P|248:328|176:300,1,140
116,204,57918,6,0,B|120:108|120:108|152:108|180:88,1,140
288,100,58463,1,0,0:0:0:0:
404,168,58736,1,0,0:0:0:0:
376,288,59009,6,0,B|324:300|324:300|307:298|307:298|232:312,1,140
128,260,59554,2,0,B|108:196|108:196|109:176|109:176|88:112,1,140
200,60,60100,5,0,0:0:0:0:
304,108,60372,1,0,0:0:0:0:
200,60,60645,1,0,0:0:0:0:
92,125,60918,1,0,0:0:0:0:
32,236,61190,6,0,B|88:256|88:256|108:248|108:248|172:272,1,140,4|0,0:0|0:0,0:0:0:0:
284,232,61736,2,0,B|280:188|280:188|328:140|380:172,1,140
451,250,62281,5,0,0:0:0:0:
366,334,62554,1,0,0:0:0:0:
282,249,62827,1,0,0:0:0:0:
366,165,63100,1,0,0:0:0:0:
280,56,63372,5,4,0:0:0:0:
136,100,63645,1,0,0:0:0:0:
280,164,63918,1,0,0:0:0:0:
136,220,64190,1,4,0:0:0:0:
276,284,64463,1,6,0:0:0:0:
256,192,64531,12,0,65554,0:0:0:0:
288,248,80827,6,0,P|316:197|138:194,1,350,4|0,0:0|0:0,0:0:0:0:
116,288,81645,1,0,0:0:0:0:
116,288,81781,1,0,0:0:0:0:
116,288,81918,6,0,L|152:304,4,35
92,124,83009,6,0,P|156:64|284:88,2,210,6|0|0,0:0|0:0|0:0,0:0:0:0:
184,224,84100,5,0,0:0:0:0:
312,188,84372,1,0,0:0:0:0:
204,108,84645,1,0,0:0:0:0:
340,64,84918,1,0,0:0:0:0:
452,104,85190,6,0,P|472:160|280:172,1,350
280,76,86009,1,0,0:0:0:0:
280,76,86145,2,0,P|176:64|176:272,1,350
263,299,86963,1,0,0:0:0:0:
263,299,87100,2,0,L|212:252,1,70
192,140,87372,6,0,L|248:80,1,70,4|0,0:0|0:0,0:0:0:0:
252,188,87645,2,0,L|334:185,1,70
212,252,87918,2,0,L|272:308,1,70
164,312,88190,2,0,L|164:384,1,70
64,276,88600,5,0,0:0:0:0:
64,276,88736,2,0,L|88:184,1,70
104,124,89009,2,0,P|168:112|268:140,1,140
376,176,89554,5,6,0:0:0:0:
404,296,89827,2,0,P|348:316|312:316,1,70
224,272,90236,6,0,L|188:236,2,35
428,304,90645,2,0,P|448:212|172:212,1,490
208,300,91736,6,0,P|124:312|92:248,1,140,4|0,0:0|0:0,0:0:0:0:
173,205,92281,2,0,P|165:153|85:133,1,140
92,220,92827,6,0,P|120:260|228:272,1,140,4|0,0:0|0:0,0:0:0:0:
264,180,93372,2,0,P|292:156|348:132,2,93.3333333333333
172,210,93918,6,0,P|147:145|189:92,1,140
284,220,94463,1,0,0:0:0:0:
284,220,94600,2,0,L|312:256,2,35
185,93,95009,6,0,P|124:127|125:209,1,140
236,260,95554,1,0,0:0:0:0:
320,176,95827,1,0,0:0:0:0:
352,72,96100,6,0,B|308:60|308:60|152:152,1,210,10|10,0:0|0:0,0:0:0:0:
96,288,97190,2,0,B|176:304|176:304|232:232|292:252,1,210,10|10,0:0|0:0,0:0:0:0:
256,192,98281,12,6,100463,0:0:0:0:
344,268,108100,6,0,L|372:296,4,35
248,168,108645,2,0,L|208:120,4,35
360,96,109190,6,0,P|384:136|384:236,1,140,12|0,0:0|0:0,0:0:0:0:
284,312,109736,2,0,P|260:272|260:172,1,140
303,55,110281,2,0,P|239:51|159:99,1,140
87,183,110827,1,0,0:0:0:0:
151,283,111100,1,0,0:0:0:0:
256,348,111372,6,0,P|352:264|356:232,1,140,12|0,0:0|0:0,0:0:0:0:
336,96,111918,2,0,P|240:180|236:212,1,140
408,204,112463,2,0,B|352:260|352:260|264:260,1,140
152,264,113009,1,0,0:0:0:0:
72,148,113281,1,0,0:0:0:0:
165,35,113554,6,0,P|229:31|297:75,2,140,12|0|0,0:0|0:0|0:0,0:0:0:0:
59,114,114372,1,0,0:0:0:0:
111,236,114645,2,0,B|151:302|151:302|235:328,2,140
182,135,115463,1,0,0:0:0:0:
296,168,115736,6,0,P|336:192|400:348,2,210,12|0|0,0:0|0:0|0:0,0:0:0:0:
212,264,116827,5,0,0:0:0:0:
108,168,117100,1,0,0:0:0:0:
208,72,117372,1,8,0:0:0:0:
312,160,117645,1,8,0:0:0:0:
204,176,117918,6,0,L|160:200,4,35
312,116,118463,1,4,0:0:0:0:
256,192,118531,12,0,122281,0:0:0:0:
