osu file format v14

[General]
AudioFilename: audio.mp3
AudioLeadIn: 0
PreviewTime: 82463
Countdown: 0
SampleSet: Soft
StackLeniency: 0.3
Mode: 0
LetterboxInBreaks: 0
WidescreenStoryboard: 1

[Editor]
DistanceSpacing: 1
BeatDivisor: 3
GridSize: 4
TimelineZoom: 3.499999

[Metadata]
Title:Preserved Valkyria
TitleUnicode:Preserved Valkyria
Artist:penoreri
ArtistUnicode:ぺのれり
Creator:KnightC0re
Version:Extra
Source:SOUND VOLTEX III GRAVITY WARS
Tags:mizki sepia -jordan- sdvx konami
BeatmapID:1134205
BeatmapSetID:535118

[Difficulty]
HPDrainRate:6
CircleSize:4
OverallDifficulty:8.6
ApproachRate:9.2
SliderMultiplier:1.4
SliderTickRate:1

[Events]
//Background and Video events
0,0,"bg.png",0,0
//Break Periods
2,29343,31769
//Storyboard Layer 0 (Background)
//Storyboard Layer 1 (Fail)
//Storyboard Layer 2 (Pass)
//Storyboard Layer 3 (Foreground)
//Storyboard Sound Samples

[TimingPoints]
1402,387.096774193548,4,2,1,70,1,0
4692,-100,4,2,1,70,0,0
7595,-100,4,2,1,70,0,0
15337,-133.333333333333,4,2,1,70,0,0
16111,-100,4,2,1,70,0,0
16885,-133.333333333333,4,2,1,70,0,0
18434,-100,4,2,1,70,0,0
19982,-66.6666666666667,4,2,1,70,0,0
22692,-100,4,2,1,70,0,0
28498,-100,4,2,2,70,0,0
32369,-100,4,2,5,70,0,0
33143,-100,4,2,2,70,0,0
38563,-100,4,2,1,70,0,0
38950,-100,4,2,2,70,0,0
41660,-100,4,2,1,70,0,0
45531,-100,4,2,1,20,0,0
46305,400,4,2,1,20,1,0
46705,413.793103448276,4,2,1,20,1,0
47118,461.538461538462,4,2,1,20,1,0
47579,521.739130434783,4,2,1,20,1,0
48100,272.727272727273,4,2,1,70,1,0
56827,-100,4,2,1,70,0,0
65554,-100,4,2,1,70,0,0
65963,-100,4,2,4,70,0,0
73736,-100,4,2,2,20,0,0
80827,-83.3333333333333,4,2,1,70,0,1
81918,-83.3333333333333,4,2,2,70,0,1
82463,-100,4,2,2,70,0,0
83009,-76.9230769230769,4,2,1,70,0,1
99918,-76.9230769230769,4,2,2,70,0,1
100463,-100,4,2,1,70,0,0
109190,-76.9230769230769,4,2,1,70,0,1
116963,-76.9230769230769,4,2,3,50,0,1
117918,-100,4,2,3,50,0,0
118463,-100,4,2,4,70,0,0

[Colours]
Combo1 : 255,255,0
Combo2 : 192,192,192
Combo3 : 0,0,255
Combo4 : 0,255,255

[HitObjects]
160,136,1402,5,6,0:0:0:0:
288,152,1789,1,0,0:0:0:0:
204,236,2176,2,0,P|152:269|102:285,2,105
396,256,3143,6,0,P|380:203|308:165,1,140
184,200,3724,1,0,0:0:0:0:
104,120,4014,2,0,P|147:94|208:88,1,105
288,224,4692,5,0,0:0:0:0:
311,235,4788,1,0,0:0:0:0:
335,246,4885,1,0,0:0:0:0:
358,258,4982,1,0,0:0:0:0:
382,269,5079,1,0,0:0:0:0:
244,320,5660,5,0,0:0:0:0:
144,280,5853,1,0,0:0:0:0:
116,128,6143,5,0,0:0:0:0:
131,106,6239,1,0,0:0:0:0:
151,90,6336,1,0,0:0:0:0:
175,80,6433,1,0,0:0:0:0:
201,76,6530,1,0,0:0:0:0:
227,80,6626,1,0,0:0:0:0:
251,91,6723,1,0,0:0:0:0:
271,107,6820,5,0,0:0:0:0:
271,107,7208,1,0,0:0:0:0:
400,292,7595,6,0,L|340:320,3,35,6|0|0|0,0:0|0:0|0:0|0:0,0:0:0:0:
280,296,7982,2,0,L|244:264,3,35
212,196,8369,2,0,L|192:156,3,35
176,72,8756,2,0,L|204:32,3,35
360,76,9143,6,0,L|404:104,3,35
260,116,9531,2,0,L|228:148,3,35
392,172,9918,2,0,L|344:184,1,35
224,216,10111,2,0,L|280:228,1,35
404,256,10305,2,0,L|352:268,1,35
232,299,10498,2,0,L|197:291,1,35
92,188,10692,6,0,P|96:144|124:120,2,46.6666666666667
160,224,11079,6,0,P|200:205|234:217,2,46.6666666666667
208,284,11466,6,0,P|244:309|250:345,2,46.6666666666667
136,320,11853,6,0,P|132:364|103:388,2,46.6666666666667
64,272,12240,6,0,P|40:208|160:132,1,210
280,160,13014,5,0,0:0:0:0:
436,320,13401,1,0,0:0:0:0:
260,320,13789,6,0,L|192:280,1,70,4|0,0:0|0:0,0:0:0:0:
224,160,14176,2,0,L|288:200,1,70
400,132,14563,2,0,L|368:88,3,35
304,68,14950,2,0,L|252:76,3,35
168,92,15337,5,0,0:0:0:0:
141,91,15433,1,0,0:0:0:0:
116,99,15530,1,0,0:0:0:0:
95,114,15627,1,0,0:0:0:0:
80,136,15724,1,0,0:0:0:0:
72,161,15820,1,0,0:0:0:0:
73,187,15917,1,0,0:0:0:0:
82,211,16014,1,0,0:0:0:0:
98,232,16111,6,0,L|136:272,3,35
232,284,16498,2,0,L|284:272,3,35
372,228,16885,5,0,0:0:0:0:
393,212,16981,1,0,0:0:0:0:
408,191,17078,1,0,0:0:0:0:
414,166,17175,1,0,0:0:0:0:
412,140,17272,1,0,0:0:0:0:
400,116,17368,1,0,0:0:0:0:
381,98,17465,1,0,0:0:0:0:
357,88,17562,1,0,0:0:0:0:
331,86,17660,5,0,0:0:0:0:
319,109,17756,1,0,0:0:0:0:
302,129,17853,1,0,0:0:0:0:
282,146,17950,1,0,0:0:0:0:
258,157,18047,1,0,0:0:0:0:
233,164,18143,1,0,0:0:0:0:
207,165,18240,1,0,0:0:0:0:
181,161,18337,1,0,0:0:0:0:
156,152,18434,6,0,L|108:112,3,35
144,236,18821,2,0,L|104:272,3,35
232,232,19208,2,0,L|264:272,1,35
312,184,19401,2,0,L|348:136,1,35
376,252,19595,2,0,L|404:296,1,35
432,168,19789,2,0,L|460:128,1,35
408,56,19982,6,0,P|316:60|212:244,1,315.000012016297,6|0,0:0|0:0,0:0:0:0:
249,326,20756,5,0,0:0:0:0:
340,287,20950,1,0,0:0:0:0:
301,195,21143,1,0,0:0:0:0:
210,234,21337,1,0,0:0:0:0:
100,188,21531,6,0,P|114:119|243:75,1,210.000008010865,6|0,0:0|0:0,0:0:0:0:
373,118,22305,2,0,B|392:162|392:162|353:203,1,105.000004005432,0|6,0:0|0:0,0:0:0:0:
224,288,22692,5,0,0:0:0:0:
199,263,22788,1,6,0:0:0:0:
167,250,22885,1,0,0:0:0:0:
132,250,22982,1,0,0:0:0:0:
101,264,23079,6,0,L|64:296,3,35,4|0|0|0,0:0|0:0|0:0|0:0,0:0:0:0:
124,152,23563,1,0,0:0:0:0:
236,144,23756,1,0,0:0:0:0:
236,144,23853,1,0,0:0:0:0:
340,184,24047,1,0,0:0:0:0:
340,184,24143,1,0,0:0:0:0:
428,256,24337,1,0,0:0:0:0:
476,348,24531,1,0,0:0:0:0:
248,320,24724,5,0,0:0:0:0:
216,305,24820,1,0,0:0:0:0:
184,291,24917,1,0,0:0:0:0:
120,184,25111,1,0,0:0:0:0:
200,88,25305,1,0,0:0:0:0:
200,88,25401,1,0,0:0:0:0:
296,152,25595,1,0,0:0:0:0:
296,152,25692,1,0,0:0:0:0:
220,240,25885,1,0,0:0:0:0:
328,312,26079,1,0,0:0:0:0:
362,316,26175,5,6,0:0:0:0:
394,303,26272,1,0,0:0:0:0:
416,276,26369,1,0,0:0:0:0:
421,242,26466,1,0,0:0:0:0:
356,144,26660,1,0,0:0:0:0:
216,108,26853,2,0,L|168:144,1,35
256,196,27143,2,0,L|292:164,1,35
364,60,27434,1,0,0:0:0:0:
444,188,27627,1,0,0:0:0:0:
425,217,27723,5,6,0:0:0:0:
400,242,27820,1,0,0:0:0:0:
370,259,27917,1,0,0:0:0:0:
337,270,28014,1,0,0:0:0:0:
208,232,28208,1,0,0:0:0:0:
96,104,28401,1,0,0:0:0:0:
96,104,28498,5,6,0:0:0:0:
208,147,28627,1,0,0:0:0:0:
172,64,28756,1,0,0:0:0:0:
153,197,28885,1,6,0:0:0:0:
253,263,29014,1,0,0:0:0:0:
238,155,29143,1,0,0:0:0:0:
104,296,32369,6,0,L|132:268,11,23.3333333333333
196,248,33143,6,0,P|244:276|472:256,1,280,6|0,0:0|0:0,0:0:0:0:
256,192,35466,12,0,38176,0:0:0:0:
156,176,38563,6,0,L|184:148,5,23.3333333333333
104,236,38950,2,0,L|132:264,5,23.3333333333333
220,312,39337,6,0,P|284:240|464:288,1,280,4|4,0:0|0:0,0:0:0:0:
248,184,40885,5,0,0:0:0:0:
388,116,41176,1,0,0:0:0:0:
264,40,41466,1,0,0:0:0:0:
140,148,41660,5,6,0:0:0:0:
256,192,41756,12,0,44756,0:0:0:0:
344,176,45531,5,0,0:0:0:0:
423,150,45724,1,0,0:0:0:0:
423,66,45918,1,0,0:0:0:0:
343,40,46111,1,0,0:0:0:0:
294,108,46305,1,0,0:0:0:0:
236,240,47118,1,0,0:0:0:0:
236,240,47579,1,0,0:0:0:0:
236,240,48100,6,0,L|176:296,2,70,6|0|0,0:0|0:0|0:0,0:0:0:0:
196,168,48509,2,0,L|112:184,2,70
220,92,48918,2,0,L|144:56,2,70
296,60,49327,2,0,L|248:0,2,70
380,68,49736,6,0,L|452:52,1,70
350,153,50009,2,0,L|278:137,1,70
405,261,50281,5,0,0:0:0:0:
312,207,50418,1,0,0:0:0:0:
312,316,50554,1,0,0:0:0:0:
208,344,50690,2,0,L|128:364,2,70
104,280,51100,5,0,0:0:0:0:
195,228,51236,1,0,0:0:0:0:
104,175,51372,1,0,0:0:0:0:
48,84,51509,2,0,L|124:60,2,70
212,162,51918,5,0,0:0:0:0:
226,171,52054,1,0,0:0:0:0:
241,180,52190,1,0,0:0:0:0:
256,190,52327,1,0,0:0:0:0:
360,264,52463,6,0,L|440:260,1,70,6|0,0:0|0:0,0:0:0:0:
388,180,52736,1,0,0:0:0:0:
324,108,52872,2,0,L|284:192,1,70
388,180,53145,1,0,0:0:0:0:
472,164,53281,2,0,L|424:92,1,70
388,180,53554,1,0,0:0:0:0:
240,152,53690,5,0,0:0:0:0:
240,33,53827,1,0,0:0:0:0:
343,92,53963,1,0,0:0:0:0:
416,236,54100,5,0,0:0:0:0:
452,131,54236,1,0,0:0:0:0:
363,293,54372,1,0,0:0:0:0:
298,200,54509,1,0,0:0:0:0:
232,104,54645,6,0,L|304:56,1,70,6|0,0:0|0:0,0:0:0:0:
388,60,54918,2,0,L|446:98,1,70
314,181,55190,2,0,L|255:142,1,70
410,163,55463,2,0,L|468:201,1,70
256,192,55736,12,0,56759,0:0:0:0:
152,160,56827,6,0,P|196:120|280:128,1,140,6|0,0:0|0:0,0:0:0:0:
81,196,57236,2,0,P|136:236|203:225,1,140
238,150,57645,6,0,P|278:194|270:278,1,140
203,224,58054,2,0,P|163:279|174:346,1,140
330,271,58463,6,0,L|384:328,1,70
228,236,58736,2,0,L|164:168,1,70
96,84,59009,6,0,P|148:72|236:96,1,140
21,141,59418,2,0,P|87:161|155:149,1,140
317,126,59827,6,0,P|272:154|227:233,1,140
421,109,60236,2,0,P|388:170|331:209,1,140
193,196,60645,6,0,L|117:148,1,70
248,317,60918,2,0,L|324:269,1,70
480,220,61190,5,6,0:0:0:0:
408,136,61327,2,0,L|356:208,1,70
308,280,61600,5,0,0:0:0:0:
400,212,61736,2,0,L|316:160,1,70
244,116,62009,5,0,0:0:0:0:
152,208,62145,2,0,L|228:248,1,70
348,304,62418,5,0,0:0:0:0:
279,218,62554,2,0,L|227:290,1,70
176,363,62827,5,0,0:0:0:0:
72,220,62963,1,0,0:0:0:0:
239,275,63100,1,0,0:0:0:0:
72,329,63236,1,0,0:0:0:0:
176,187,63372,5,6,0:0:0:0:
280,104,63509,2,0,L|264:68,2,35
404,120,63781,1,0,0:0:0:0:
404,120,63850,1,0,0:0:0:0:
404,120,63918,6,0,L|452:156,3,35
420,228,64190,2,0,L|380:264,3,35
336,304,64463,5,0,0:0:0:0:
328,158,64600,1,0,0:0:0:0:
204,99,64736,1,0,0:0:0:0:
355,236,64872,1,0,0:0:0:0:
282,95,65009,5,0,0:0:0:0:
239,253,65145,1,0,0:0:0:0:
231,52,65281,1,0,0:0:0:0:
319,155,65418,1,0,0:0:0:0:
184,218,65554,5,2,0:0:0:0:
340,232,65963,2,0,B|274:219|252:185|252:185|216:131|142:147,1,210
264,92,66917,5,0,0:0:0:0:
360,64,67190,1,0,0:0:0:0:
336,156,67463,1,0,0:0:0:0:
244,248,67736,2,0,B|195:229|152:264|152:264|108:216|180:160|132:80,1,280
284,68,68554,1,0,0:0:0:0:
284,68,68690,1,0,0:0:0:0:
388,156,69509,5,0,0:0:0:0:
452,240,69645,1,0,0:0:0:0:
344,260,69781,1,0,0:0:0:0:
248,200,69918,6,0,L|176:136,1,70
344,260,70190,2,0,L|424:320,1,70
324,184,70463,2,0,L|388:112,1,70
264,280,70735,2,0,L|204:360,1,70
80,248,71145,1,0,0:0:0:0:
80,248,71281,1,0,0:0:0:0:
172,144,71554,5,0,0:0:0:0:
300,216,71827,1,0,0:0:0:0:
172,144,72100,1,0,0:0:0:0:
296,72,72372,1,0,0:0:0:0:
296,72,72509,1,0,0:0:0:0:
424,152,72781,1,0,0:0:0:0:
296,72,73054,6,0,B|192:68|172:232|60:228,1,280
360,160,73736,5,0,0:0:0:0:
360,160,74009,1,0,0:0:0:0:
360,160,74281,6,0,B|344:264|232:256|232:256|176:320|176:320|100:268|168:192|168:192|260:168,1,490,2|0,0:0|0:0,0:0:0:0:
298,115,75372,2,0,B|202:75|94:131|94:131|58:207|58:207|118:251|242:171,1,490
368,224,76463,6,0,B|312:312|156:320|156:320|240:216|240:216|172:192|120:208,1,490
64,116,77554,2,0,B|152:80|192:176|192:176|120:308|120:308|216:268|216:268|212:332|264:336,1,490
440,252,78645,5,0,0:0:0:0:
446,217,78781,1,0,0:0:0:0:
438,183,78918,1,0,0:0:0:0:
418,155,79054,1,0,0:0:0:0:
388,137,79190,1,0,0:0:0:0:
204,168,79463,1,0,0:0:0:0:
204,168,79600,1,0,0:0:0:0:
104,320,79872,6,0,L|160:272,1,70
296,264,80145,2,0,L|240:196,1,70
96,180,80418,2,0,L|168:120,1,70
244,68,80690,1,0,0:0:0:0:
372,96,80827,6,0,L|437:180,1,83.9999974365235,6|0,0:0|0:0,0:0:0:0:
424,292,81100,1,0,0:0:0:0:
280,336,81236,2,0,L|180:304,1,83.9999974365235,4|0,0:0|0:0,0:0:0:0:
104,236,81509,1,0,0:0:0:0:
220,156,81645,1,0,0:0:0:0:
88,96,81781,1,0,0:0:0:0:
120,188,81918,5,2,0:0:0:0:
339,188,82054,1,0,0:0:0:0:
230,298,82190,1,2,0:0:0:0:
230,78,82327,1,0,0:0:0:0:
120,188,82463,1,0,0:0:0:0:
296,344,83009,6,0,P|348:336|440:240,1,181.999991668702,6|0,0:0|0:0,0:0:0:0:
440,149,83418,2,0,P|427:238|366:303,1,181.999991668702
395,62,83827,2,0,P|428:146|407:233,1,181.999991668702
280,64,84236,5,0,0:0:0:0:
280,64,84372,2,0,L|192:144,1,90.9999958343508
140,192,84645,2,0,L|220:272,1,90.9999958343508
280,320,84918,2,0,L|360:228,1,90.9999958343508
384,184,85190,5,0,0:0:0:0:
256,132,85327,1,0,0:0:0:0:
390,249,85463,1,0,0:0:0:0:
271,60,85600,1,0,0:0:0:0:
332,252,85736,5,0,0:0:0:0:
176,192,85872,1,0,0:0:0:0:
319,177,86009,1,0,0:0:0:0:
120,260,86145,1,0,0:0:0:0:
244,176,86281,6,0,L|172:112,1,90.9999958343508
268,208,86554,2,0,L|340:272,1,90.9999958343508
328,136,86827,6,0,L|423:116,1,90.9999958343508
184,248,87100,2,0,L|89:268,1,90.9999958343508
116,140,87372,5,6,0:0:0:0:
288,200,87509,1,0,0:0:0:0:
216,112,87645,5,0,0:0:0:0:
253,290,87782,1,0,0:0:0:0:
292,160,87918,5,0,0:0:0:0:
189,310,88055,1,0,0:0:0:0:
184,200,88190,5,0,0:0:0:0:
356,260,88327,1,0,0:0:0:0:
378,125,88600,5,0,0:0:0:0:
412,304,88737,1,0,0:0:0:0:
412,304,89009,6,0,L|328:232,1,90.9999958343508
128,276,89281,2,0,L|220:208,1,90.9999958343508
336,148,89554,6,0,L|240:92,1,90.9999958343508,4|0,0:0|0:0,0:0:0:0:
144,108,89827,1,0,0:0:0:0:
85,213,89963,2,0,L|113:320,1,90.9999958343508
236,328,90236,5,0,0:0:0:0:
271,300,90304,1,0,0:0:0:0:
315,300,90372,1,0,0:0:0:0:
424,336,90509,1,0,0:0:0:0:
480,240,90645,6,0,L|460:192,3,45.4999979171754
428,113,90918,2,0,L|364:141,3,45.4999979171754
321,166,91190,6,0,L|361:234,1,45.4999979171754
343,120,91327,2,0,L|419:140,1,45.4999979171754
326,71,91463,2,0,L|394:30,1,45.4999979171754
280,48,91600,2,0,L|300:-28,1,45.4999979171754
232,64,91736,6,0,P|176:48|148:60,2,60.6666638895672,6|0|0,0:0|0:0|0:0,0:0:0:0:
142,128,92009,2,0,P|94:160|85:189,2,60.6666638895672
134,237,92281,2,0,P|128:295|144:321,2,60.6666638895672
212,314,92554,2,0,P|253:356|283:360,2,60.6666638895672
322,304,92827,6,0,P|380:299|402:279,1,60.6666638895672,6|0,0:0|0:0,0:0:0:0:
382,224,93009,2,0,P|420:180|421:149,1,60.6666638895672
368,125,93190,2,0,P|363:67|343:45,1,60.6666638895672
288,66,93372,6,0,P|244:28|213:27,1,60.6666638895672
189,80,93554,2,0,P|131:85|109:105,1,60.6666638895672
129,160,93736,2,0,P|91:204|90:234,1,60.6666638895672
144,259,93918,6,0,P|175:247|220:220,1,60.6666638895672
304,180,94100,1,0,0:0:0:0:
304,180,94190,6,0,P|292:149|265:104,1,60.6666638895672
232,48,94372,1,0,0:0:0:0:
232,48,94463,5,0,0:0:0:0:
164,168,94600,2,0,L|100:184,2,45.4999979171754
344,136,94872,1,0,0:0:0:0:
240,280,95009,6,0,L|192:252,3,45.4999979171754
335,233,95281,2,0,L|294:270,3,45.4999979171754
380,164,95554,5,0,0:0:0:0:
345,134,95622,1,0,0:0:0:0:
302,121,95690,1,0,0:0:0:0:
257,126,95758,1,0,0:0:0:0:
220,148,95827,6,0,L|160:188,1,45.4999979171754
92,124,95963,2,0,L|144:80,1,45.4999979171754
259,52,96100,6,0,P|315:64|379:180,1,181.999991668702,14|0,0:0|0:0,0:0:0:0:
420,52,96509,2,0,B|324:72|264:160|264:160|213:233|108:272,1,363.999983337403,12|0,0:0|0:0,0:0:0:0:
312,356,97190,6,0,P|372:328|412:204,1,181.999991668702,14|0,0:0|0:0,0:0:0:0:
456,352,97600,2,0,B|400:272|288:276|288:276|186:275|148:164,1,363.999983337403,12|0,0:0|0:0,0:0:0:0:
148,92,98281,6,0,P|192:92|224:112,2,60.6666638895672,4|0|0,0:0|0:0|0:0,0:0:0:0:
288,48,98554,2,0,P|310:86|309:124,2,60.6666638895672
396,148,98827,2,0,P|374:186|341:204,2,60.6666638895672
364,292,99100,2,0,P|320:292|288:272,2,60.6666638895672
223,335,99372,5,0,0:0:0:0:
196,281,99462,1,0,0:0:0:0:
197,221,99553,1,0,0:0:0:0:
226,168,99644,1,0,0:0:0:0:
275,134,99735,1,0,0:0:0:0:
335,126,99826,1,0,0:0:0:0:
392,148,99918,5,0,0:0:0:0:
377,206,100008,1,0,0:0:0:0:
342,255,100099,1,0,0:0:0:0:
291,287,100190,1,0,0:0:0:0:
232,299,100281,1,0,0:0:0:0:
172,287,100372,1,0,0:0:0:0:
122,255,100463,5,6,0:0:0:0:
256,192,100531,12,0,102509,0:0:0:0:
384,192,102645,6,0,L|456:140,2,70
252,240,103054,2,0,L|184:280,2,70
264,120,103463,6,0,L|208:44,1,70
320,188,103736,1,0,0:0:0:0:
376,256,103872,2,0,L|432:332,1,70
320,188,104145,1,0,0:0:0:0:
208,228,104281,6,0,L|132:264,1,70
276,120,104554,2,0,L|352:84,1,70
176,184,104827,5,0,0:0:0:0:
234,244,104963,1,0,0:0:0:0:
152,264,105100,1,0,0:0:0:0:
176,153,105236,5,0,0:0:0:0:
213,237,105372,1,0,0:0:0:0:
121,227,105509,1,0,0:0:0:0:
188,122,105645,5,0,0:0:0:0:
195,223,105781,1,0,0:0:0:0:
103,177,105918,1,0,0:0:0:0:
211,94,106054,5,0,0:0:0:0:
181,201,106190,1,0,0:0:0:0:
103,120,106327,1,0,0:0:0:0:
247,74,106463,5,0,0:0:0:0:
175,173,106599,1,0,0:0:0:0:
125,60,106736,1,0,0:0:0:0:
288,172,106872,1,0,0:0:0:0:
400,76,107009,5,0,0:0:0:0:
472,184,107145,1,0,0:0:0:0:
400,76,107281,2,0,L|308:64,1,70
160,80,107554,5,0,0:0:0:0:
264,40,107690,1,0,0:0:0:0:
72,116,107827,2,0,L|32:208,1,70
88,272,108100,6,0,L|144:284,3,35
244,296,108372,2,0,L|296:300,3,35
409,297,108645,5,0,0:0:0:0:
398,264,108713,1,0,0:0:0:0:
380,234,108781,1,0,0:0:0:0:
356,208,108849,1,0,0:0:0:0:
328,188,108917,1,0,0:0:0:0:
296,174,108985,1,0,0:0:0:0:
262,167,109054,1,0,0:0:0:0:
227,167,109122,1,0,0:0:0:0:
193,175,109190,6,0,P|112:213|20:276,1,181.999991668702,6|0,0:0|0:0,0:0:0:0:
44,164,109600,2,0,P|125:126|217:63,1,181.999991668702
466,204,110009,6,0,P|404:131|368:52,1,181.999991668702
315,145,110418,2,0,P|376:217|413:297,1,181.999991668702
232,143,110827,5,0,0:0:0:0:
63,143,110963,1,0,0:0:0:0:
148,59,111100,1,0,0:0:0:0:
148,228,111236,1,0,0:0:0:0:
56,324,111372,6,0,L|140:388,1,90.9999958343508,6|0,0:0|0:0,0:0:0:0:
46,242,111645,1,0,0:0:0:0:
41,152,111781,2,0,L|47:254,1,90.9999958343508
92,88,112054,1,0,0:0:0:0:
152,20,112190,2,0,L|84:99,1,90.9999958343508
221,6,112463,1,0,0:0:0:0:
312,0,112600,2,0,L|209:7,1,90.9999958343508
360,168,112872,1,0,0:0:0:0:
304,260,113009,5,0,0:0:0:0:
416,73,113145,1,0,0:0:0:0:
453,222,113281,1,0,0:0:0:0:
266,110,113418,1,0,0:0:0:0:
72,148,113554,6,0,L|52:252,1,90.9999958343508,6|0,0:0|0:0,0:0:0:0:
84,348,113827,1,0,0:0:0:0:
174,169,113963,6,0,L|104:249,1,90.9999958343508
84,348,114236,1,0,0:0:0:0:
252,238,114372,6,0,L|151:272,1,90.9999958343508
84,348,114645,1,0,0:0:0:0:
284,336,114781,6,0,L|180:315,1,90.9999958343508
84,348,115054,1,0,0:0:0:0:
340,252,115190,6,0,L|452:220,1,90.9999958343508,4|0,0:0|0:0,0:0:0:0:
464,112,115463,1,0,0:0:0:0:
268,40,115600,1,0,0:0:0:0:
44,116,115736,5,6,0:0:0:0:
88,280,115872,2,0,L|176:240,1,90.9999958343508
372,136,116145,5,0,0:0:0:0:
400,328,116281,2,0,L|292:268,1,90.9999958343508
172,172,116554,5,0,0:0:0:0:
332,208,116690,1,0,0:0:0:0:
180,304,116827,5,6,0:0:0:0:
312,136,116963,1,8,0:0:0:0:
212,176,117100,5,8,0:0:0:0:
393,192,117236,1,8,0:0:0:0:
248,68,117372,5,8,0:0:0:0:
325,232,117508,1,8,0:0:0:0:
312,112,117645,5,8,0:0:0:0:
208,260,117781,1,8,0:0:0:0:
272,168,117918,6,8,L|212:196,1,35
40,260,118054,2,0,L|100:288,1,35
244,356,118190,1,0,0:0:0:0:
160,92,118463,5,4,0:0:0:0:
256,192,118531,12,0,122281,0:0:0:0:
