osu file format v14

[General]
AudioFilename: audio.mp3
AudioLeadIn: 0
PreviewTime: 82463
Countdown: 0
SampleSet: Soft
StackLeniency: 0.6
Mode: 0
LetterboxInBreaks: 0
WidescreenStoryboard: 1

[Editor]
DistanceSpacing: 1
BeatDivisor: 4
GridSize: 4
TimelineZoom: 3.499999

[Metadata]
Title:Preserved Valkyria
TitleUnicode:Preserved Valkyria
Artist:penoreri
ArtistUnicode:ぺのれり
Creator:KnightC0re
Version:Expert
Source:SOUND VOLTEX III GRAVITY WARS
Tags:mizki sepia -jordan- sdvx konami
BeatmapID:1227381
BeatmapSetID:535118

[Difficulty]
HPDrainRate:5.8
CircleSize:4
OverallDifficulty:9.2
ApproachRate:9.7
SliderMultiplier:1.4
SliderTickRate:1

[Events]
//Background and Video events
0,0,"bg.png",0,0
//Break Periods
//Storyboard Layer 0 (Background)
//Storyboard Layer 1 (Fail)
//Storyboard Layer 2 (Pass)
//Storyboard Layer 3 (Foreground)
//Storyboard Sound Samples

[TimingPoints]
1402,387.096774193548,4,2,1,70,1,0
7208,-133.333333333333,4,2,1,70,0,0
8563,-100,4,2,1,70,0,0
19595,-83.3333333333333,4,2,1,70,0,0
28498,-66.6666666666667,4,2,1,70,0,0
29272,-58.8235294117647,4,2,1,10,0,0
32369,-58.8235294117647,4,2,5,70,0,0
33143,-100,4,2,1,70,0,0
38176,-100,4,2,3,50,0,0
39337,-100,4,2,1,70,0,0
45531,-66.6666666666667,4,2,1,20,0,0
46305,400,4,2,1,20,1,0
46705,413.793103448276,4,2,1,20,1,0
47118,461.538461538462,4,2,1,20,1,0
47118,-133.333333333333,4,2,1,20,0,0
47579,521.739130434783,4,2,1,20,1,0
47579,-133.333333333333,4,2,1,20,0,0
48100,272.727272727273,4,2,1,70,1,0
48100,-100,4,2,1,70,0,0
56418,-83.3333333333333,4,2,1,70,0,0
56554,-71.4285714285714,4,2,1,70,0,0
56690,-66.6666666666667,4,2,1,70,0,0
56827,-76.9230769230769,4,2,1,70,0,0
64463,-76.9230769230769,4,2,3,70,0,0
65554,-76.9230769230769,4,2,1,70,0,0
65963,-133.333333333333,4,2,4,20,0,0
80827,-76.9230769230769,4,2,1,70,0,1
81918,-76.9230769230769,4,2,2,70,0,1
82463,-200,4,2,1,70,0,0
83009,-66.6666666666667,4,2,1,70,0,1
84372,-83.3333333333333,4,2,1,70,0,1
84645,-76.9230769230769,4,2,1,70,0,1
84918,-71.4285714285714,4,2,1,70,0,1
86009,-66.6666666666667,4,2,1,70,0,1
88327,-83.3333333333333,4,2,1,70,0,1
89281,-71.4285714285714,4,2,1,70,0,1
96509,-66.6666666666667,4,2,1,70,0,1
97600,-62.5,4,2,1,70,0,1
100463,-79.9999999999999,4,2,1,70,0,0
109190,-71.4285714285714,4,2,1,70,0,1
117372,-71.4285714285714,4,2,3,50,0,1
117918,-100,4,2,3,50,0,0
118463,-100,4,2,4,70,0,0

[Colours]
Combo1 : 255,255,0
Combo2 : 192,192,192
Combo3 : 0,0,255
Combo4 : 0,255,255

[HitObjects]
120,84,1402,6,0,P|142:129|242:141,1,140,4|0,0:0|0:0,0:0:0:0:
337,80,2176,1,0,0:0:0:0:
236,114,2466,1,0,0:0:0:0:
317,185,2756,1,0,0:0:0:0:
388,47,3143,6,0,P|318:5|246:13,1,140
193,94,3724,1,0,0:0:0:0:
200,203,4014,1,0,0:0:0:0:
295,142,4305,1,0,0:0:0:0:
115,191,4692,6,0,L|152:200,1,35
161,302,4885,2,0,L|198:293,1,35
291,245,5079,1,0,0:0:0:0:
236,98,5466,5,0,0:0:0:0:
147,34,5660,1,0,0:0:0:0:
173,173,5853,2,0,L|190:261,1,70
170,272,6143,5,0,0:0:0:0:
146,295,6239,1,0,0:0:0:0:
113,303,6336,1,0,0:0:0:0:
80,292,6433,1,0,0:0:0:0:
58,265,6530,1,0,0:0:0:0:
54,231,6626,1,0,0:0:0:0:
68,200,6723,1,0,0:0:0:0:
98,182,6821,1,0,0:0:0:0:
170,272,7208,2,0,P|208:263|247:268,1,78.7500030040742
352,158,7595,5,4,0:0:0:0:
333,140,7691,1,0,0:0:0:0:
310,127,7789,2,0,L|261:113,1,26.2500010013581
127,119,7982,1,0,0:0:0:0:
147,97,8078,1,0,0:0:0:0:
171,81,8176,2,0,L|210:63,1,26.2500010013581
316,35,8369,5,0,0:0:0:0:
300,67,8465,1,0,0:0:0:0:
276,95,8563,2,0,L|241:125,1,35
96,158,8756,1,0,0:0:0:0:
128,194,8852,1,0,0:0:0:0:
172,217,8950,2,0,L|217:230,1,35
353,254,9143,5,0,0:0:0:0:
325,214,9239,1,0,0:0:0:0:
286,185,9336,1,0,0:0:0:0:
239,170,9433,1,0,0:0:0:0:
190,171,9531,1,0,0:0:0:0:
143,182,9627,1,0,0:0:0:0:
94,179,9724,1,0,0:0:0:0:
49,161,9821,1,0,0:0:0:0:
12,130,9918,5,0,0:0:0:0:
133,61,10111,1,0,0:0:0:0:
40,19,10305,1,0,0:0:0:0:
83,196,10498,1,0,0:0:0:0:
209,130,10692,6,0,L|264:165,1,46.6666666666667
141,177,10950,1,0,0:0:0:0:
141,177,11079,2,0,L|196:212,1,46.6666666666667
73,224,11337,1,0,0:0:0:0:
73,224,11466,2,0,L|128:259,1,46.6666666666667
5,271,11724,1,0,0:0:0:0:
5,271,11853,2,0,L|60:306,1,46.6666666666667
117,348,12111,1,0,0:0:0:0:
117,348,12240,6,0,B|154:305|193:304|193:304|162:259|110:241|110:241|140:201|185:189,1,280
305,209,13401,1,0,0:0:0:0:
305,209,13789,5,4,0:0:0:0:
207,78,13982,1,0,0:0:0:0:
210,243,14176,1,0,0:0:0:0:
304,108,14369,1,0,0:0:0:0:
148,161,14563,5,0,0:0:0:0:
156,194,14659,1,0,0:0:0:0:
165,228,14756,2,0,L|179:279,1,35
298,338,14950,1,0,0:0:0:0:
257,319,15046,1,0,0:0:0:0:
230,282,15143,1,0,0:0:0:0:
226,238,15240,1,0,0:0:0:0:
244,197,15337,5,0,0:0:0:0:
259,165,15433,1,0,0:0:0:0:
265,131,15531,2,0,P|268:110|263:86,1,35
163,38,15724,1,0,0:0:0:0:
147,69,15820,1,0,0:0:0:0:
142,103,15918,2,0,P|139:124|144:148,1,35
163,259,16111,5,0,0:0:0:0:
187,284,16207,1,0,0:0:0:0:
219,297,16304,1,0,0:0:0:0:
253,296,16401,1,0,0:0:0:0:
285,282,16498,1,0,0:0:0:0:
322,262,16594,1,0,0:0:0:0:
363,253,16691,1,0,0:0:0:0:
404,257,16788,1,0,0:0:0:0:
443,274,16885,5,0,0:0:0:0:
429,242,16982,2,0,P|426:222|430:191,1,35
308,83,17176,1,0,0:0:0:0:
327,115,17272,1,0,0:0:0:0:
341,150,17368,1,0,0:0:0:0:
349,188,17466,2,0,P|354:207|353:228,1,35
278,305,17660,5,0,0:0:0:0:
232,303,17756,1,0,0:0:0:0:
192,282,17853,1,0,0:0:0:0:
164,247,17950,1,0,0:0:0:0:
153,203,18047,1,0,0:0:0:0:
152,168,18143,1,0,0:0:0:0:
137,137,18240,1,0,0:0:0:0:
112,113,18337,1,0,0:0:0:0:
80,100,18434,5,0,0:0:0:0:
71,133,18530,1,0,0:0:0:0:
78,167,18627,2,0,P|85:186|103:202,1,35
203,240,18821,1,0,0:0:0:0:
209,198,18917,1,0,0:0:0:0:
199,158,19014,2,0,P|192:144|170:120,1,35
80,100,19208,6,0,P|53:103|17:114,1,35
123,206,19401,2,0,P|150:203|186:192,1,35
27,121,19595,2,0,P|11:147|9:180,1,41.9999987182618
176,185,19789,2,0,P|192:159|194:126,1,41.9999987182618
75,172,19982,6,0,L|52:202,2,27.9999991455078,4|0|0,0:0|0:0|0:0,0:0:0:0:
110,202,20176,2,0,L|114:239,2,27.9999991455078
155,198,20369,2,0,L|185:221,2,27.9999991455078
185,163,20563,2,0,L|222:158,2,27.9999991455078
181,117,20756,5,0,0:0:0:0:
7,59,20950,1,0,0:0:0:0:
110,202,21143,1,0,0:0:0:0:
116,28,21337,1,0,0:0:0:0:
240,152,21531,6,0,P|290:184|356:187,1,125.999996154785,4|0,0:0|0:0,0:0:0:0:
192,129,21918,2,0,P|204:186|249:235,1,125.999996154785
227,33,22305,1,0,0:0:0:0:
296,137,22498,2,0,P|325:148|368:150,1,41.9999987182618,4|0,0:0|0:0,0:0:0:0:
437,189,22692,1,0,0:0:0:0:
437,189,22789,2,0,P|407:206|345:214,1,83.9999974365235,4|0,0:0|0:0,0:0:0:0:
240,202,23079,6,0,L|194:182,1,41.9999987182618,4|0,0:0|0:0,0:0:0:0:
273,288,23272,2,0,L|267:336,1,41.9999987182618
306,116,23563,5,0,0:0:0:0:
370,251,23756,2,0,L|399:291,1,41.9999987182618
257,195,24047,2,0,L|285:240,1,41.9999987182618
399,110,24337,2,0,P|385:161|338:193,1,83.9999974365235
188,181,24724,5,0,0:0:0:0:
170,170,24820,1,0,0:0:0:0:
155,155,24917,1,0,0:0:0:0:
323,203,25111,1,0,0:0:0:0:
203,263,25305,5,0,0:0:0:0:
190,272,25401,1,0,0:0:0:0:
262,144,25595,1,0,0:0:0:0:
267,129,25691,1,0,0:0:0:0:
287,282,25885,1,0,0:0:0:0:
188,181,26079,5,0,0:0:0:0:
153,158,26175,1,4,0:0:0:0:
129,123,26272,1,0,0:0:0:0:
121,82,26369,1,0,0:0:0:0:
129,41,26466,1,0,0:0:0:0:
292,176,26660,1,0,0:0:0:0:
214,67,26853,5,0,0:0:0:0:
195,56,26950,1,0,0:0:0:0:
233,226,27143,1,0,0:0:0:0:
252,237,27240,1,0,0:0:0:0:
177,47,27434,1,0,0:0:0:0:
127,178,27627,5,0,0:0:0:0:
117,226,27724,2,0,L|103:274,1,41.9999987182618,4|0,0:0|0:0,0:0:0:0:
244,291,27918,2,0,L|258:339,1,41.9999987182618
255,140,28208,1,0,0:0:0:0:
105,266,28401,1,0,0:0:0:0:
105,266,28498,6,0,L|204:314,2,70.0000026702882,4|0|0,0:0|0:0|0:0,0:0:0:0:
0,202,28885,5,4,0:0:0:0:
171,150,29014,1,0,0:0:0:0:
105,266,29143,1,0,0:0:0:0:
59,86,29272,6,0,L|47:46,5,39.6666674232483
119,166,29660,2,0,L|131:206,5,39.6666674232483
51,154,30047,6,0,L|11:166,5,39.6666674232483
131,94,30435,2,0,L|171:82,5,39.6666674232483
291,175,30821,6,0,L|251:187,5,39.6666674232483
406,251,31208,1,0,0:0:0:0:
375,276,31272,1,0,0:0:0:0:
340,296,31337,1,0,0:0:0:0:
303,309,31401,1,0,0:0:0:0:
264,315,31466,1,0,0:0:0:0:
224,315,31530,1,0,0:0:0:0:
185,307,31595,6,0,L|133:279,5,39.6666674232483
256,216,31982,1,0,0:0:0:0:
292,199,32046,1,0,0:0:0:0:
319,172,32111,1,0,0:0:0:0:
336,136,32175,1,0,0:0:0:0:
338,96,32240,1,0,0:0:0:0:
326,59,32304,1,0,0:0:0:0:
301,28,32369,6,0,L|268:4,11,39.6666674232483
278,62,33143,5,4,0:0:0:0:
360,128,33918,2,0,B|376:188|424:256|424:256|328:208|246:254|246:254|280:276|304:324|304:324|376:312,1,490
272,160,35466,6,0,B|232:124|232:60|232:60|160:64|108:168|108:168|204:176|312:84|312:84|340:184|404:240|404:240|440:160|416:112|416:112|348:160|300:228,1,980,2|8,0:0|0:0,0:0:0:0:
128,209,38563,5,8,0:0:0:0:
135,238,38627,1,8,0:0:0:0:
149,265,38692,1,8,0:0:0:0:
169,288,38756,1,8,0:0:0:0:
193,306,38821,1,8,0:0:0:0:
221,318,38885,1,8,0:0:0:0:
251,323,38950,2,0,L|296:320,6,23.3333333333333,0|0|0|0|0|0|4,0:0|0:0|0:0|0:0|0:0|0:0|0:0,0:0:0:0:
184,176,39724,5,0,0:0:0:0:
322,241,40111,2,0,B|354:248|376:274|376:274|369:198|408:136|408:136|332:157,1,280,4|0,0:0|0:0,0:0:0:0:
212,196,41176,1,0,0:0:0:0:
466,113,41466,1,0,0:0:0:0:
320,208,41660,5,0,0:0:0:0:
396,100,41853,1,0,0:0:0:0:
216,128,42047,1,0,0:0:0:0:
192,132,42143,1,0,0:0:0:0:
344,176,42337,1,0,0:0:0:0:
368,172,42433,1,0,0:0:0:0:
256,236,42627,5,0,0:0:0:0:
260,260,42723,1,0,0:0:0:0:
284,72,42918,1,0,0:0:0:0:
176,212,43111,1,0,0:0:0:0:
152,220,43208,5,0,0:0:0:0:
284,72,43498,1,0,0:0:0:0:
281,211,43789,1,0,0:0:0:0:
200,118,44079,1,0,0:0:0:0:
348,136,44369,1,0,0:0:0:0:
383,150,44465,1,0,0:0:0:0:
413,173,44562,1,0,0:0:0:0:
435,205,44659,1,0,0:0:0:0:
446,242,44756,5,4,0:0:0:0:
446,242,45531,5,0,0:0:0:0:
304,216,45724,1,0,0:0:0:0:
396,152,45918,1,0,0:0:0:0:
408,296,46111,1,0,0:0:0:0:
344,224,46305,1,0,0:0:0:0:
264,148,47118,6,0,P|228:120|184:108,1,78.7500030040742
248,236,47579,2,0,P|284:264|328:276,1,78.7500030040742
320,106,48100,6,0,L|388:46,2,70,4|0|0,0:0|0:0|0:0,0:0:0:0:
204,180,48509,1,0,0:0:0:0:
212,196,48645,1,0,0:0:0:0:
220,212,48781,1,0,0:0:0:0:
228,228,48918,6,0,L|160:288,2,70
176,144,49327,1,0,0:0:0:0:
168,128,49463,1,0,0:0:0:0:
163,111,49600,1,0,0:0:0:0:
162,93,49736,6,0,L|246:45,1,70
352,128,50009,2,0,L|268:176,1,70
171,241,50281,6,0,P|206:261|260:275,2,70
378,255,50690,1,0,0:0:0:0:
335,239,50827,1,0,0:0:0:0:
292,223,50963,1,0,0:0:0:0:
249,208,51100,2,0,P|210:236|162:248,2,70
89,270,51509,1,0,0:0:0:0:
169,174,51645,1,0,0:0:0:0:
245,276,51781,1,0,0:0:0:0:
303,169,51918,6,0,L|326:103,1,70
186,128,52190,2,0,L|163:194,1,70
113,316,52463,5,4,0:0:0:0:
209,240,52600,1,0,0:0:0:0:
186,128,52736,1,0,0:0:0:0:
149,233,52872,2,0,L|116:311,2,70
256,121,53281,5,0,0:0:0:0:
350,217,53418,1,0,0:0:0:0:
259,307,53554,1,0,0:0:0:0:
325,168,53690,2,0,P|365:129|393:116,2,70
277,275,54100,5,4,0:0:0:0:
195,195,54236,1,0,0:0:0:0:
309,264,54372,1,0,0:0:0:0:
161,213,54509,1,0,0:0:0:0:
301,143,54645,5,4,0:0:0:0:
399,104,54781,1,0,0:0:0:0:
324,213,54918,1,0,0:0:0:0:
336,70,55054,5,0,0:0:0:0:
414,192,55190,1,0,0:0:0:0:
256,111,55327,1,0,0:0:0:0:
376,48,55463,5,0,0:0:0:0:
276,182,55600,1,0,0:0:0:0:
378,316,55736,5,0,0:0:0:0:
392,296,55804,1,0,0:0:0:0:
401,273,55872,1,0,0:0:0:0:
402,249,55940,1,0,0:0:0:0:
396,225,56009,1,0,0:0:0:0:
380,193,56077,1,0,0:0:0:0:
372,159,56145,1,0,0:0:0:0:
371,124,56213,1,0,0:0:0:0:
377,90,56281,6,0,L|392:37,1,35
276,216,56418,2,0,L|261:269,1,41.9999987182618
201,90,56554,2,0,L|215:36,1,48.9999985046387
99,215,56690,2,0,L|84:268,1,52.5000020027161
221,176,56827,6,0,P|267:135|283:93,1,90.9999958343508,4|0,0:0|0:0,0:0:0:0:
142,138,57100,1,0,0:0:0:0:
171,231,57236,6,0,P|212:277|254:293,1,90.9999958343508
142,138,57509,1,0,0:0:0:0:
355,197,57645,6,0,P|301:223|260:226,1,90.9999958343508
128,204,57918,1,0,0:0:0:0:
319,94,58054,6,0,P|281:140|245:160,1,90.9999958343508
128,204,58327,1,0,0:0:0:0:
252,255,58463,6,0,L|346:288,1,90.9999958343508
227,168,58736,2,0,L|133:135,1,90.9999958343508
244,298,59009,6,0,B|286:273|305:222,1,90.9999958343508
285,120,59281,1,0,0:0:0:0:
172,258,59418,6,0,B|219:270|269:247,1,90.9999958343508
327,161,59690,1,0,0:0:0:0:
205,112,59827,6,0,B|164:92|114:112,1,90.9999958343508
30,189,60100,1,0,0:0:0:0:
257,108,60236,6,0,B|238:61|195:47,1,90.9999958343508
225,235,60509,1,0,0:0:0:0:
332,88,60645,6,0,P|371:62|427:53,1,90.9999958343508
273,159,60918,2,0,P|234:185|178:194,1,90.9999958343508
6,85,61190,5,6,0:0:0:0:
138,236,61327,2,0,P|188:272|242:286,1,90.9999958343508
6,85,61600,1,0,0:0:0:0:
191,194,61736,2,0,P|251:184|299:155,1,90.9999958343508
391,75,62009,5,0,0:0:0:0:
181,119,62145,2,0,P|140:145|103:193,1,90.9999958343508
391,75,62418,1,0,0:0:0:0:
290,225,62554,2,0,P|279:272|287:332,1,90.9999958343508
454,135,62827,6,0,P|429:97|390:74,1,90.9999958343508
207,128,63100,1,0,0:0:0:0:
381,147,63236,1,0,0:0:0:0:
261,63,63372,5,4,0:0:0:0:
115,153,63509,1,0,0:0:0:0:
115,153,63577,1,0,0:0:0:0:
115,153,63645,1,0,0:0:0:0:
215,252,63781,2,0,L|254:286,1,45.4999979171754,4|0,0:0|0:0,0:0:0:0:
348,147,63918,5,0,0:0:0:0:
311,120,63986,1,0,0:0:0:0:
267,109,64054,1,0,0:0:0:0:
223,115,64122,1,0,0:0:0:0:
184,138,64190,1,4,0:0:0:0:
150,169,64258,1,0,0:0:0:0:
107,180,64326,1,0,0:0:0:0:
63,170,64394,1,0,0:0:0:0:
29,141,64462,5,8,0:0:0:0:
194,66,64600,1,8,0:0:0:0:
43,45,64736,5,8,0:0:0:0:
235,185,64872,1,8,0:0:0:0:
11,150,65009,5,0,0:0:0:0:
36,160,65077,1,0,0:0:0:0:
61,170,65145,1,0,0:0:0:0:
87,180,65213,1,0,0:0:0:0:
112,190,65281,1,0,0:0:0:0:
137,200,65349,1,0,0:0:0:0:
163,210,65418,1,0,0:0:0:0:
188,220,65486,1,0,0:0:0:0:
213,231,65554,5,4,0:0:0:0:
349,146,65963,1,0,0:0:0:0:
180,92,66372,1,0,0:0:0:0:
322,219,66918,6,0,P|364:237|393:239,1,52.5000020027161
275,161,67190,2,0,P|233:179|204:181,1,52.5000020027161
322,103,67463,2,0,P|364:121|393:123,1,52.5000020027161
275,45,67736,5,0,0:0:0:0:
275,45,68554,1,0,0:0:0:0:
185,138,68690,1,0,0:0:0:0:
287,193,69509,5,0,0:0:0:0:
353,124,69645,1,0,0:0:0:0:
273,76,69781,1,0,0:0:0:0:
351,226,69918,5,0,0:0:0:0:
360,234,70054,1,0,0:0:0:0:
230,147,70190,5,0,0:0:0:0:
221,139,70326,1,0,0:0:0:0:
255,248,70463,5,0,0:0:0:0:
247,257,70599,1,0,0:0:0:0:
334,127,70735,5,0,0:0:0:0:
342,118,70871,1,0,0:0:0:0:
192,200,71145,5,0,0:0:0:0:
192,200,71281,2,0,P|156:207|128:204,1,52.5000020027161
46,195,71554,1,0,0:0:0:0:
118,120,71827,1,0,0:0:0:0:
261,168,72100,5,0,0:0:0:0:
173,269,72372,1,0,0:0:0:0:
168,284,72509,1,0,0:0:0:0:
192,104,72781,1,0,0:0:0:0:
64,213,73054,6,0,P|106:230|221:195,1,157.500006008148
293,81,73736,1,0,0:0:0:0:
282,101,74009,1,0,0:0:0:0:
271,121,74281,6,0,P|240:157|244:72,1,210.000008010865
358,87,74963,1,0,0:0:0:0:
358,87,75100,1,0,0:0:0:0:
358,87,75236,1,0,0:0:0:0:
358,87,75372,6,0,P|313:101|256:148,1,105.000004005432
357,162,75781,2,0,P|408:168|455:192,1,105.000004005432
317,237,76190,2,0,P|285:238|265:243,1,52.5000020027161
139,286,76463,5,0,0:0:0:0:
265,157,76736,1,0,0:0:0:0:
241,169,76872,1,0,0:0:0:0:
134,240,77145,2,0,P|84:251|63:248,2,52.5000020027161
263,281,77690,5,0,0:0:0:0:
283,257,77827,1,0,0:0:0:0:
304,234,77963,1,0,0:0:0:0:
325,210,78100,1,0,0:0:0:0:
346,187,78236,1,0,0:0:0:0:
367,163,78372,1,0,0:0:0:0:
388,140,78509,1,0,0:0:0:0:
408,116,78645,5,0,0:0:0:0:
278,137,78781,1,0,0:0:0:0:
399,195,78918,1,0,0:0:0:0:
333,70,79054,1,0,0:0:0:0:
318,207,79190,6,0,P|304:245|255:295,1,105.000004005432
146,319,79600,1,0,0:0:0:0:
221,188,79872,5,0,0:0:0:0:
315,213,80009,1,0,0:0:0:0:
285,120,80145,1,0,0:0:0:0:
269,279,80281,5,0,0:0:0:0:
338,151,80418,1,0,0:0:0:0:
187,163,80554,1,0,0:0:0:0:
280,213,80690,1,0,0:0:0:0:
209,86,80827,6,0,P|141:71|88:87,1,90.9999958343508,4|0,0:0|0:0,0:0:0:0:
297,110,81100,1,0,0:0:0:0:
175,108,81236,6,0,P|106:117|62:150,1,90.9999958343508,4|0,0:0|0:0,0:0:0:0:
321,105,81509,1,0,0:0:0:0:
193,203,81645,1,0,0:0:0:0:
255,58,81781,1,0,0:0:0:0:
332,213,81918,5,0,0:0:0:0:
429,373,82054,1,0,0:0:0:0:
399,175,82190,1,0,0:0:0:0:
267,339,82327,1,0,0:0:0:0:
312,128,82463,6,0,P|342:99|376:89,1,70
363,213,83009,6,0,P|320:264|177:252,1,210.000008010865,6|0,0:0|0:0,0:0:0:0:
315,297,83418,2,0,P|252:319|134:237,1,210.000008010865
284,147,83827,1,4,0:0:0:0:
420,213,83963,1,0,0:0:0:0:
298,76,84100,5,0,0:0:0:0:
213,201,84372,2,0,P|172:246|113:281,1,125.999996154785
265,177,84645,2,0,P|241:233|180:287,1,136.499993751526
305,136,84918,2,0,P|302:196|255:281,1,146.999995513916
139,347,85190,5,0,0:0:0:0:
332,250,85327,1,0,0:0:0:0:
199,176,85463,1,0,0:0:0:0:
334,347,85600,1,0,0:0:0:0:
283,152,85736,5,0,0:0:0:0:
169,256,85872,1,0,0:0:0:0:
315,318,86009,2,0,P|370:309|401:269,1,105.000004005432
219,88,86281,5,0,0:0:0:0:
278,191,86418,1,0,0:0:0:0:
151,285,86554,1,0,0:0:0:0:
222,152,86690,1,0,0:0:0:0:
304,285,86827,5,0,0:0:0:0:
218,328,86963,1,0,0:0:0:0:
273,124,87100,1,0,0:0:0:0:
397,302,87236,1,0,0:0:0:0:
134,154,87372,5,0,0:0:0:0:
399,278,87509,1,0,0:0:0:0:
216,79,87645,1,0,0:0:0:0:
316,353,87781,1,0,0:0:0:0:
327,84,87918,1,0,0:0:0:0:
205,347,88054,1,0,0:0:0:0:
402,165,88190,1,0,0:0:0:0:
129,265,88327,2,0,P|61:284|32:284,1,83.9999974365235
146,153,88600,5,0,0:0:0:0:
354,258,88736,2,0,P|407:276|459:275,1,83.9999974365235
255,174,89009,6,0,P|207:156|157:157,1,83.9999974365235
355,92,89281,2,0,P|403:74|473:76,1,97.9999970092774
267,284,89554,6,0,P|193:277|155:249,1,97.9999970092774,4|0,0:0|0:0,0:0:0:0:
65,188,89827,1,0,0:0:0:0:
302,291,89963,6,0,P|230:309|184:296,1,97.9999970092774
96,206,90236,1,0,0:0:0:0:
80,186,90304,1,0,0:0:0:0:
65,167,90372,1,0,0:0:0:0:
282,226,90509,1,0,0:0:0:0:
148,76,90645,5,0,0:0:0:0:
109,105,90713,1,0,0:0:0:0:
88,149,90781,1,0,0:0:0:0:
91,197,90849,1,0,0:0:0:0:
116,238,90917,1,0,0:0:0:0:
158,263,90985,1,0,0:0:0:0:
207,265,91054,1,0,0:0:0:0:
250,243,91122,1,0,0:0:0:0:
279,204,91190,5,0,0:0:0:0:
313,157,91258,1,0,0:0:0:0:
367,136,91326,1,0,0:0:0:0:
424,147,91394,1,0,0:0:0:0:
466,186,91462,1,0,0:0:0:0:
481,242,91530,1,0,0:0:0:0:
464,297,91599,1,0,0:0:0:0:
419,335,91667,1,0,0:0:0:0:
362,343,91736,6,0,P|293:337|285:332,5,65.3333313395183,4|0|0|0|0|0,0:0|0:0|0:0|0:0|0:0|0:0,0:0:0:0:
249,274,92281,2,0,P|180:280|172:285,5,65.3333313395183
136,343,92827,5,4,0:0:0:0:
84,345,92917,1,0,0:0:0:0:
45,313,93008,1,0,0:0:0:0:
37,263,93099,1,0,0:0:0:0:
65,220,93190,1,0,0:0:0:0:
115,207,93281,1,0,0:0:0:0:
160,231,93372,1,2,0:0:0:0:
229,264,93462,1,0,0:0:0:0:
304,245,93553,1,2,0:0:0:0:
349,183,93644,1,0,0:0:0:0:
343,106,93735,1,2,0:0:0:0:
290,51,93826,1,0,0:0:0:0:
214,42,93918,6,0,P|170:45|123:59,1,65.3333313395183,6|0,0:0|0:0,0:0:0:0:
78,159,94100,1,0,0:0:0:0:
78,159,94190,2,0,P|122:156|169:142,1,65.3333313395183
231,23,94372,1,0,0:0:0:0:
231,23,94463,5,0,0:0:0:0:
47,98,94600,1,0,0:0:0:0:
55,104,94668,1,0,0:0:0:0:
63,110,94736,1,0,0:0:0:0:
256,194,94872,1,0,0:0:0:0:
160,94,95009,5,0,0:0:0:0:
141,71,95077,1,0,0:0:0:0:
119,52,95145,2,0,P|91:38|57:33,1,48.9999985046387
236,227,95281,5,0,0:0:0:0:
263,260,95349,1,0,0:0:0:0:
296,288,95417,2,0,P|338:309|380:314,1,48.9999985046387
419,77,95554,5,0,0:0:0:0:
369,56,95622,1,0,0:0:0:0:
316,60,95690,1,0,0:0:0:0:
271,89,95758,1,0,0:0:0:0:
245,135,95827,1,0,0:0:0:0:
204,188,95895,1,0,0:0:0:0:
139,208,95963,1,0,0:0:0:0:
76,186,96031,1,0,0:0:0:0:
38,130,96100,6,0,P|46:79|183:96,1,195.999994018555,12|0,0:0|0:0,0:0:0:0:
264,230,96509,2,0,B|293:265|319:317|319:317|351:236|298:184|340:108,1,315.000012016297,8|0,0:0|0:0,0:0:0:0:
428,7,97054,1,0,0:0:0:0:
391,163,97190,6,0,P|338:218|211:168,1,210.000008010865,12|0,0:0|0:0,0:0:0:0:
164,54,97600,2,0,B|160:38|132:9|132:9|146:119|58:195|107:285,1,336,8|0,0:0|0:0,0:0:0:0:
255,369,98145,1,0,0:0:0:0:
389,266,98281,6,0,L|484:239,1,74.6666666666667,6|0,0:0|0:0,0:0:0:0:
347,203,98463,2,0,L|252:230,1,74.6666666666667
389,140,98645,2,0,L|484:113,1,74.6666666666667
347,77,98827,6,0,P|305:80|252:104,1,74.6666666666667
212,181,99009,2,0,P|253:177|307:154,1,74.6666666666667
201,104,99190,2,0,P|159:107|106:131,1,74.6666666666667
78,190,99372,5,0,0:0:0:0:
127,244,99462,1,0,0:0:0:0:
199,257,99553,1,0,0:0:0:0:
265,225,99645,1,0,0:0:0:0:
323,181,99735,1,0,0:0:0:0:
396,187,99826,1,0,0:0:0:0:
447,239,99918,5,0,0:0:0:0:
428,161,100008,1,0,0:0:0:0:
366,109,100099,1,0,0:0:0:0:
286,103,100190,1,0,0:0:0:0:
210,130,100280,1,0,0:0:0:0:
130,113,100371,1,0,0:0:0:0:
73,57,100463,6,0,P|78:98|106:155,1,87.5,6|0,0:0|0:0,0:0:0:0:
175,258,100736,1,0,0:0:0:0:
283,342,100872,5,0,0:0:0:0:
415,282,101009,1,0,0:0:0:0:
225,227,101145,1,0,0:0:0:0:
370,198,101281,6,0,P|415:162|441:117,1,87.5
416,19,101554,1,0,0:0:0:0:
275,146,101690,5,0,0:0:0:0:
399,259,101827,1,0,0:0:0:0:
303,54,101963,1,0,0:0:0:0:
170,194,102100,5,0,0:0:0:0:
336,239,102236,1,0,0:0:0:0:
174,113,102372,1,0,0:0:0:0:
331,324,102509,1,0,0:0:0:0:
276,138,102645,6,0,L|312:248,1,87.5
147,135,102918,1,0,0:0:0:0:
384,76,103054,5,0,0:0:0:0:
262,201,103190,1,0,0:0:0:0:
285,53,103327,1,0,0:0:0:0:
362,250,103463,5,0,0:0:0:0:
285,53,103600,2,0,L|324:160,1,87.5
156,89,103872,5,0,0:0:0:0:
303,212,104009,1,0,0:0:0:0:
407,51,104145,1,0,0:0:0:0:
239,135,104281,5,0,0:0:0:0:
416,205,104418,1,0,0:0:0:0:
240,58,104554,2,0,P|190:73|154:102,1,87.5
105,214,104827,5,4,0:0:0:0:
190,146,104963,1,0,0:0:0:0:
49,158,105100,1,0,0:0:0:0:
190,237,105236,5,0,0:0:0:0:
141,79,105372,1,0,0:0:0:0:
291,258,105509,1,0,0:0:0:0:
221,118,105645,5,0,0:0:0:0:
92,207,105781,1,0,0:0:0:0:
311,168,105918,1,0,0:0:0:0:
196,274,106054,5,0,0:0:0:0:
157,104,106190,1,0,0:0:0:0:
255,194,106327,1,0,0:0:0:0:
87,127,106463,6,0,P|130:84|186:68,1,87.5
339,100,106736,2,0,P|296:143|240:159,1,87.5
145,216,107009,5,4,0:0:0:0:
229,58,107145,1,0,0:0:0:0:
258,298,107281,1,0,0:0:0:0:
148,130,107418,5,0,0:0:0:0:
332,134,107554,1,0,0:0:0:0:
129,247,107690,1,0,0:0:0:0:
264,61,107827,5,0,0:0:0:0:
264,61,107963,1,0,0:0:0:0:
373,236,108100,6,0,L|404:280,1,43.75
310,294,108236,2,0,L|322:346,1,43.75
209,330,108372,2,0,L|200:383,1,43.75
80,321,108509,2,0,L|52:367,1,43.75
17,186,108645,5,0,0:0:0:0:
38,129,108713,1,0,0:0:0:0:
86,92,108781,1,0,0:0:0:0:
146,85,108849,1,0,0:0:0:0:
201,109,108918,5,0,0:0:0:0:
257,143,108986,1,0,0:0:0:0:
322,148,109054,1,0,0:0:0:0:
382,123,109122,1,0,0:0:0:0:
424,74,109190,6,0,P|379:54|309:79,1,97.9999970092774,6|0,0:0|0:0,0:0:0:0:
176,148,109463,1,0,0:0:0:0:
407,25,109600,6,0,P|357:21|299:68,1,97.9999970092774
176,148,109872,1,0,0:0:0:0:
336,126,110009,6,0,P|389:111|437:78,1,97.9999970092774
173,88,110281,1,0,0:0:0:0:
329,156,110418,6,0,P|383:160|440:145,1,97.9999970092774
173,88,110690,1,0,0:0:0:0:
292,239,110827,6,0,L|368:320,1,97.9999970092774
274,92,111100,1,0,0:0:0:0:
191,265,111236,1,0,0:0:0:0:
332,156,111372,6,0,P|377:107|398:52,1,97.9999970092774
169,159,111645,1,0,0:0:0:0:
384,150,111781,6,0,P|409:88|410:29,1,97.9999970092774
169,159,112054,1,0,0:0:0:0:
274,40,112190,6,0,P|326:52|370:89,1,97.9999970092774
90,212,112463,1,0,0:0:0:0:
331,5,112600,6,0,P|375:34|404:83,1,97.9999970092774
90,212,112872,1,0,0:0:0:0:
232,105,113009,6,0,P|287:79|339:76,1,97.9999970092774
194,265,113281,1,0,0:0:0:0:
187,76,113418,1,0,0:0:0:0:
306,202,113554,6,0,P|350:247|411:273,1,97.9999970092774,6|0,0:0|0:0,0:0:0:0:
262,40,113827,1,0,0:0:0:0:
260,182,113963,6,0,P|285:239|334:284,1,97.9999970092774
238,5,114236,1,0,0:0:0:0:
371,133,114372,6,0,P|425:190|436:231,1,97.9999970092774
164,104,114645,1,0,0:0:0:0:
384,175,114781,6,0,P|415:247|411:290,1,97.9999970092774
130,78,115054,1,0,0:0:0:0:
290,225,115190,5,0,0:0:0:0:
199,35,115327,1,0,0:0:0:0:
206,270,115463,5,0,0:0:0:0:
380,105,115600,1,0,0:0:0:0:
172,172,115736,6,0,P|100:197|64:237,1,97.9999970092774,6|0,0:0|0:0,0:0:0:0:
310,259,116009,1,0,0:0:0:0:
226,100,116145,6,0,P|157:66|103:69,1,97.9999970092774
319,282,116418,1,0,0:0:0:0:
315,87,116554,6,0,P|290:15|250:-21,1,97.9999970092774
331,307,116827,1,0,0:0:0:0:
221,123,116963,5,0,0:0:0:0:
427,232,117100,1,0,0:0:0:0:
166,231,117236,1,0,0:0:0:0:
308,39,117372,1,8,0:0:0:0:
232,293,117509,1,8,0:0:0:0:
336,121,117645,1,8,0:0:0:0:
90,167,117781,1,8,0:0:0:0:
296,258,117918,5,8,0:0:0:0:
328,271,117986,1,8,0:0:0:0:
360,285,118054,1,8,0:0:0:0:
392,299,118122,1,0,0:0:0:0:
424,313,118190,1,0,0:0:0:0:
251,112,118327,6,0,L|197:86,1,35
304,220,118463,1,4,0:0:0:0:
256,192,118531,12,0,122281,0:0:0:0:
