osu file format v14

[General]
AudioFilename: audio.mp3
AudioLeadIn: 0
PreviewTime: 82631
Countdown: 0
SampleSet: Soft
StackLeniency: 0.3
Mode: 0
LetterboxInBreaks: 0
WidescreenStoryboard: 1

[Editor]
Bookmarks: 16738,29512,44996
DistanceSpacing: 0.2
BeatDivisor: 4
GridSize: 4
TimelineZoom: 2.899999

[Metadata]
Title:Preserved Valkyria
TitleUnicode:Preserved Valkyria
Artist:penoreri
ArtistUnicode:ぺのれり
Creator:Alheak
Version:WOLF'S MAXIMUM
Source:SOUND VOLTEX III GRAVITY WARS
Tags:konami sdvx 3 kac Song Contest Champion GoldenWolf Ponoyoshi pono Ayyri Realazy real bemani
BeatmapID:1233607
BeatmapSetID:433002

[Difficulty]
HPDrainRate:6
CircleSize:4.5
OverallDifficulty:10
ApproachRate:9.7
SliderMultiplier:2
SliderTickRate:1

[Events]
//Background and Video events
0,0,"bg.jpg",0,0
//Break Periods
2,29647,32114
//Storyboard Layer 0 (Background)
//Storyboard Layer 1 (Fail)
//Storyboard Layer 2 (Pass)
//Storyboard Layer 3 (Foreground)
//Storyboard Sound Samples

[TimingPoints]
93,387.096774193548,4,2,1,40,1,0
1254,-400,4,2,1,40,0,0
1544,-400,4,2,1,20,0,0
1641,-200,4,2,1,70,0,0
7834,-125,4,2,1,70,0,0
14028,-100,4,2,1,75,0,0
28641,-66.6666666666667,4,2,1,75,0,0
28931,-66.6666666666667,4,2,1,5,0,0
28996,-66.6666666666667,4,2,1,75,0,0
29060,-66.6666666666667,4,2,1,5,0,0
29125,-66.6666666666667,4,2,1,75,0,0
29189,-66.6666666666667,4,2,1,5,0,0
29254,-66.6666666666667,4,2,1,75,0,0
29318,-66.6666666666667,4,2,1,5,0,0
29383,-66.6666666666667,4,2,1,75,0,0
29447,-66.6666666666667,4,2,1,5,0,0
32609,-400,4,2,1,30,0,0
33383,-200,4,2,1,70,0,0
33431,-200,4,2,1,5,0,0
34157,-200,4,2,1,70,0,0
34205,-200,4,2,1,5,0,0
35705,-200,4,2,1,70,0,0
35754,-200,4,2,1,5,0,0
38415,-100,4,3,1,75,0,0
39576,-200,4,2,1,75,0,0
41125,-200,4,3,1,75,0,0
41899,-200,4,2,1,75,0,0
42092,-200,4,3,1,75,0,0
42286,-200,4,2,1,75,0,0
43383,-200,4,3,1,75,0,0
45576,-200,4,2,1,45,0,0
46541,400,4,2,1,20,1,0
46941,413.793103448276,4,2,1,20,1,0
47354,461.538461538462,4,2,1,20,1,0
47815,521.739130434783,4,2,1,20,1,0
47815,-200,4,2,1,20,0,0
48330,272.727272727273,4,2,1,80,1,0
48330,-133.333333333333,4,2,1,80,0,0
55966,-100,4,2,1,80,0,0
57057,-86.9565217391304,4,2,1,80,0,0
65102,-86.9565217391304,4,2,1,60,0,0
65239,-86.9565217391304,4,3,1,80,0,0
65784,-200,4,2,1,60,0,0
80784,-200,4,2,1,40,0,0
81057,-133.333333333333,4,2,1,80,0,0
83239,-86.9565217391304,4,2,1,80,0,1
89239,-86.9565217391304,4,2,1,80,0,1
89307,-86.9565217391304,4,2,1,50,0,1
89375,-86.9565217391304,4,2,1,65,0,1
89443,-86.9565217391304,4,2,1,50,0,1
89511,-86.9565217391304,4,2,1,80,0,1
89580,-86.9565217391304,4,2,1,50,0,1
89648,-86.9565217391304,4,2,1,65,0,1
89716,-86.9565217391304,4,2,1,50,0,1
89784,-86.9565217391304,4,2,1,81,0,1
91830,-86.9565217391304,4,3,1,80,0,1
91966,-100,4,2,1,80,0,1
96193,-100,4,3,1,80,0,1
96330,-100,4,2,1,80,0,1
98511,-86.9565217391304,4,2,1,80,0,1
99602,-100,4,3,1,80,0,1
100693,-100,4,2,1,80,0,0
109420,-86.9565217391304,4,2,1,80,0,0
118148,-100,4,3,1,80,0,0
118602,-200,4,3,1,80,0,0
118761,-100,4,3,1,5,0,0

[Colours]
Combo1 : 228,221,69
Combo2 : 203,216,228
Combo3 : 89,120,193
Combo4 : 232,206,189
Combo5 : 228,86,50
Combo6 : 234,231,206

[HitObjects]
256,192,1254,6,0,L|252:232,1,37.5
240,328,1641,5,4,0:0:0:0:
408,204,2028,1,0,0:0:0:0:
168,132,2415,1,0,0:0:0:0:
324,44,2705,1,2,0:0:0:0:
408,204,2996,1,0,0:0:0:0:
168,132,3383,1,2,0:0:0:0:
408,204,3770,69,0,0:0:0:0:
408,204,3963,1,0,0:0:0:0:
240,328,4254,1,2,0:0:0:0:
168,132,4544,1,0,0:0:0:0:
168,132,4931,5,0,0:0:0:0:
248,120,5028,1,2,0:0:0:0:
100,256,5222,1,2,0:0:0:0:
180,268,5319,1,0,0:0:0:0:
180,268,5705,69,0,0:0:0:0:
84,92,5899,1,2,0:0:0:0:
0,332,6092,6,0,P|36:340|72:328,1,75
32,264,6480,1,0,0:0:0:0:
24,256,6576,1,0,0:0:0:0:
58,261,6672,1,0,0:0:0:0:
91,250,6769,1,0,0:0:0:0:
116,226,6866,1,0,0:0:0:0:
127,194,6963,1,0,0:0:0:0:
123,159,7060,69,2,0:0:0:0:
123,159,7447,1,2,0:0:0:0:
123,159,7834,54,0,P|160:172|204:168,1,80,4|0,0:0|0:0,0:0:0:0:
252,80,8125,1,2,0:0:0:0:
252,80,8222,2,0,P|215:67|171:71,1,80,2|0,0:0|0:0,0:0:0:0:
60,208,8512,1,2,0:0:0:0:
60,208,8609,2,0,L|52:288,1,80,2|0,0:0|0:0,0:0:0:0:
236,208,8899,1,2,0:0:0:0:
236,208,8996,2,0,L|170:161,1,80,2|0,0:0|0:0,0:0:0:0:
148,360,9286,1,2,0:0:0:0:
148,360,9383,2,0,L|221:326,1,80,2|0,0:0|0:0,0:0:0:0:
236,96,9673,1,2,0:0:0:0:
236,96,9770,2,0,P|184:68|124:80,1,120,2|2,0:0|0:0,0:0:0:0:
171,161,10157,5,2,0:0:0:0:
312,136,10351,1,2,0:0:0:0:
164,304,10544,1,2,0:0:0:0:
332,328,10738,1,2,0:0:0:0:
468,180,10931,5,0,0:0:0:0:
456,96,11060,1,0,0:0:0:0:
444,12,11189,1,2,0:0:0:0:
392,176,11318,1,0,0:0:0:0:
382,108,11447,1,0,0:0:0:0:
372,41,11576,1,2,0:0:0:0:
316,170,11705,1,0,0:0:0:0:
308,119,11834,1,0,0:0:0:0:
300,68,11963,1,2,0:0:0:0:
240,164,12092,1,0,0:0:0:0:
235,130,12221,1,0,0:0:0:0:
230,96,12350,1,2,0:0:0:0:
160,140,12480,6,0,P|120:148|84:132,1,80
116,48,12770,1,0,0:0:0:0:
120,56,12867,1,0,0:0:0:0:
124,64,12963,1,0,0:0:0:0:
128,72,13060,69,0,0:0:0:0:
160,140,13157,5,2,0:0:0:0:
192,208,13254,69,2,0:0:0:0:
192,208,13641,1,0,0:0:0:0:
192,208,14028,69,4,0:0:0:0:
273,68,14222,1,0,0:0:0:0:
287,228,14415,1,0,0:0:0:0:
181,106,14609,1,0,0:0:0:0:
340,142,14802,1,2,0:0:0:0:
192,208,14996,69,0,0:0:0:0:
184,212,15092,1,0,0:0:0:0:
176,216,15189,2,0,L|124:208,1,50
116,48,15383,1,0,0:0:0:0:
164,36,15480,1,2,0:0:0:0:
212,44,15576,2,0,P|236:48|264:44,1,50,2|0,0:0|0:0,0:0:0:0:
376,24,15770,2,0,P|352:20|324:24,1,50,2|0,0:0|0:0,0:0:0:0:
232,124,15963,5,0,0:0:0:0:
228,160,16060,1,0,0:0:0:0:
224,196,16157,1,0,0:0:0:0:
220,232,16254,1,0,0:0:0:0:
264,256,16351,1,0,0:0:0:0:
268,276,16447,1,0,0:0:0:0:
272,296,16544,1,0,0:0:0:0:
276,316,16641,1,0,0:0:0:0:
252,360,16738,69,0,0:0:0:0:
206,340,16834,1,0,0:0:0:0:
156,337,16931,1,2,0:0:0:0:
108,351,17028,1,2,0:0:0:0:
68,379,17125,2,0,P|44:372|20:368,2,50,2|0|0,0:0|0:0|0:0,0:0:0:0:
112,276,17415,1,2,0:0:0:0:
116,232,17512,1,2,0:0:0:0:
96,192,17609,1,0,0:0:0:0:
100,148,17706,1,0,0:0:0:0:
80,108,17802,5,2,0:0:0:0:
138,138,17898,1,2,0:0:0:0:
203,135,17995,1,2,0:0:0:0:
258,98,18092,1,2,0:0:0:0:
312,60,18188,1,2,0:0:0:0:
378,57,18285,1,2,0:0:0:0:
436,88,18382,69,0,0:0:0:0:
440,96,18480,1,0,0:0:0:0:
444,104,18576,1,0,0:0:0:0:
448,112,18673,1,0,0:0:0:0:
452,120,18770,2,0,P|448:136|444:172,1,50
367,205,18964,2,0,P|363:189|359:153,1,50
459,237,19157,1,0,0:0:0:0:
423,297,19254,1,2,0:0:0:0:
355,313,19351,1,2,0:0:0:0:
291,285,19447,53,2,0:0:0:0:
251,109,19641,1,0,0:0:0:0:
140,380,19834,1,0,0:0:0:0:
75,88,20028,1,2,0:0:0:0:
1,254,20222,5,4,0:0:0:0:
25,276,20286,1,2,0:0:0:0:
56,287,20351,1,2,0:0:0:0:
89,285,20415,1,2,0:0:0:0:
119,271,20480,1,2,0:0:0:0:
141,246,20544,1,2,0:0:0:0:
151,214,20609,1,0,0:0:0:0:
154,189,20673,1,0,0:0:0:0:
165,167,20738,1,0,0:0:0:0:
182,149,20802,1,0,0:0:0:0:
204,137,20867,1,0,0:0:0:0:
229,133,20931,1,0,0:0:0:0:
253,137,20996,2,0,P|280:136|308:128,1,50
380,92,21189,21,2,0:0:0:0:
144,44,21383,1,0,0:0:0:0:
380,92,21576,1,2,0:0:0:0:
144,44,21770,69,4,0:0:0:0:
460,8,22157,1,2,0:0:0:0:
334,300,22544,1,2,0:0:0:0:
280,168,22738,2,0,B|328:156|328:156|380:164,1,100,4|0,0:0|0:0,0:0:0:0:
200,200,23028,2,0,B|152:212|152:212|100:204,1,100,4|0,0:0|0:0,0:0:0:0:
148,112,23318,5,4,0:1:0:0:
216,100,23415,1,0,0:0:0:0:
284,88,23512,1,0,0:0:0:0:
352,76,23609,1,0,0:0:0:0:
352,76,23802,1,0,0:0:0:0:
352,76,23996,1,0,0:0:0:0:
336,144,24092,1,0,0:0:0:0:
352,76,24286,1,0,0:0:0:0:
336,144,24382,1,0,0:0:0:0:
148,112,24576,69,2,0:0:0:0:
148,112,24770,1,0,0:0:0:0:
148,112,24963,1,0,0:0:0:0:
164,180,25059,1,0,0:0:0:0:
180,248,25157,1,0,0:0:0:0:
352,76,25351,5,2,0:0:0:0:
352,76,25544,1,0,0:0:0:0:
420,64,25641,1,0,0:0:0:0:
352,76,25834,1,0,0:0:0:0:
420,64,25931,1,0,0:0:0:0:
148,112,26125,69,2,0:0:0:0:
148,112,26318,1,0,0:0:0:0:
72,92,26415,5,4,0:0:0:0:
92,168,26512,1,0,0:0:0:0:
112,244,26609,1,0,0:0:0:0:
132,320,26705,1,0,0:0:0:0:
352,212,26899,69,2,0:0:0:0:
352,212,27092,1,0,0:0:0:0:
272,200,27189,1,0,0:0:0:0:
352,212,27383,1,0,0:0:0:0:
272,200,27480,1,0,0:0:0:0:
128,36,27673,5,2,0:0:0:0:
128,36,27867,1,0,0:0:0:0:
216,12,27963,69,4,0:0:0:0:
204,100,28060,1,0,0:0:0:0:
192,188,28157,1,0,0:0:0:0:
180,276,28254,1,0,0:0:0:0:
432,224,28447,5,2,0:0:0:0:
432,224,28641,2,0,B|440:188|440:188|432:148,1,75.0000028610231,0|4,0:0|0:0,0:0:0:0:
78,209,28867,6,0,P|74:189|64:160,1,50.0000019073487,6|0,0:0|0:0,0:0:0:0:
180,276,28996,2,0,P|160:273|129:274,1,50.0000019073487,6|0,0:0|0:0,0:0:0:0:
272,199,29125,2,0,P|263:216|254:246,1,50.0000019073487,6|0,0:0|0:0,0:0:0:0:
230,87,29254,2,0,P|243:100|270:118,1,50.0000019073487,6|0,0:0|0:0,0:0:0:0:
109,93,29383,2,0,P|126:83|151:64,1,50.0000019073487,6|0,0:0|0:0,0:0:0:0:
109,93,32609,22,0,L|200:100,1,91.6666666666667
204,108,33383,5,4,0:0:0:0:
256,192,33431,12,0,34109,0:0:0:0:
228,180,34157,53,4,0:0:0:0:
256,192,34205,12,0,35657,0:0:0:0:
252,252,35705,53,4,0:0:0:0:
256,192,35754,12,0,38367,0:0:0:0:
252,252,38415,6,0,B|316:248|316:248|344:224|344:224|416:220,1,166.666666666667,12|8,0:2|0:2,0:0:0:0:
388,312,38802,37,8,0:2:0:0:
357,298,38866,1,8,0:2:0:0:
333,275,38931,1,8,0:2:0:0:
319,246,38995,1,8,0:2:0:0:
315,213,39060,1,8,0:0:0:0:
323,180,39124,1,8,0:0:0:0:
342,153,39189,1,8,0:0:0:0:
369,134,39253,1,8,0:0:0:0:
401,125,39318,1,4,0:0:0:0:
434,128,39382,1,4,0:0:0:0:
464,142,39447,1,4,0:0:0:0:
487,165,39511,1,4,0:0:0:0:
501,195,39576,53,4,0:1:0:0:
252,252,39963,1,2,0:0:0:0:
100,336,40222,1,6,0:3:0:0:
52,324,40286,1,4,0:3:0:0:
3,309,40351,69,4,0:1:0:0:
252,252,40738,1,2,0:0:0:0:
501,195,41125,6,0,L|504:176,1,12.5,8|8,0:2|0:2,0:0:0:0:
396,148,41415,2,0,L|393:129,1,12.5,8|8,0:0|0:0,0:0:0:0:
501,101,41705,2,0,L|504:82,1,12.5,4|4,0:0|0:0,0:0:0:0:
380,44,41899,69,4,0:1:0:0:
306,315,42092,2,0,L|302:339,2,16.6666666666667
328,235,42286,5,8,0:2:0:0:
252,252,42383,2,0,L|200:264,1,50,4|2,0:0|0:0,0:0:0:0:
116,240,42673,69,2,0:0:0:0:
98,209,42737,1,2,0:0:0:0:
96,173,42802,1,2,0:0:0:0:
113,141,42866,1,2,0:0:0:0:
142,121,42931,1,2,0:0:0:0:
178,117,42995,1,2,0:0:0:0:
212,144,43060,6,0,L|237:141,2,25,2|2|2,0:0|0:0|0:0,0:0:0:0:
380,44,43383,1,0,0:0:0:0:
380,44,43447,70,0,L|376:64,1,12.5,8|8,0:3|0:3,0:0:0:0:
272,72,43738,2,0,L|276:92,1,12.5,8|8,0:3|0:3,0:0:0:0:
388,128,44028,2,0,L|384:148,1,12.5,4|4,0:3|0:3,0:0:0:0:
280,156,44319,2,0,L|284:176,1,12.5,4|4,0:3|0:3,0:0:0:0:
408,288,44609,6,0,L|412:264,2,16.6666666666667,8|8|8,0:0|0:0|0:0,0:0:0:0:
296,340,44802,2,0,L|292:316,2,16.6666666666667,4|4|4,0:0|0:0|0:0,0:0:0:0:
184,272,45770,69,0,0:0:0:0:
208,180,45963,1,0,0:0:0:0:
128,128,46157,1,0,0:0:0:0:
152,36,46350,1,2,0:0:0:0:
184,272,46541,5,2,0:0:0:0:
152,36,47354,69,2,0:0:0:0:
184,272,47815,2,0,L|192:184,1,87.5,2|0,0:0|0:0,0:0:0:0:
200,112,48330,69,4,0:0:0:0:
260,156,48466,1,0,0:0:0:0:
191,184,48602,1,0,0:0:0:0:
209,40,48739,69,2,0:0:0:0:
223,38,48875,1,0,0:0:0:0:
237,36,49011,1,0,0:0:0:0:
396,95,49148,5,2,0:0:0:0:
388,168,49284,1,0,0:0:0:0:
328,124,49420,1,0,0:0:0:0:
464,66,49557,69,2,0:0:0:0:
467,80,49693,1,0,0:0:0:0:
470,94,49830,1,0,0:0:0:0:
191,184,49966,5,2,0:0:0:0:
191,184,50102,1,0,0:0:0:0:
388,168,50239,69,2,0:0:0:0:
388,168,50375,1,0,0:0:0:0:
191,184,50511,5,2,0:0:0:0:
168,256,50648,1,0,0:0:0:0:
240,244,50784,1,0,0:0:0:0:
143,125,50920,69,2,0:0:0:0:
128,120,51057,1,0,0:0:0:0:
112,116,51193,1,0,0:0:0:0:
312,228,51330,5,2,0:0:0:0:
335,156,51467,1,0,0:0:0:0:
263,168,51603,1,0,0:0:0:0:
360,287,51739,69,2,0:0:0:0:
375,292,51876,1,0,0:0:0:0:
391,296,52012,1,0,0:0:0:0:
284,96,52148,5,2,0:0:0:0:
284,96,52284,1,0,0:0:0:0:
216,316,52420,69,2,0:0:0:0:
216,316,52556,1,0,0:0:0:0:
112,116,52693,5,4,0:0:0:0:
198,105,52830,1,0,0:0:0:0:
161,184,52966,1,0,0:0:0:0:
284,96,53102,69,2,0:0:0:0:
370,85,53239,1,0,0:0:0:0:
456,74,53375,1,0,0:0:0:0:
388,296,53511,5,2,0:0:0:0:
302,307,53648,1,0,0:0:0:0:
339,228,53784,1,0,0:0:0:0:
216,316,53920,69,2,0:0:0:0:
130,327,54057,1,0,0:0:0:0:
44,338,54193,1,0,0:0:0:0:
425,217,54330,5,4,0:0:0:0:
425,217,54466,1,0,0:0:0:0:
244,176,54602,69,2,0:0:0:0:
244,176,54738,1,0,0:0:0:0:
420,112,54875,5,4,0:0:0:0:
432,8,55011,1,0,0:0:0:0:
336,52,55148,1,0,0:0:0:0:
504,172,55284,69,2,0:0:0:0:
492,276,55420,1,0,0:0:0:0:
480,380,55557,1,0,0:0:0:0:
312,256,55693,5,2,0:0:0:0:
312,256,55830,1,0,0:0:0:0:
504,172,55966,6,0,L|496:72,1,100,4|0,0:0|0:0,0:0:0:0:
196,92,56239,2,0,L|204:192,1,100,4|0,0:0|0:0,0:0:0:0:
320,356,56511,5,0,0:0:0:0:
320,356,56580,1,0,0:0:0:0:
320,356,56648,1,2,0:0:0:0:
343,348,56716,1,2,0:0:0:0:
372,330,56784,1,2,0:0:0:0:
396,292,56852,1,2,0:0:0:0:
401,237,56920,1,2,0:0:0:0:
369,180,56988,1,2,0:0:0:0:
303,155,57057,38,0,P|252:156|188:164,1,115.000002193451,4|0,0:0|0:0,0:0:0:0:
24,220,57330,1,8,0:0:0:0:
389,204,57466,2,0,P|409:155|389:99,1,115.000002193451,2|0,0:0|0:0,0:0:0:0:
244,0,57739,1,0,0:0:0:0:
200,252,57875,2,0,B|240:260|240:260|272:248|272:248|316:256,1,115.000002193451,10|0,0:0|0:0,0:0:0:0:
480,288,58148,1,0,0:0:0:0:
136,304,58284,2,0,P|116:255|136:199,1,115.000002193451,2|8,0:0|0:0,0:0:0:0:
260,80,58557,1,0,0:0:0:0:
352,352,58693,5,2,0:0:0:0:
352,352,58830,1,0,0:0:0:0:
24,220,58966,69,10,0:0:0:0:
24,220,59103,1,0,0:0:0:0:
428,108,59239,6,0,P|444:164|424:216,1,115.000002193451,2|0,0:0|0:0,0:0:0:0:
280,308,59511,1,8,0:0:0:0:
147,95,59648,2,0,P|199:79|259:79,1,115.000002193451,2|0,0:0|0:0,0:0:0:0:
428,108,59920,1,0,0:0:0:0:
288,384,60057,2,0,B|248:380|248:380|220:360|220:360|180:356,1,115.000002193451,10|0,0:0|0:0,0:0:0:0:
8,340,60330,1,0,0:0:0:0:
352,352,60466,2,0,B|364:296|364:296|344:240,1,115.000002193451,2|8,0:0|0:0,0:0:0:0:
280,80,60739,1,0,0:0:0:0:
179,355,60875,69,2,0:0:0:0:
179,355,61011,1,0,0:0:0:0:
472,192,61148,5,10,0:0:0:0:
472,192,61284,1,0,0:0:0:0:
40,76,61420,69,2,0:0:0:0:
98,301,61557,1,2,0:0:0:0:
264,134,61693,1,10,0:0:0:0:
1,203,61830,5,2,0:0:0:0:
98,301,61967,1,2,0:0:0:0:
134,166,62103,1,2,0:0:0:0:
183,334,62239,69,10,0:0:0:0:
304,210,62376,1,2,0:0:0:0:
134,166,62512,1,2,0:0:0:0:
280,304,62648,5,2,0:0:0:0:
304,210,62785,1,10,0:0:0:0:
210,236,62921,1,2,0:0:0:0:
350,372,63057,70,0,P|407:377|455:349,1,115.000002193451,2|0,0:0|0:0,0:0:0:0:
395,41,63330,2,0,P|338:36|290:64,1,115.000002193451,10|0,0:0|0:0,0:0:0:0:
395,273,63602,1,2,0:0:0:0:
367,161,63739,1,0,0:0:0:0:
364,148,63807,1,0,0:0:0:0:
361,136,63875,1,10,0:0:0:0:
395,273,64011,5,0,0:0:0:0:
391,277,64080,1,2,0:0:0:0:
387,281,64148,1,0,0:0:0:0:
359,289,64216,1,0,0:0:0:0:
331,297,64284,1,8,0:0:0:0:
303,305,64352,1,0,0:0:0:0:
255,277,64420,1,4,0:1:0:0:
199,269,64489,1,0,0:0:0:0:
143,261,64557,1,0,0:0:0:0:
87,253,64625,1,0,0:0:0:0:
23,281,64693,2,0,B|15:253|15:253|23:225,1,57.5000010967255,8|0,0:0|0:0,0:0:0:0:
183,141,64830,2,0,B|191:169|191:169|183:197,1,57.5000010967255,4|0,0:3|0:0,0:0:0:0:
47,77,64966,1,2,0:0:0:0:
195,61,65102,1,8,0:0:0:0:
206,60,65170,1,8,0:0:0:0:
217,59,65239,70,0,B|254:56|254:56|294:64,2,76.6666681289673,8|8|8,0:0|0:0|0:0,0:0:0:0:
76,230,65511,2,0,B|39:233|39:233|0:225,2,76.6666681289673,4|4|4,0:0|0:0|0:0,0:0:0:0:
356,32,65784,38,0,B|409:29|409:29|449:45|449:45|505:41,2,150,4|2|2,0:1|0:0|0:0,0:0:0:0:
356,32,67148,1,2,0:0:0:0:
296,136,67420,1,2,0:0:0:0:
348,244,67693,1,2,0:0:0:0:
468,252,67966,69,0,0:0:0:0:
468,252,68784,1,2,0:0:0:0:
264,300,68920,1,2,0:0:0:0:
264,300,69739,5,2,0:0:0:0:
284,192,69875,1,2,0:0:0:0:
200,120,70011,1,2,0:0:0:0:
220,12,70148,69,0,0:0:0:0:
221,16,70284,1,0,0:0:0:0:
222,20,70420,1,0,0:0:0:0:
223,24,70557,1,0,0:0:0:0:
224,28,70693,1,0,0:0:0:0:
225,32,70830,1,0,0:0:0:0:
226,36,70966,1,0,0:0:0:0:
227,40,71102,1,0,0:0:0:0:
248,124,71375,1,2,0:0:0:0:
249,128,71511,1,2,0:0:0:0:
404,264,71784,5,0,0:0:0:0:
264,300,72057,1,0,0:0:0:0:
404,264,72330,2,0,L|408:212,1,50,2|0,0:0|0:0,0:0:0:0:
352,116,72602,1,2,0:0:0:0:
352,116,72739,1,2,0:0:0:0:
264,300,73284,69,0,0:0:0:0:
340,352,73420,2,0,P|364:356|396:356,1,50
404,264,73693,2,0,P|428:261|459:253,1,50
316,196,73966,1,2,0:0:0:0:
340,352,74239,1,2,0:0:0:0:
184,156,74511,2,0,P|160:152|128:152,1,50,2|0,0:0|0:0,0:0:0:0:
120,244,74784,2,0,P|95:246|64:254,1,50
264,300,75193,5,2,0:0:0:0:
184,156,75466,1,2,0:0:0:0:
236,84,75602,2,0,L|232:32,2,50,2|0|0,0:0|0:0|0:0,0:0:0:0:
328,168,76011,2,0,L|332:220,2,50,2|0|0,0:0|0:0|0:0,0:0:0:0:
404,68,76420,1,2,0:0:0:0:
252,200,76693,1,2,0:0:0:0:
80,100,76966,1,2,0:0:0:0:
80,100,77102,2,0,P|85:74|88:48,1,50,2|0,0:0|0:0,0:0:0:0:
48,172,77375,69,2,0:0:0:0:
48,172,77511,1,2,0:0:0:0:
116,256,77648,1,2,0:0:0:0:
116,256,77784,1,2,0:0:0:0:
116,256,78057,5,0,0:0:0:0:
208,196,78193,1,0,0:0:0:0:
316,216,78330,1,0,0:0:0:0:
208,196,78466,1,0,0:0:0:0:
316,216,78603,1,0,0:0:0:0:
376,308,78739,1,0,0:0:0:0:
484,288,78876,69,2,0:0:0:0:
512,184,79011,2,0,P|509:159|501:128,1,50
410,144,79284,2,0,P|401:121|385:93,1,50
244,288,79693,5,2,0:0:0:0:
244,288,79830,1,2,0:0:0:0:
244,288,80102,1,0,0:0:0:0:
138,320,80239,1,0,0:0:0:0:
54,248,80375,1,0,0:0:0:0:
70,140,80511,1,0,0:0:0:0:
178,116,80648,1,0,0:0:0:0:
192,0,80784,69,8,0:0:0:0:
199,2,80852,1,8,0:0:0:0:
206,4,80920,1,8,0:0:0:0:
213,6,80989,1,8,0:0:0:0:
238,13,81057,70,0,B|276:8|276:8|312:12,1,75.0000028610231,4|0,0:0|0:0,0:0:0:0:
190,300,81330,1,8,0:0:0:0:
128,247,81466,2,0,B|90:252|90:252|54:248,1,75.0000028610231,2|0,0:0|0:0,0:0:0:0:
340,156,81739,1,8,0:0:0:0:
248,344,81875,1,2,0:0:0:0:
176,108,82011,69,4,0:3:0:0:
176,108,82080,1,4,0:3:0:0:
176,108,82148,1,8,0:0:0:0:
392,228,82284,1,8,0:3:0:0:
92,320,82420,1,8,0:3:0:0:
238,13,82557,1,8,0:3:0:0:
392,228,83239,70,0,P|280:248|216:164,1,230.000004386902,4|8,0:1|0:0,0:0:0:0:
512,116,83648,2,0,L|500:232,1,115.000002193451
320,152,83920,1,8,0:0:0:0:
480,36,84057,1,4,0:1:0:0:
480,36,84193,70,0,B|360:88|376:4|256:44,1,230.000004386902,4|0,0:0|0:0,0:0:0:0:
304,352,84602,2,0,P|352:340|416:328,1,115.000002193451,8|0,0:0|0:0,0:0:0:0:
196,224,84875,2,0,P|182:271|160:332,1,115.000002193451
360,194,85148,2,0,P|325:158|283:109,1,115.000002193451,8|0,0:0|0:0,0:0:0:0:
12,291,85420,6,0,P|128:303|196:223,1,230.000004386902,0|8,0:0|0:0,0:0:0:0:
64,80,85830,2,0,P|72:136|84:196,1,115.000002193451
220,328,86102,1,4,0:3:0:0:
360,194,86239,69,8,0:0:0:0:
364,178,86375,1,0,0:0:0:0:
328,328,86511,1,8,0:0:0:0:
324,340,86648,1,0,0:0:0:0:
276,244,86784,1,8,0:0:0:0:
260,240,86920,1,0,0:0:0:0:
410,276,87056,1,8,0:0:0:0:
422,280,87193,37,0,0:0:0:0:
320,356,87330,1,8,0:0:0:0:
244,236,87466,1,0,0:0:0:0:
436,160,87602,53,4,0:1:0:0:
200,324,87739,1,0,0:0:0:0:
224,84,87875,1,12,0:0:0:0:
428,248,88011,1,0,0:0:0:0:
112,192,88148,1,12,0:0:0:0:
444,72,88284,1,0,0:0:0:0:
280,328,88420,1,12,0:0:0:0:
163,36,88557,2,0,P|211:8|271:24,1,115.000002193451,0|8,0:0|0:0,0:0:0:0:
360,332,88830,1,4,0:0:0:0:
59,308,88966,2,0,P|47:252|27:196,1,115.000002193451,12|0,0:0|0:0,0:0:0:0:
305,113,89239,69,8,0:0:0:0:
305,113,89307,1,8,0:0:0:0:
305,113,89375,1,8,0:0:0:0:
305,113,89443,1,8,0:0:0:0:
305,113,89511,1,8,0:0:0:0:
324,166,89579,1,8,0:0:0:0:
327,223,89647,1,8,0:0:0:0:
312,279,89715,1,8,0:0:0:0:
280,328,89784,6,0,B|200:336|200:336|136:304|136:304|53:309,1,230.000004386902,4|8,0:1|0:0,0:0:0:0:
190,124,90193,2,0,L|310:112,1,115.000002193451
472,272,90466,1,0,0:0:0:0:
472,272,90534,1,0,0:0:0:0:
472,272,90602,2,0,P|475:245|483:216,1,57.5000010967255,8|0,0:0|0:3,0:0:0:0:
488,108,90739,2,0,P|485:81|477:52,1,57.5000010967255,8|0,0:3|0:3,0:0:0:0:
375,22,90875,69,4,0:3:0:0:
375,22,90943,1,4,0:3:0:0:
375,22,91011,1,4,0:3:0:0:
375,22,91080,1,4,0:3:0:0:
375,22,91148,1,8,0:0:0:0:
381,78,91216,1,0,0:0:0:0:
353,127,91284,1,0,0:0:0:0:
301,150,91352,1,0,0:0:0:0:
246,137,91420,1,8,0:0:0:0:
190,124,91488,1,0,0:0:0:0:
139,147,91556,1,0,0:0:0:0:
111,196,91624,1,0,0:0:0:0:
117,252,91693,2,0,P|124:276|128:308,1,57.5000010967255,8|8,0:0|0:0,0:0:0:0:
316,332,91830,2,0,P|323:308|327:276,1,57.5000010967255,4|4,0:0|0:0,0:0:0:0:
136,72,91966,6,0,P|104:60|72:52,2,66.6666666666667,4|0|0,0:1|0:0|0:0,0:0:0:0:
356,204,92239,2,0,P|388:192|420:184,2,66.6666666666667,8|0|0,0:0|0:0|0:0,0:0:0:0:
144,376,92511,2,0,P|112:376|80:360,1,66.6666666666667,0|2,0:0|0:0,0:0:0:0:
16,168,92693,1,2,0:0:0:0:
64,116,92784,2,0,L|60:48,2,66.6666666666667,10|0|0,0:0|0:0|0:0,0:0:0:0:
220,372,93057,70,0,P|252:384|284:384,1,66.6666666666667,4|0,0:0|0:0,0:0:0:0:
360,356,93239,1,2,0:0:0:0:
408,291,93329,1,10,0:0:0:0:
386,214,93420,1,2,0:0:0:0:
312,183,93511,1,2,0:0:0:0:
242,223,93602,6,0,P|210:235|178:235,1,66.6666666666667,4|0,0:0|0:0,0:0:0:0:
78,231,93784,1,2,0:0:0:0:
17,155,93874,1,10,0:0:0:0:
43,60,93965,1,2,0:0:0:0:
134,23,94056,1,2,0:0:0:0:
216,80,94148,70,0,P|248:92|280:92,1,66.6666666666667,4|0,0:0|0:0,0:0:0:0:
347,49,94330,1,0,0:0:0:0:
416,8,94421,1,8,0:0:0:0:
490,39,94512,1,2,0:0:0:0:
512,116,94603,1,2,0:0:0:0:
463,181,94693,1,2,0:0:0:0:
276,328,94830,5,2,0:0:0:0:
263,330,94898,1,2,0:0:0:0:
250,332,94966,1,10,0:0:0:0:
12,200,95102,1,2,0:0:0:0:
144,308,95239,1,2,0:0:0:0:
153,306,95307,1,2,0:0:0:0:
162,304,95375,1,2,0:0:0:0:
171,302,95443,1,2,0:0:0:0:
180,301,95511,69,8,0:0:0:0:
223,258,95579,1,0,0:0:0:0:
222,197,95647,1,0,0:0:0:0:
176,157,95715,1,0,0:0:0:0:
116,163,95784,1,8,0:0:0:0:
55,169,95852,1,0,0:0:0:0:
10,128,95920,1,0,0:0:0:0:
8,68,95988,1,0,0:0:0:0:
52,25,96057,2,0,P|80:16|104:12,1,50,8|8,0:0|0:0,0:0:0:0:
200,88,96193,2,0,P|224:83|247:74,1,50,8|4,0:0|0:0,0:0:0:0:
376,0,96330,6,0,P|456:4|488:108,1,200,4|8,0:1|0:0,0:0:0:0:
392,176,96739,2,0,P|400:128|412:76,1,100,4|0,0:0|0:0,0:0:0:0:
388,96,96943,1,0,0:0:0:0:
361,107,97011,1,0,0:0:0:0:
333,111,97079,1,0,0:0:0:0:
305,110,97147,1,8,0:0:0:0:
277,102,97215,1,0,0:0:0:0:
253,87,97283,1,0,0:0:0:0:
232,68,97352,1,0,0:0:0:0:
216,44,97420,70,0,B|148:64|148:64|88:52|88:52|16:68,1,200,4|8,0:1|0:0,0:0:0:0:
236,280,97830,2,0,B|244:232|244:232|232:180,1,100,4|0,0:0|0:0,0:0:0:0:
40,240,98102,1,0,0:0:0:0:
40,240,98170,1,0,0:0:0:0:
40,240,98239,1,8,0:0:0:0:
52,288,98307,1,0,0:0:0:0:
64,336,98375,1,0,0:0:0:0:
112,352,98443,1,0,0:0:0:0:
160,364,98511,6,0,P|196:356|240:352,2,76.6666681289673,4|0|0,0:0|0:0|0:0,0:0:0:0:
88,164,98784,2,0,P|52:156|8:152,2,76.6666681289673,2|0|0,0:0|0:0|0:0,0:0:0:0:
236,280,99057,1,4,0:0:0:0:
298,321,99147,1,8,0:0:0:0:
372,308,99238,1,8,0:0:0:0:
416,248,99329,1,8,0:0:0:0:
407,174,99420,1,8,0:0:0:0:
349,126,99511,1,8,0:0:0:0:
274,132,99602,70,0,P|240:124|208:120,1,66.6666666666667,4|8,0:2|0:0,0:0:0:0:
284,4,99784,2,0,P|294:38|306:68,1,66.6666666666667,8|8,0:0|0:0,0:0:0:0:
168,60,99966,2,0,P|192:34|212:8,1,66.6666666666667,8|8,0:0|0:0,0:0:0:0:
349,126,100148,2,0,L|341:194,1,66.6666666666667,4|4,0:2|0:0,0:0:0:0:
160,184,100330,2,0,L|168:252,1,66.6666666666667,4|4,0:0|0:0,0:0:0:0:
298,321,100511,1,4,0:0:0:0:
372,308,100602,1,4,0:0:0:0:
445,295,100693,38,0,P|452:248|464:196,1,100,4|0,0:1|0:0,0:0:0:0:
504,64,100966,1,8,0:0:0:0:
284,4,101102,70,0,P|277:51|265:103,1,100,2|0,0:0|0:0,0:0:0:0:
225,235,101375,1,0,0:0:0:0:
0,43,101511,5,10,0:0:0:0:
88,16,101648,1,0,0:0:0:0:
68,104,101784,1,0,0:0:0:0:
56,288,101920,69,2,0:0:0:0:
140,261,102056,1,8,0:0:0:0:
72,201,102193,1,0,0:0:0:0:
225,235,102330,5,2,0:0:0:0:
225,235,102466,1,0,0:0:0:0:
144,119,102602,69,10,0:0:0:0:
144,119,102738,1,0,0:0:0:0:
265,43,102875,5,2,0:0:0:0:
352,56,103011,1,0,0:0:0:0:
296,128,103148,1,8,0:0:0:0:
146,22,103284,69,2,0:0:0:0:
116,16,103420,1,0,0:0:0:0:
86,10,103557,1,0,0:0:0:0:
225,235,103694,5,10,0:0:0:0:
136,220,103830,1,0,0:0:0:0:
192,152,103966,1,0,0:0:0:0:
344,256,104102,69,2,0:0:0:0:
374,262,104238,1,8,0:0:0:0:
404,268,104375,1,0,0:0:0:0:
168,300,104511,5,2,0:0:0:0:
168,300,104648,1,0,0:0:0:0:
260,92,104784,69,10,0:0:0:0:
260,92,104921,1,0,0:0:0:0:
404,268,105057,5,2,0:0:0:0:
316,280,105193,1,0,0:0:0:0:
348,196,105330,1,8,0:0:0:0:
168,300,105466,69,2,0:0:0:0:
164,272,105602,1,0,0:0:0:0:
160,244,105739,1,0,0:0:0:0:
316,280,105875,5,10,0:0:0:0:
328,368,106011,1,0,0:0:0:0:
244,336,106148,1,0,0:0:0:0:
100,200,106284,69,2,0:0:0:0:
104,172,106420,1,8,0:0:0:0:
108,144,106557,1,0,0:0:0:0:
244,336,106693,5,2,0:0:0:0:
244,336,106830,1,0,0:0:0:0:
196,204,106966,69,10,0:0:0:0:
196,204,107102,1,0,0:0:0:0:
324,140,107239,6,0,P|336:92|320:44,1,100,2|0,0:0|0:0,0:0:0:0:
248,96,107511,1,8,0:0:0:0:
24,244,107648,70,0,P|12:196|28:148,1,100,2|0,0:0|0:0,0:0:0:0:
100,200,107920,1,0,0:0:0:0:
324,354,108057,6,0,P|336:306|320:258,1,100,10|0,0:0|0:0,0:0:0:0:
248,310,108329,1,12,0:0:0:0:
248,310,108466,1,0,0:0:0:0:
476,284,108602,1,12,0:0:0:0:
476,284,108739,1,0,0:0:0:0:
340,100,108875,37,0,0:0:0:0:
340,100,108943,1,0,0:0:0:0:
340,100,109011,1,2,0:0:0:0:
325,120,109079,1,2,0:0:0:0:
298,142,109147,1,10,0:0:0:0:
254,152,109215,1,2,0:0:0:0:
199,149,109283,1,2,0:0:0:0:
148,108,109351,1,2,0:0:0:0:
120,38,109420,6,0,P|172:16|232:16,1,115.000002193451,4|0,0:1|0:0,0:0:0:0:
400,56,109693,1,8,0:0:0:0:
364,336,109830,2,0,P|312:358|252:358,1,115.000002193451,2|8,0:0|0:0,0:0:0:0:
84,318,110103,1,0,0:0:0:0:
225,86,110239,2,0,L|340:99,1,115.000002193451,10|0,0:0|0:0,0:0:0:0:
500,40,110511,1,8,0:0:0:0:
276,204,110648,2,0,L|160:217,1,115.000002193451,2|8,0:0|0:0,0:0:0:0:
1,158,110920,1,0,0:0:0:0:
357,287,111057,5,10,0:0:0:0:
357,287,111193,1,0,0:0:0:0:
120,38,111330,5,10,0:0:0:0:
120,38,111466,1,0,0:0:0:0:
444,188,111602,54,0,P|460:136|444:80,1,115.000002193451,8|0,0:0|0:0,0:0:0:0:
280,132,111875,1,8,0:0:0:0:
0,266,112011,2,0,P|-16:214|0:158,1,115.000002193451,0|8,0:0|0:0,0:0:0:0:
164,210,112284,1,0,0:0:0:0:
424,376,112420,2,0,L|436:260,1,115.000002193451,10|0,0:0|0:0,0:0:0:0:
268,296,112693,1,8,0:0:0:0:
64,124,112830,2,0,L|52:8,1,115.000002193451,2|8,0:0|0:0,0:0:0:0:
220,44,113103,1,0,0:0:0:0:
144,332,113239,5,10,0:0:0:0:
144,332,113375,1,0,0:0:0:0:
364,132,113511,5,10,0:0:0:0:
364,132,113647,1,0,0:0:0:0:
64,124,113784,53,10,0:0:0:0:
144,332,113920,1,0,0:0:0:0:
284,156,114057,1,8,0:0:0:0:
104,227,114193,69,2,0:0:0:0:
214,244,114329,1,8,0:0:0:0:
173,140,114466,1,0,0:0:0:0:
293,357,114602,5,10,0:0:0:0:
463,253,114738,1,0,0:0:0:0:
284,156,114875,1,8,0:0:0:0:
376,305,115011,69,2,0:0:0:0:
375,204,115147,1,8,0:0:0:0:
288,257,115284,1,0,0:0:0:0:
463,253,115420,6,0,P|479:197|463:145,1,115.000002193451,10|0,0:0|0:0,0:0:0:0:
28,172,115693,2,0,P|12:228|28:280,1,115.000002193451,10|0,0:0|0:0,0:0:0:0:
376,72,115966,5,4,0:1:0:0:
148,44,116102,1,4,0:3:0:0:
376,72,116239,1,8,0:0:0:0:
104,227,116375,5,4,0:1:0:0:
332,199,116511,1,4,0:3:0:0:
104,227,116648,1,8,0:0:0:0:
376,382,116784,69,4,0:1:0:0:
148,354,116920,1,4,0:3:0:0:
376,382,117057,1,8,0:0:0:0:
128,136,117193,69,8,0:3:0:0:
260,372,117330,1,8,0:3:0:0:
332,199,117466,1,4,0:3:0:0:
156,280,117602,1,4,0:3:0:0:
440,300,117739,69,8,0:0:0:0:
440,300,117875,1,8,0:0:0:0:
440,300,118011,1,8,0:0:0:0:
364,128,118148,70,0,B|332:124|332:124|296:128,1,66.6666666666667,8|8,0:2|0:2,0:0:0:0:
236,272,118330,2,0,B|268:276|268:276|304:272,1,66.6666666666667,8|8,0:2|0:2,0:0:0:0:
68,164,118602,70,0,L|52:162,2,16.6666666666667,4|4|4,0:0|0:0|0:2,0:0:0:0:
256,192,118761,12,0,122443,0:0:0:0:
