osu file format v14

[General]
AudioFilename: audio.mp3
AudioLeadIn: 0
PreviewTime: 82631
Countdown: 0
SampleSet: Soft
StackLeniency: 0.3
Mode: 0
LetterboxInBreaks: 0
WidescreenStoryboard: 1

[Editor]
Bookmarks: 16738,29512,44996
DistanceSpacing: 1
BeatDivisor: 6
GridSize: 32
TimelineZoom: 2

[Metadata]
Title:Preserved Valkyria
TitleUnicode:Preserved Valkyria
Artist:penoreri
ArtistUnicode:ぺのれり
Creator:Alheak
Version:PONO'S GRAVITY
Source:SOUND VOLTEX III GRAVITY WARS
Tags:konami sdvx 3 kac Song Contest Champion GoldenWolf Ponoyoshi pono Ayyri Realazy real bemani
BeatmapID:1017559
BeatmapSetID:433002

[Difficulty]
HPDrainRate:6
CircleSize:4.5
OverallDifficulty:9
ApproachRate:9.7
SliderMultiplier:1.6
SliderTickRate:1

[Events]
//Background and Video events
0,0,"bg.jpg",0,0
//Break Periods
//Storyboard Layer 0 (Background)
//Storyboard Layer 1 (Fail)
//Storyboard Layer 2 (Pass)
//Storyboard Layer 3 (Foreground)
//Storyboard Sound Samples

[TimingPoints]
93,387.096774193548,4,2,1,40,1,0
1544,-100,4,2,1,20,0,0
1641,-111.111111111111,4,2,1,60,0,0
7060,-142.857142857143,4,2,1,60,0,0
7447,-66.6666666666667,4,2,1,60,0,0
10544,-62.5,4,2,1,60,0,0
10931,-111.111111111111,4,2,1,60,0,0
14028,-83.3333333333333,4,2,1,65,0,0
22544,-66.6666666666667,4,2,1,65,0,0
23028,-83.3333333333333,4,2,1,65,0,0
32608,-111.111111111111,4,2,1,65,0,0
33382,-71.4285714285714,4,2,1,65,0,0
34109,-71.4285714285714,4,2,1,5,0,0
34157,-83.3333333333333,4,2,1,65,0,0
35609,-83.3333333333333,4,2,1,5,0,0
35705,-83.3333333333333,4,2,1,65,0,0
38415,-83.3333333333333,4,3,1,65,0,0
39576,-71.4285714285714,4,2,1,65,0,0
40350,-83.3333333333333,4,2,1,65,0,0
41125,-83.3333333333333,4,3,1,65,0,0
41899,-83.3333333333333,4,2,1,65,0,0
42092,-83.3333333333333,4,3,1,65,0,0
42286,-83.3333333333333,4,2,1,65,0,0
43383,-83.3333333333333,4,3,1,65,0,0
43447,-200,4,3,1,65,0,0
44608,-100,4,3,1,65,0,0
44609,-100,4,2,1,65,0,0
44673,-100,4,2,1,65,0,0
46541,400,4,2,1,70,1,0
46941,413.793103448276,4,2,1,70,1,0
47354,461.538461538462,4,2,1,70,1,0
47815,521.739130434783,4,2,1,70,1,0
48330,272.727272727273,4,2,1,70,1,0
48330,-90.9090909090909,4,2,1,70,0,0
65332,-90.9090909090909,4,3,1,70,0,0
65784,-142.857142857142,4,2,1,70,0,0
74239,-166.666666666666,4,2,1,70,0,0
74511,-199.999999999999,4,2,1,70,0,0
75602,-166.666666666666,4,2,1,70,0,0
76693,-199.999999999999,4,2,1,70,0,0
81057,-100,4,2,1,70,0,0
82148,-100,4,3,1,70,0,0
82693,-125,4,3,1,70,0,0
83239,-62.5,4,2,1,70,0,1
91830,-62.5,4,3,1,70,0,1
91966,-62.5,4,2,1,70,0,1
99602,-62.5,4,3,1,70,0,1
100693,-100,4,2,1,70,0,0
109420,-83.3333333333333,4,2,1,70,0,1
117057,-100,4,2,1,70,0,0
118148,-100,4,3,1,70,0,0

[Colours]
Combo1 : 228,221,69
Combo2 : 203,216,228
Combo3 : 89,120,193
Combo4 : 232,206,189
Combo5 : 228,86,50
Combo6 : 234,231,206

[HitObjects]
144,88,1641,5,4,0:0:0:0:
144,88,2028,2,0,B|145:146|145:146|133:184|133:184|136:241,1,143.999995605469,2|2,0:0|0:0,0:0:0:0:
89,295,2705,2,0,P|119:309|195:279,1,107.999996704102,2|2,0:0|0:0,0:0:0:0:
186,308,3382,1,2,0:0:0:0:
183,328,3770,5,0,0:0:0:0:
288,332,3963,2,0,B|245:325|245:325|215:333|215:333|164:324,1,107.999996704102,2|0,0:0|0:0,0:0:0:0:
46,300,4544,1,2,0:0:0:0:
281,133,4931,5,0,0:0:0:0:
281,140,5028,1,2,0:0:0:0:
281,147,5124,1,0,0:0:0:0:
282,154,5221,1,0,0:0:0:0:
311,227,5318,6,0,B|331:196|369:194|369:194|342:162|356:122|356:122,1,143.999995605469,2|0,0:0|0:0,0:0:0:0:
426,147,5899,5,0,0:0:0:0:
445,245,6092,2,0,L|421:341,1,71.9999978027344,2|0,0:0|0:0,0:0:0:0:
356,275,6383,5,0,0:0:0:0:
331,270,6480,1,0,0:0:0:0:
306,265,6576,1,0,0:0:0:0:
281,260,6673,1,0,0:0:0:0:
257,255,6770,1,0,0:0:0:0:
232,250,6867,1,0,0:0:0:0:
207,245,6963,1,0,0:0:0:0:
182,241,7060,6,0,P|187:289|213:335,1,83.9999974365235,2|0,0:0|0:0,0:0:0:0:
236,184,7447,2,0,P|173:165|105:263,1,180.000006866455,2|0,0:0|0:0,0:0:0:0:
251,367,7834,6,0,B|278:349|278:349|317:302,1,60.0000022888184,4|0,0:0|0:0,0:0:0:0:
182,241,8028,2,0,B|182:271|182:271|203:329,1,60.0000022888184,2|2,0:0|0:0,0:0:0:0:
326,224,8221,2,0,B|297:208|297:208|238:197,1,60.0000022888184,2|0,0:0|0:0,0:0:0:0:
370,332,8415,5,2,0:0:0:0:
397,346,8511,1,2,0:0:0:0:
424,359,8608,2,0,L|409:270,1,60.0000022888184,2|0,0:0|0:0,0:0:0:0:
218,246,8802,5,2,0:0:0:0:
205,272,8899,1,2,0:0:0:0:
192,299,8995,2,0,L|281:285,1,60.0000022888184,2|0,0:0|0:0,0:0:0:0:
444,168,9189,5,2,0:0:0:0:
458,195,9285,1,2,0:0:0:0:
471,222,9383,2,0,L|382:207,1,60.0000022888184,2|0,0:0|0:0,0:0:0:0:
197,148,9576,5,2,0:0:0:0:
223,161,9673,1,2,0:0:0:0:
250,174,9770,2,0,L|236:85,1,60.0000022888184,2|0,0:0|0:0,0:0:0:0:
382,31,9963,1,2,0:0:0:0:
395,38,10060,1,2,0:0:0:0:
409,44,10157,6,0,P|406:83|393:120,1,60.0000022888184,2|0,0:0|0:0,0:0:0:0:
241,232,10350,2,0,P|244:193|257:156,1,60.0000022888184,2|0,0:0|0:0,0:0:0:0:
409,44,10544,6,0,P|406:83|390:128,1,64,2|0,0:0|0:0,0:0:0:0:
241,232,10738,2,0,P|244:193|267:143,1,64,2|0,0:0|0:0,0:0:0:0:
417,218,10931,6,0,L|486:237,2,47.9999985351563,0|0|2,0:0|0:0|0:0,0:0:0:0:
241,232,11318,2,0,L|172:251,2,47.9999985351563,0|0|2,0:0|0:0|0:0,0:0:0:0:
371,300,11705,6,0,L|440:319,2,47.9999985351563,0|0|2,0:0|0:0|0:0,0:0:0:0:
277,307,12092,2,0,L|208:326,2,47.9999985351563,0|0|2,0:0|0:0|0:0,0:0:0:0:
330,379,12479,5,0,0:0:0:0:
215,117,12673,1,0,0:0:0:0:
215,117,12769,1,0,0:0:0:0:
201,150,12866,1,0,0:0:0:0:
197,186,12963,1,0,0:0:0:0:
201,222,13060,1,0,0:0:0:0:
215,255,13156,1,0,0:0:0:0:
277,307,13253,1,2,0:0:0:0:
277,307,13640,1,2,0:0:0:0:
140,341,14028,6,0,L|75:333,1,47.9999985351563,4|0,0:0|0:0,0:0:0:0:
277,307,14222,2,0,L|342:299,1,47.9999985351563,0|0,0:0|0:0,0:0:0:0:
138,328,14415,2,0,L|75:309,1,47.9999985351563,2|0,0:0|0:0,0:0:0:0:
278,319,14609,2,0,L|344:322,1,47.9999985351563,0|0,0:0|0:0,0:0:0:0:
209,279,14802,5,2,0:0:0:0:
208,282,14899,1,0,0:0:0:0:
207,285,14996,1,0,0:0:0:0:
206,288,15092,1,0,0:0:0:0:
138,328,15189,5,2,0:0:0:0:
156,283,15285,1,0,0:0:0:0:
104,238,15382,1,0,0:0:0:0:
116,191,15479,1,0,0:0:0:0:
67,143,15576,5,2,0:0:0:0:
103,112,15672,1,0,0:0:0:0:
149,101,15769,1,0,0:0:0:0:
196,110,15866,1,0,0:0:0:0:
234,138,15963,1,2,0:0:0:0:
270,168,16060,1,0,0:0:0:0:
316,179,16157,1,0,0:0:0:0:
363,170,16254,1,0,0:0:0:0:
401,142,16351,6,0,L|413:70,3,47.9999985351563,2|0|0|0,0:0|0:0|0:0|0:0,0:0:0:0:
270,168,16738,2,0,L|258:96,3,47.9999985351563,2|0|0|0,0:0|0:0|0:0|0:0,0:0:0:0:
371,311,17125,6,0,L|389:216,1,95.9999970703126,2|0,0:0|0:0,0:0:0:0:
270,168,17414,1,0,0:0:0:0:
274,216,17511,1,2,0:0:0:0:
278,264,17608,1,0,0:0:0:0:
282,312,17705,1,0,0:0:0:0:
202,336,17802,5,0,0:0:0:0:
204,327,17899,1,2,0:0:0:0:
206,317,17996,1,0,0:0:0:0:
208,308,18092,1,0,0:0:0:0:
210,299,18189,1,0,0:0:0:0:
134,276,18286,5,2,0:0:0:0:
135,281,18382,1,0,0:0:0:0:
136,286,18479,1,0,0:0:0:0:
136,290,18576,1,0,0:0:0:0:
136,294,18673,5,2,0:0:0:0:
159,252,18769,1,0,0:0:0:0:
159,205,18866,1,0,0:0:0:0:
135,163,18963,1,0,0:0:0:0:
111,121,19059,1,2,0:0:0:0:
111,74,19156,1,0,0:0:0:0:
134,32,19253,1,0,0:0:0:0:
178,12,19350,1,0,0:0:0:0:
251,15,19447,6,0,B|328:27,1,47.9999985351563,2|0,0:0|0:0,0:0:0:0:
459,60,19641,2,0,B|411:67,1,47.9999985351563,2|0,0:0|0:0,0:0:0:0:
194,100,19834,6,0,B|271:112,1,47.9999985351563,2|0,0:0|0:0,0:0:0:0:
488,148,20028,2,0,B|440:155,1,47.9999985351563,2|0,0:0|0:0,0:0:0:0:
260,214,20221,6,0,L|273:163,5,31.9999990234375,4|0|0|0|0|0,0:0|0:0|0:0|0:0|0:0|0:0,0:0:0:0:
344,264,20608,2,0,L|336:216,5,31.9999990234375,0|0|0|0|0|0,0:0|0:0|0:0|0:0|0:0|0:0,0:0:0:0:
270,338,20995,2,0,L|277:246,1,47.9999985351563,0|0,0:0|0:0,0:0:0:0:
193,188,21189,6,0,P|189:216|195:253,1,47.9999985351563,2|0,0:0|0:0,0:0:0:0:
117,349,21383,2,0,P|113:321|119:284,1,47.9999985351563,2|0,0:0|0:0,0:0:0:0:
192,187,21576,2,0,P|193:211|190:235,1,47.9999985351563,2|0,0:0|0:0,0:0:0:0:
74,223,21770,6,0,P|113:178|215:218,1,143.999995605469,4|0,0:0|0:0,0:0:0:0:
260,214,22157,2,0,L|280:60,1,143.999995605469,2|0,0:0|0:0,0:0:0:0:
114,101,22544,1,2,0:0:0:0:
114,101,22737,6,0,B|124:148|124:148|113:186|113:186|123:235,1,120.000004577637,4|0,0:0|0:0,0:0:0:0:
183,281,23028,2,0,L|193:160,1,95.9999970703126,4|0,0:0|0:0,0:0:0:0:
63,286,23318,6,0,L|130:288,1,47.9999985351563,6|2,0:0|0:0,0:0:0:0:
267,264,23511,1,2,0:0:0:0:
267,264,23608,2,0,L|334:266,1,47.9999985351563,2|0,0:0|0:0,0:0:0:0:
447,183,23802,2,0,P|400:166|337:188,1,95.9999970703126,2|2,0:0|0:0,0:0:0:0:
396,243,24092,2,0,L|404:115,1,95.9999970703126,2|2,0:0|0:0,0:0:0:0:
459,60,24382,2,0,B|410:68|410:68|353:51,1,95.9999970703126,2|2,0:0|0:0,0:0:0:0:
196,103,24770,2,0,B|245:95|245:95|302:112,1,95.9999970703126,2|2,0:0|0:0,0:0:0:0:
243,172,25060,1,2,0:0:0:0:
243,172,25157,2,0,L|167:182,1,47.9999985351563,2|0,0:0|0:0,0:0:0:0:
101,241,25350,6,0,L|25:251,1,47.9999985351563,2|0,0:0|0:0,0:0:0:0:
285,267,25544,1,2,0:0:0:0:
285,267,25641,2,0,L|209:277,1,47.9999985351563,2|0,0:0|0:0,0:0:0:0:
143,336,25834,1,2,0:0:0:0:
143,336,25931,2,0,L|67:346,1,47.9999985351563,2|0,0:0|0:0,0:0:0:0:
101,241,26125,2,0,L|156:236,1,47.9999985351563,2|0,0:0|0:0,0:0:0:0:
175,133,26318,1,2,0:0:0:0:
163,147,26415,5,6,0:0:0:0:
210,143,26511,1,2,0:0:0:0:
258,139,26608,1,2,0:0:0:0:
306,135,26705,2,0,L|289:72,1,47.9999985351563,2|0,0:0|0:0,0:0:0:0:
389,240,26899,2,0,L|376:193,1,47.9999985351563,2|0,0:0|0:0,0:0:0:0:
466,94,27092,1,2,0:0:0:0:
466,94,27189,2,0,L|453:140,1,47.9999985351563,2|0,0:0|0:0,0:0:0:0:
389,240,27382,1,2,0:0:0:0:
389,240,27479,2,0,L|376:286,1,47.9999985351563,2|0,0:0|0:0,0:0:0:0:
318,181,27673,6,0,L|305:134,1,47.9999985351563,2|0,0:0|0:0,0:0:0:0:
273,243,27866,1,2,0:0:0:0:
248,286,27963,5,6,0:0:0:0:
201,290,28059,1,2,0:0:0:0:
153,294,28156,1,2,0:0:0:0:
105,299,28254,2,0,L|123:230,1,47.9999985351563,2|0,0:0|0:0,0:0:0:0:
26,163,28447,6,0,L|96:171,1,47.9999985351563,2|0,0:0|0:0,0:0:0:0:
20,171,28641,2,0,L|90:179,1,47.9999985351563,2|4,0:0|0:0,0:0:0:0:
173,187,28866,5,4,0:0:0:0:
294,155,28995,1,4,0:0:0:0:
131,100,29124,1,4,0:0:0:0:
312,152,29253,1,4,0:0:0:0:
156,194,29382,1,4,0:0:0:0:
256,192,29511,12,0,32221,0:0:0:0:
454,281,32609,6,0,L|457:305,15,17.9999994506836,2|0|0|0|0|0|0|0|0|0|0|0|0|0|0|0,0:0|0:0|0:0|0:0|0:0|0:0|0:0|0:0|0:0|0:0|0:0|0:0|0:0|0:0|0:0|0:0,0:0:0:0:
461,260,33383,6,0,B|423:212|320:224|287:291|287:291|238:245|238:245|178:289|120:266,1,391.99998803711,4|0,0:0|0:0,0:0:0:0:
17,199,34157,2,0,B|90:195|124:268|124:268|135:195|135:195|129:180|129:180|147:154|152:118|133:78|133:78|178:160|242:157|308:82|312:44|271:-9|214:-24|114:42|224:145,1,719.999978027344,2|2,0:0|0:0,0:0:0:0:
256,192,35705,5,2,0:0:0:0:
256,192,35770,12,0,38415,0:0:0:0:
286,139,38802,6,0,L|280:198,5,31.9999990234375,8|8|8|8|8|8,0:0|0:0|0:0|0:0|0:0|0:0,0:0:0:0:
342,205,39189,2,0,L|348:264,5,31.9999990234375,4|4|4|4|4|4,0:0|0:0|0:0|0:0|0:0|0:0,0:0:0:0:
407,268,39576,2,0,B|374:332|291:313|276:251|276:251|280:338|223:352|223:352|171:318|211:223,1,391.99998803711,4|0,0:0|0:0,0:0:0:0:
137,117,40350,6,0,B|121:161|87:174|87:174|131:190|162:233|137:295|88:323|11:317|0:212,1,335.999989746094,4|0,0:0|0:0,0:0:0:0:
302,206,41124,2,0,B|297:163|297:163|308:126|308:126|296:53,2,143.999995605469,8|8|4,0:0|0:0|0:0,0:0:0:0:
358,277,41899,6,0,P|311:297|250:282,1,95.9999970703126,4|8,0:0|0:0,0:0:0:0:
192,224,42157,1,8,0:0:0:0:
192,224,42221,1,8,0:0:0:0:
192,224,42286,2,0,P|144:218|101:238,1,95.9999970703126,0|0,0:0|0:0,0:0:0:0:
12,349,42576,1,0,0:0:0:0:
12,349,42673,6,0,B|11:306|11:306|6:300|6:300|6:230,1,95.9999970703126,0|8,0:0|0:0,0:0:0:0:
63,183,42963,2,0,B|62:140|62:140|57:134|57:134|57:64,1,95.9999970703126,4|8,0:0|0:0,0:0:0:0:
136,160,43254,2,0,L|133:73,1,63.9999980468751,4|0,0:0|0:0,0:0:0:0:
209,130,43447,6,0,L|209:75,1,40,8|0,0:0|0:0,0:0:0:0:
280,164,43737,2,0,L|280:219,1,40,8|0,0:0|0:0,0:0:0:0:
207,249,44028,6,0,L|207:194,1,40,8|0,0:0|0:0,0:0:0:0:
278,283,44318,2,0,L|278:338,1,40,4|0,0:0|0:0,0:0:0:0:
207,249,44608,6,0,L|208:281,4,26.6666666666667,8|8|0|0|8,0:0|0:0|0:0|0:0|0:0,0:0:0:0:
206,237,44931,1,2,2:0:0:0:
285,131,45770,6,0,P|249:118|196:123,1,80,0|0,0:0|0:0,0:0:0:0:
124,173,46157,1,0,0:0:0:0:
93,34,46351,1,0,0:0:0:0:
126,183,46541,1,0,0:0:0:0:
76,249,47354,5,0,0:0:0:0:
78,259,47815,1,0,0:0:0:0:
80,269,48330,6,0,L|86:181,1,88.000002685547,2|2,0:0|0:0,0:0:0:0:
277,121,48602,1,0,0:0:0:0:
292,133,48739,2,0,L|298:220,1,88.000002685547,2|2,0:0|0:0,0:0:0:0:
108,81,49011,1,0,0:0:0:0:
93,93,49148,2,0,L|86:180,1,88.000002685547,2|2,0:0|0:0,0:0:0:0:
176,296,49420,5,0,0:0:0:0:
191,313,49557,2,0,P|234:319|274:302,1,88.000002685547,2|2,0:0|0:0,0:0:0:0:
373,150,49830,1,0,0:0:0:0:
146,211,49966,2,0,P|189:204|229:221,1,88.000002685547,2|0,0:0|0:0,0:0:0:0:
354,333,50239,2,0,P|360:289|343:249,1,88.000002685547,2|0,0:0|0:0,0:0:0:0:
146,211,50511,6,0,L|46:243,1,88.000002685547,2|2,0:0|0:0,0:0:0:0:
154,366,50784,1,0,0:0:0:0:
164,379,50920,2,0,L|186:276,1,88.000002685547,2|2,0:0|0:0,0:0:0:0:
230,80,51193,1,0,0:0:0:0:
220,67,51329,2,0,L|197:169,1,88.000002685547,2|0,0:0|0:0,0:0:0:0:
339,274,51602,5,0,0:0:0:0:
390,188,51739,2,0,B|347:173|347:173|294:184,1,88.000002685547,2|0,0:0|0:0,0:0:0:0:
279,351,52011,1,0,0:0:0:0:
287,367,52148,2,0,B|330:382|330:382|371:373,1,88.000002685547,2|0,0:0|0:0,0:0:0:0:
474,209,52420,1,2,0:0:0:0:
474,209,52489,1,0,0:0:0:0:
474,209,52557,2,0,L|464:271,1,44.0000013427735,0|0,0:0|0:0,0:0:0:0:
339,274,52693,6,0,L|231:265,1,88.000002685547,4|0,0:0|0:0,0:0:0:0:
75,177,52966,1,0,0:0:0:0:
65,158,53102,2,0,L|173:149,1,88.000002685547,2|2,0:0|0:0,0:0:0:0:
180,317,53375,1,0,0:0:0:0:
190,336,53511,2,0,L|82:345,1,88.000002685547,2|2,0:0|0:0,0:0:0:0:
55,171,53784,5,0,0:0:0:0:
65,158,53920,2,0,P|78:230|64:268,1,88.000002685547,2|2,0:0|0:0,0:0:0:0:
0,384,54193,1,0,0:0:0:0:
0,384,54330,2,0,L|70:378,1,44.0000013427735,4|0,0:0|0:0,0:0:0:0:
190,336,54466,1,0,0:0:0:0:
25,310,54602,1,2,0:0:0:0:
205,342,54739,1,0,0:0:0:0:
179,171,54875,6,0,B|189:198|189:198|177:275,1,88.000002685547,4|0,0:0|0:0,0:0:0:0:
116,364,55148,1,2,0:0:0:0:
292,308,55284,2,0,L|376:282,1,88.000002685547,2|2,0:0|0:0,0:0:0:0:
179,171,55557,1,0,0:0:0:0:
360,203,55693,2,0,L|469:222,1,88.000002685547,2|0,0:0|0:0,0:0:0:0:
315,92,55966,5,4,0:0:0:0:
219,258,56102,1,0,0:0:0:0:
204,82,56239,1,4,0:0:0:0:
127,262,56375,1,0,0:0:0:0:
39,50,56511,6,0,L|46:94,3,44.0000013427735,4|0|0|0,0:0|0:0|0:0|0:0,0:0:0:0:
81,160,56784,5,4,0:0:0:0:
123,169,56852,1,0,0:0:0:0:
165,157,56920,1,0,0:0:0:0:
194,125,56988,1,0,0:0:0:0:
204,82,57057,6,0,P|163:76|113:86,1,88.000002685547,4|0,0:0|0:0,0:0:0:0:
10,230,57330,1,8,0:0:0:0:
243,328,57466,2,0,P|262:277|259:219,1,88.000002685547,0|0,0:0|0:0,0:0:0:0:
117,84,57739,1,0,0:0:0:0:
87,278,57875,6,0,P|136:288|203:263,1,88.000002685547,8|0,0:0|0:0,0:0:0:0:
239,78,58148,1,0,0:0:0:0:
239,78,58284,2,0,L|241:172,1,88.000002685547,0|8,0:0|0:0,0:0:0:0:
243,328,58557,1,0,0:0:0:0:
117,84,58693,6,0,B|110:131|110:131|120:182,1,88.000002685547,0|0,0:0|0:0,0:0:0:0:
243,328,58966,2,0,B|250:281|250:281|240:230,1,88.000002685547,8|0,0:0|0:0,0:0:0:0:
32,180,59239,6,0,P|74:166|130:176,1,88.000002685547,0|0,0:0|0:0,0:0:0:0:
242,241,59511,1,8,0:0:0:0:
443,180,59648,2,0,P|401:166|345:176,1,88.000002685547,0|0,0:0|0:0,0:0:0:0:
242,247,59920,1,0,0:0:0:0:
195,119,60057,6,0,P|215:63|276:130,1,176.000005371094,8|0,0:0|0:0,0:0:0:0:
156,249,60466,2,0,P|112:255|69:246,1,88.000002685547,0|8,0:0|0:0,0:0:0:0:
32,180,60738,1,0,0:0:0:0:
219,331,60875,2,0,P|237:282|241:218,1,88.000002685547,0|0,0:0|0:0,0:0:0:0:
314,76,61148,2,0,P|296:125|292:189,1,88.000002685547,8|0,0:0|0:0,0:0:0:0:
318,359,61420,5,2,0:0:0:0:
390,196,61557,1,2,0:0:0:0:
313,368,61693,1,10,0:0:0:0:
175,145,61830,5,0,0:0:0:0:
184,323,61967,1,0,0:0:0:0:
175,133,62103,1,0,0:0:0:0:
56,255,62239,6,0,P|108:237|158:245,1,88.000002685547,10|2,0:0|0:0,0:0:0:0:
313,368,62511,1,2,0:0:0:0:
262,135,62648,2,0,P|244:187|281:326,1,176.000005371094,0|0,0:0|0:0,0:0:0:0:
393,376,63057,5,4,0:0:0:0:
320,210,63193,1,0,0:0:0:0:
210,376,63330,1,12,0:0:0:0:
140,239,63466,1,0,0:0:0:0:
210,376,63602,5,4,0:0:0:0:
222,357,63670,1,0,0:0:0:0:
230,336,63738,1,0,0:0:0:0:
235,315,63806,1,0,0:0:0:0:
238,293,63874,1,8,0:0:0:0:
237,271,63942,1,0,0:0:0:0:
233,249,64011,1,0,0:0:0:0:
226,229,64079,1,0,0:0:0:0:
212,209,64148,6,0,L|160:159,3,44.0000013427735,4|0|8|0,0:0|0:0|0:0|0:0,0:0:0:0:
284,73,64420,2,0,L|272:139,3,44.0000013427735,4|0|0|0,0:0|0:0|0:0|0:0,0:0:0:0:
391,80,64693,6,0,L|380:144,1,44.0000013427735,12|0,0:0|0:0,0:0:0:0:
279,238,64830,2,0,L|290:174,1,44.0000013427735,0|0,0:0|0:0,0:0:0:0:
408,94,64966,2,0,L|396:157,1,44.0000013427735,0|0,0:0|0:0,0:0:0:0:
296,252,65103,2,0,L|307:188,1,44.0000013427735,8|0,0:0|0:0,0:0:0:0:
411,214,65239,5,0,0:0:0:0:
403,212,65307,1,0,0:0:0:0:
394,210,65375,1,0,0:0:0:0:
386,209,65443,1,0,0:0:0:0:
377,207,65511,1,0,0:0:0:0:
377,207,65784,5,4,0:0:0:0:
425,352,66193,1,2,0:0:0:0:
121,320,66602,1,2,0:0:0:0:
420,246,67148,5,2,0:0:0:0:
283,193,67420,1,2,0:0:0:0:
362,305,67693,1,2,0:0:0:0:
390,45,67966,1,0,0:0:0:0:
319,307,68784,5,2,0:0:0:0:
325,325,68920,1,2,0:0:0:0:
325,325,69739,5,2,0:0:0:0:
221,279,69875,1,2,0:0:0:0:
104,319,70011,1,2,0:0:0:0:
0,273,70148,5,0,0:0:0:0:
0,267,70284,1,0,0:0:0:0:
0,261,70420,1,0,0:0:0:0:
0,256,70557,1,0,0:0:0:0:
1,250,70693,1,0,0:0:0:0:
1,245,70829,1,0,0:0:0:0:
1,239,70966,1,0,0:0:0:0:
2,233,71102,1,0,0:0:0:0:
109,98,71375,5,2,0:0:0:0:
77,230,71511,1,2,0:0:0:0:
39,58,71784,1,0,0:0:0:0:
82,254,72057,1,0,0:0:0:0:
268,92,72330,6,0,L|273:162,1,55.9999982910157,2|0,0:0|0:0,0:0:0:0:
313,286,72602,5,2,0:0:0:0:
359,138,72739,1,2,0:0:0:0:
183,196,73966,6,0,L|108:191,1,55.9999982910157,2|0,0:0|0:0,0:0:0:0:
277,245,74239,2,0,L|341:239,1,47.9999985351563,2|0,0:0|0:0,0:0:0:0:
200,277,74511,6,0,L|193:317,2,40,2|0|0,0:0|0:0|0:0,0:0:0:0:
183,196,74920,2,0,L|180:142,1,40,2|0,0:0|0:0,0:0:0:0:
176,64,75193,5,2,0:0:0:0:
261,101,75330,1,2,0:0:0:0:
359,76,75466,1,2,0:0:0:0:
444,113,75602,6,0,B|439:161|439:161|440:176|440:176|434:221,1,95.9999970703126,2|0,0:0|0:0,0:0:0:0:
358,277,76011,2,0,L|373:175,1,95.9999970703126,2|0,0:0|0:0,0:0:0:0:
390,346,76420,2,0,P|367:352|322:345,1,47.9999985351563,2|0,0:0|0:0,0:0:0:0:
239,310,76693,6,0,L|188:313,1,40,2|0,0:0|0:0,0:0:0:0:
304,256,76966,2,0,L|347:263,2,40,2|2|0,0:0|0:0|0:0,0:0:0:0:
158,232,77375,5,2,0:0:0:0:
160,243,77511,1,2,0:0:0:0:
162,250,77648,2,0,L|167:274,1,20,0|0,0:0|0:0,0:0:0:0:
213,177,77784,5,2,0:0:0:0:
177,345,77920,1,0,0:0:0:0:
134,155,78057,1,0,0:0:0:0:
177,357,78193,1,0,0:0:0:0:
286,213,78330,5,2,0:0:0:0:
70,240,78466,1,0,0:0:0:0:
295,211,78602,1,2,0:0:0:0:
60,240,78739,1,0,0:0:0:0:
184,343,78875,6,0,P|230:289|321:301,1,160,2|0,0:0|0:0,0:0:0:0:
266,365,79693,5,2,0:0:0:0:
199,203,79830,2,0,L|179:154,1,40,2|0,0:0|0:0,0:0:0:0:
320,261,80102,2,0,L|322:205,2,40,0|0|0,0:0|0:0|0:0,0:0:0:0:
399,346,80511,2,0,L|396:293,1,40,0|0,0:0|0:0,0:0:0:0:
452,230,80784,2,0,L|454:269,1,40,0|0,0:0|0:0,0:0:0:0:
399,346,81057,6,0,L|498:359,1,80,4|0,0:0|0:0,0:0:0:0:
320,261,81330,1,8,0:0:0:0:
212,314,81466,6,0,L|132:303,2,80,4|0|8,0:0|0:0|0:0,0:0:0:0:
399,346,81875,1,4,0:0:0:0:
246,159,82011,5,0,0:0:0:0:
296,358,82148,1,4,0:0:0:0:
423,190,82284,1,4,0:0:0:0:
212,314,82420,1,4,0:0:0:0:
399,346,82556,1,4,0:0:0:0:
272,257,82693,6,0,P|305:228|351:220,1,64,0|0,0:0|0:0,0:0:0:0:
212,314,82966,2,0,P|179:285|133:277,1,64,0|0,0:0|0:0,0:0:0:0:
296,358,83239,6,0,B|363:321|438:360|438:360|379:305|397:231,1,256,4|8,0:0|0:0,0:0:0:0:
467,158,83648,2,0,P|389:189|427:63,1,256,2|0,0:0|0:0,0:0:0:0:
472,171,84057,1,10,0:0:0:0:
456,297,84193,6,0,L|495:-2,1,256,4|0,0:0|0:0,0:0:0:0:
310,121,84602,6,0,P|265:166|290:275,1,128,10|0,0:0|0:0,0:0:0:0:
456,297,84875,2,0,P|400:265|301:317,1,128,2|0,0:0|0:0,0:0:0:0:
133,341,85148,2,0,P|194:357|276:281,1,128,10|0,0:0|0:0,0:0:0:0:
356,191,85420,5,2,0:0:0:0:
187,279,85557,1,0,0:0:0:0:
362,183,85693,2,0,L|205:157,1,128,8|0,0:0|0:0,0:0:0:0:
26,211,85966,2,0,L|153:195,1,128,0|0,0:0|0:0,0:0:0:0:
299,51,86239,1,10,0:0:0:0:
266,248,86375,1,2,0:0:0:0:
116,64,86511,5,0,0:0:0:0:
187,279,86648,1,0,0:0:0:0:
311,144,86784,2,0,P|255:118|169:175,1,128,12|0,0:0|0:0,0:0:0:0:
106,289,87057,1,0,0:0:0:0:
329,236,87193,6,0,L|243:253,1,64,2|0,0:0|0:0,0:0:0:0:
311,144,87330,2,0,L|235:192,1,64,10|0,0:0|0:0,0:0:0:0:
211,61,87466,2,0,L|175:128,1,64,2|0,0:0|0:0,0:0:0:0:
68,34,87602,5,6,0:0:0:0:
187,279,87739,1,2,0:0:0:0:
295,50,87875,1,10,0:0:0:0:
184,291,88012,1,2,0:0:0:0:
107,112,88148,5,2,0:0:0:0:
244,350,88285,1,2,0:0:0:0:
311,144,88420,1,10,0:0:0:0:
130,344,88557,6,0,P|109:277|172:219,1,128,2|0,0:0|0:0,0:0:0:0:
388,286,88830,1,2,0:0:0:0:
388,286,88966,2,0,L|240:272,1,128,14|0,0:0|0:0,0:0:0:0:
86,180,89239,6,0,P|150:155|224:177,1,128,2|0,0:0|0:0,0:0:0:0:
388,286,89511,2,0,P|363:222|385:148,1,128,10|0,0:0|0:0,0:0:0:0:
297,26,89784,2,0,L|286:181,1,128,6|0,0:0|0:0,0:0:0:0:
275,348,90057,1,10,0:0:0:0:
86,180,90193,2,0,P|148:190|226:94,1,192,2|0,0:0|0:0,0:0:0:0:
319,42,90466,5,0,0:0:0:0:
360,70,90534,1,0,0:0:0:0:
385,114,90602,1,8,0:0:0:0:
386,165,90670,1,0,0:0:0:0:
364,211,90738,1,0,0:0:0:0:
323,241,90806,1,0,0:0:0:0:
272,248,90875,5,4,0:0:0:0:
280,238,90943,1,0,0:0:0:0:
289,229,91011,1,0,0:0:0:0:
300,222,91079,1,0,0:0:0:0:
312,217,91147,1,8,0:0:0:0:
324,213,91215,1,0,0:0:0:0:
337,211,91284,1,0,0:0:0:0:
349,211,91352,1,0,0:0:0:0:
364,211,91420,6,0,L|300:193,3,64,0|0|0|0,0:0|0:0|0:0|0:0,0:0:0:0:
241,243,91693,2,0,L|177:225,3,64,8|0|0|0,0:0|0:0|0:0|0:0,0:0:0:0:
120,179,91966,6,0,L|109:94,2,85.3333333333333,4|0|0,0:0|0:0|0:0,0:0:0:0:
179,225,92239,2,0,L|168:309,2,85.3333333333333,8|0|0,0:0|0:0|0:0,0:0:0:0:
309,146,92511,5,0,0:0:0:0:
307,166,92601,1,0,0:0:0:0:
305,187,92692,1,0,0:0:0:0:
260,219,92784,5,8,0:0:0:0:
330,215,92874,1,0,0:0:0:0:
399,212,92965,1,0,0:0:0:0:
462,158,93057,5,4,0:0:0:0:
390,130,93148,1,0,0:0:0:0:
321,127,93239,1,0,0:0:0:0:
265,149,93330,1,8,0:0:0:0:
224,179,93420,1,0,0:0:0:0:
182,187,93511,1,0,0:0:0:0:
132,117,93602,5,0,0:0:0:0:
60,145,93693,1,0,0:0:0:0:
33,207,93784,1,0,0:0:0:0:
50,264,93875,1,8,0:0:0:0:
92,293,93966,1,0,0:0:0:0:
134,288,94057,1,0,0:0:0:0:
199,233,94148,5,4,0:0:0:0:
272,210,94239,1,0,0:0:0:0:
337,227,94330,1,0,0:0:0:0:
384,262,94420,1,8,0:0:0:0:
432,277,94511,1,0,0:0:0:0:
472,264,94602,1,0,0:0:0:0:
488,247,94693,6,0,L|503:131,1,85.3333333333333
417,45,94830,1,0,0:0:0:0:
417,45,94898,1,0,0:0:0:0:
417,45,94966,2,0,P|407:78|411:113,1,64,8|0,0:0|0:0,0:0:0:0:
304,114,95102,2,0,P|311:147|332:175,1,64,0|0,0:0|0:0,0:0:0:0:
280,248,95239,5,4,0:0:0:0:
293,249,95307,1,0,0:0:0:0:
306,250,95375,1,0,0:0:0:0:
319,251,95443,1,0,0:0:0:0:
333,253,95511,2,0,L|314:181,3,64,12|0|0|0,0:0|0:0|0:0|0:0,0:0:0:0:
210,218,95784,5,4,0:0:0:0:
198,215,95852,1,0,0:0:0:0:
186,212,95920,1,0,0:0:0:0:
173,209,95988,1,0,0:0:0:0:
161,205,96057,2,0,L|180:277,3,64,12|0|0|0,0:0|0:0|0:0|0:0,0:0:0:0:
207,337,96330,6,0,B|272:313|390:351|390:351|339:338|311:299,1,256,4|8,0:0|0:0,0:0:0:0:
260,148,96739,2,0,B|235:180|246:235|246:235|215:166|234:103|234:103|256:54,1,256,4|0,0:0|0:0,0:0:0:0:
400,95,97148,2,0,P|403:158|385:219,1,128,0|0,0:0|0:0,0:0:0:0:
207,337,97420,2,0,L|471:323,1,256,12|8,0:0|0:0,0:0:0:0:
124,212,97830,6,0,B|88:278|135:340|135:340|137:286|177:257|238:266,1,256,4|0,0:0|0:0,0:0:0:0:
390,125,98239,2,0,P|289:163|246:142,1,128,0|0,0:0|0:0,0:0:0:0:
148,82,98511,5,6,0:0:0:0:
178,111,98601,1,2,0:0:0:0:
195,149,98692,1,2,0:0:0:0:
196,192,98783,1,0,0:0:0:0:
180,231,98874,1,0,0:0:0:0:
150,261,98965,1,0,0:0:0:0:
111,276,99056,5,2,0:0:0:0:
140,245,99147,1,2,0:0:0:0:
178,228,99238,1,2,0:0:0:0:
221,227,99329,1,0,0:0:0:0:
260,243,99420,1,0,0:0:0:0:
290,273,99511,1,0,0:0:0:0:
306,313,99602,6,0,P|272:333|223:338,1,85.3333333333333,8|0,0:0|0:0,0:0:0:0:
140,246,99784,2,0,P|139:206|159:161,1,85.3333333333333,0|8,0:0|0:0,0:0:0:0:
281,136,99966,2,0,P|315:155|344:195,1,85.3333333333333,0|0,0:0|0:0,0:0:0:0:
318,328,100148,6,0,P|282:350|241:360,1,85.3333333333333,4|4,0:0|0:0,0:0:0:0:
119,248,100330,2,0,P|117:206|131:166,1,85.3333333333333,4|0,0:0|0:0,0:0:0:0:
288,116,100511,2,0,P|325:136|354:168,1,85.3333333333333,0|0,0:0|0:0,0:0:0:0:
213,346,100693,6,0,L|108:336,1,80,4|0,0:0|0:0,0:0:0:0:
276,258,100965,1,8,0:0:0:0:
355,250,101102,2,0,L|250:260,1,80,2|2,0:0|0:0,0:0:0:0:
131,165,101374,1,2,0:0:0:0:
51,160,101511,2,0,L|132:165,1,80,10|0,0:0|0:0,0:0:0:0:
314,80,101783,5,2,0:0:0:0:
321,69,101920,2,0,P|281:61|238:80,1,80,2|8,0:0|0:0,0:0:0:0:
373,150,102193,1,0,0:0:0:0:
204,219,102329,2,0,P|247:212|281:225,1,80,2|0,0:0|0:0,0:0:0:0:
443,306,102602,2,0,P|399:300|366:314,1,80,10|0,0:0|0:0,0:0:0:0:
255,372,102874,6,0,L|163:362,1,80,2|2,0:0|0:0,0:0:0:0:
54,273,103147,1,10,0:0:0:0:
132,257,103283,2,0,L|38:275,1,80,2|0,0:0|0:0,0:0:0:0:
162,140,103556,1,0,0:0:0:0:
240,157,103693,2,0,L|143:135,1,80,10|2,0:0|0:0,0:0:0:0:
296,37,103965,5,2,0:0:0:0:
310,29,104102,2,0,B|295:126,1,80,2|8,0:0|0:0,0:0:0:0:
87,83,104375,1,0,0:0:0:0:
73,75,104512,2,0,B|87:167,1,80,2|0,0:0|0:0,0:0:0:0:
206,233,104783,1,10,0:0:0:0:
206,233,104852,1,0,0:0:0:0:
206,233,104920,2,0,L|198:291,1,40,0|0,0:0|0:0,0:0:0:0:
115,365,105056,6,0,L|101:265,1,80,6|2,0:0|0:0,0:0:0:0:
278,299,105329,1,10,0:0:0:0:
292,309,105465,2,0,L|310:211,1,80,2|0,0:0|0:0,0:0:0:0:
93,292,105739,1,0,0:0:0:0:
79,302,105875,2,0,L|61:204,1,80,10|2,0:0|0:0,0:0:0:0:
326,238,106147,5,2,0:0:0:0:
344,246,106284,2,0,L|362:148,1,80,2|8,0:0|0:0,0:0:0:0:
194,52,106556,1,0,0:0:0:0:
196,70,106693,2,0,L|200:115,1,40,2|0,0:0|0:0,0:0:0:0:
211,262,106829,1,0,0:0:0:0:
299,88,106965,1,10,0:0:0:0:
299,88,107102,1,0,0:0:0:0:
126,186,107239,6,0,P|168:177|232:201,1,80,4|0,0:0|0:0,0:0:0:0:
312,307,107511,1,8,0:0:0:0:
470,243,107648,2,0,P|428:234|364:258,1,80,2|0,0:0|0:0,0:0:0:0:
228,364,107920,1,0,0:0:0:0:
53,277,108057,2,0,P|95:268|159:292,1,80,10|0,0:0|0:0,0:0:0:0:
236,370,108330,5,6,0:0:0:0:
225,179,108466,1,0,0:0:0:0:
130,275,108602,1,8,0:0:0:0:
188,44,108739,1,0,0:0:0:0:
301,286,108875,5,0,0:0:0:0:
301,286,108943,1,0,0:0:0:0:
301,286,109011,1,0,0:0:0:0:
301,286,109080,1,0,0:0:0:0:
301,286,109148,1,8,0:0:0:0:
319,246,109216,1,0,0:0:0:0:
323,209,109284,1,0,0:0:0:0:
321,169,109352,1,0,0:0:0:0:
294,128,109420,6,0,P|274:70|281:10,1,95.9999970703126,4|0,0:0|0:0,0:0:0:0:
408,203,109693,1,8,0:0:0:0:
408,203,109830,2,0,P|432:163|425:98,1,95.9999970703126,2|8,0:0|0:0,0:0:0:0:
185,228,110102,1,0,0:0:0:0:
185,228,110239,2,0,P|161:188|168:123,1,95.9999970703126,10|0,0:0|0:0,0:0:0:0:
427,67,110511,6,0,P|451:107|444:172,1,95.9999970703126,8|2,0:0|0:0,0:0:0:0:
272,294,110784,1,8,0:0:0:0:
320,93,110920,1,0,0:0:0:0:
272,294,111057,6,0,L|264:172,1,95.9999970703126,10|0,0:0|0:0,0:0:0:0:
154,44,111330,2,0,L|160:139,1,95.9999970703126,10|0,0:0|0:0,0:0:0:0:
173,316,111602,5,10,0:0:0:0:
57,165,111739,1,0,0:0:0:0:
173,316,111875,1,8,0:0:0:0:
342,205,112011,2,0,L|233:189,1,95.9999970703126,2|8,0:0|0:0,0:0:0:0:
56,164,112284,1,0,0:0:0:0:
335,278,112420,2,0,L|226:262,1,95.9999970703126,10|0,0:0|0:0,0:0:0:0:
43,241,112693,5,8,0:0:0:0:
271,137,112830,1,2,0:0:0:0:
173,316,112966,1,8,0:0:0:0:
123,122,113102,1,0,0:0:0:0:
173,316,113239,2,0,L|178:193,1,95.9999970703126,10|0,0:0|0:0,0:0:0:0:
261,41,113511,2,0,L|273:166,1,95.9999970703126,10|0,0:0|0:0,0:0:0:0:
279,325,113784,5,6,0:0:0:0:
352,148,113920,1,2,0:0:0:0:
371,275,114057,1,10,0:0:0:0:
240,329,114193,5,2,0:0:0:0:
311,143,114330,1,0,0:0:0:0:
371,275,114466,1,0,0:0:0:0:
202,334,114602,5,10,0:0:0:0:
270,136,114739,1,2,0:0:0:0:
371,275,114875,1,2,0:0:0:0:
164,338,115011,5,2,0:0:0:0:
235,130,115148,1,8,0:0:0:0:
371,275,115284,1,0,0:0:0:0:
103,274,115420,6,0,L|210:259,1,95.9999970703126,4|0,0:0|0:0,0:0:0:0:
356,231,115693,2,0,L|226:219,1,95.9999970703126,12|0,0:0|0:0,0:0:0:0:
73,200,115966,1,4,0:0:0:0:
267,132,116102,1,0,0:0:0:0:
104,75,116239,1,8,0:0:0:0:
346,149,116375,5,4,0:0:0:0:
183,206,116511,1,0,0:0:0:0:
377,274,116648,1,8,0:0:0:0:
183,128,116784,5,4,0:0:0:0:
418,198,116920,1,0,0:0:0:0:
235,300,117057,6,0,L|301:291,1,40,0|0,0:0|0:0,0:0:0:0:
459,268,117193,1,0,0:0:0:0:
262,219,117329,1,0,0:0:0:0:
418,198,117465,1,0,0:0:0:0:
297,138,117602,1,0,0:0:0:0:
374,296,117739,1,8,0:0:0:0:
408,116,117875,1,8,0:0:0:0:
376,284,118011,1,8,0:0:0:0:
214,220,118148,5,8,0:2:0:0:
230,219,118238,1,8,0:2:0:0:
246,219,118329,1,8,0:2:0:0:
262,219,118420,1,0,0:0:0:0:
133,331,118602,5,0,0:0:0:0:
133,331,118693,1,4,0:2:0:0:
256,192,118761,12,0,122443,0:0:0:0:
