osu file format v14

[General]
AudioFilename: audio.mp3
AudioLeadIn: 0
PreviewTime: 82631
Countdown: 0
SampleSet: Soft
StackLeniency: 0.2
Mode: 0
LetterboxInBreaks: 0
WidescreenStoryboard: 0

[Editor]
Bookmarks: 7835,14029,29512,48336,65790,109426,118699
DistanceSpacing: 0.8
BeatDivisor: 6
GridSize: 4
TimelineZoom: 2

[Metadata]
Title:Preserved Valkyria
TitleUnicode:Preserved Valkyria
Artist:penoreri
ArtistUnicode:ぺのれり
Creator:Alheak
Version:INFINITE
Source:SOUND VOLTEX III GRAVITY WARS
Tags:konami sdvx 3 kac Song Contest Champion GoldenWolf Ponoyoshi pono Ayyri Realazy real bemani
BeatmapID:933538
BeatmapSetID:433002

[Difficulty]
HPDrainRate:6
CircleSize:4.2
OverallDifficulty:9
ApproachRate:9.5
SliderMultiplier:2
SliderTickRate:1

[Events]
//Background and Video events
0,0,"bg.jpg",0,0
//Break Periods
2,29583,32084
//Storyboard Layer 0 (Background)
//Storyboard Layer 1 (Fail)
//Storyboard Layer 2 (Pass)
//Storyboard Layer 3 (Foreground)
//Storyboard Sound Samples

[TimingPoints]
93,387.096774193548,4,2,1,40,1,0
1254,-400,4,2,1,40,0,0
1544,-400,4,2,1,20,0,0
1641,-200,4,2,1,60,0,0
9383,-133.333333333333,4,2,1,60,0,0
10931,-200,4,2,1,60,0,0
14028,-133.333333333333,4,2,1,65,0,0
32609,-200,4,2,1,65,0,0
34109,-200,4,2,1,5,0,0
34157,-200,4,2,1,65,0,0
35657,-200,4,2,1,5,0,0
35705,-200,4,2,1,65,0,0
38415,-200,4,3,1,65,0,0
39576,-200,4,2,1,65,0,0
41125,-200,4,3,1,65,0,0
41899,-200,4,2,1,65,0,0
42092,-200,4,3,1,65,0,0
42286,-200,4,2,1,65,0,0
43383,-200,4,3,1,65,0,0
44609,-200,4,2,1,65,0,0
44673,-200,4,3,1,65,0,0
46541,400,4,2,1,70,1,0
46941,413.793103448276,4,2,1,70,1,0
47354,461.538461538462,4,2,1,70,1,0
47815,521.739130434783,4,2,1,70,1,0
48330,272.727272727273,4,2,1,70,1,0
48330,-133.333333333333,4,2,1,70,0,0
57057,-100,4,2,1,70,0,0
65332,-100,4,3,1,70,0,0
65784,-200,4,2,1,70,0,0
81057,-133.333333333333,4,2,1,70,0,0
82148,-133.333333333333,4,3,1,70,0,0
83239,-100,4,2,1,70,0,1
91830,-100,4,3,1,70,0,1
91966,-100,4,2,1,70,0,1
99602,-100,4,3,1,70,0,1
100693,-100,4,2,1,70,0,0
118148,-100,4,3,1,70,0,0

[Colours]
Combo1 : 228,221,69
Combo2 : 203,216,228
Combo3 : 89,120,193
Combo4 : 232,206,189
Combo5 : 228,86,50
Combo6 : 234,231,206

[HitObjects]
124,173,1254,22,0,L|119:210,1,37.5
60,298,1641,69,4,0:0:0:0:
385,239,2028,1,2,0:0:0:0:
124,173,2415,1,2,0:0:0:0:
322,130,2705,1,2,0:0:0:0:
188,48,2996,1,2,0:0:0:0:
176,40,3383,6,0,L|110:33,1,50,2|0,0:0|0:0,0:0:0:0:
226,119,3770,1,0,0:0:0:0:
374,58,3963,2,0,L|448:50,1,75,2|0,0:0|0:0,0:0:0:0:
325,175,4544,1,2,0:0:0:0:
325,175,4931,69,0,0:0:0:0:
306,107,5028,1,2,0:0:0:0:
188,215,5222,1,0,0:0:0:0:
207,147,5318,2,0,L|217:253,1,100,2|0,0:0|0:0,0:0:0:0:
283,308,5899,1,0,0:0:0:0:
115,277,6092,6,0,P|119:254|115:219,1,50,2|0,0:0|0:0,0:0:0:0:
114,196,6383,1,0,0:0:0:0:
100,168,6480,1,0,0:0:0:0:
80,144,6576,1,0,0:0:0:0:
46,123,6673,1,0,0:0:0:0:
80,120,6770,1,0,0:0:0:0:
114,117,6867,1,0,0:0:0:0:
148,114,6963,1,0,0:0:0:0:
192,123,7060,70,0,B|241:128|241:128|302:113,1,100,2|2,0:0|0:0,0:0:0:0:
304,102,7834,6,0,P|341:91|359:90,1,50,4|2,0:0|0:0,0:0:0:0:
483,154,8125,1,2,0:0:0:0:
483,154,8222,2,0,P|458:147|434:147,1,50,2|2,0:0|0:0,0:0:0:0:
301,208,8512,1,2,0:0:0:0:
301,208,8609,2,0,P|333:191|351:188,1,50,2|2,0:0|0:0,0:0:0:0:
488,266,8899,1,2,0:0:0:0:
488,266,8996,2,0,P|465:252|442:246,1,50,2|2,0:0|0:0,0:0:0:0:
212,270,9286,1,2,0:0:0:0:
199,285,9383,70,0,L|208:366,1,75.0000028610231,2|2,0:0|0:0,0:0:0:0:
333,173,9673,1,2,0:0:0:0:
346,188,9770,2,0,L|337:269,1,75.0000028610231,2|2,0:0|0:0,0:0:0:0:
173,53,10060,1,2,0:0:0:0:
160,68,10157,2,0,L|169:149,1,75.0000028610231,2|2,0:0|0:0,0:0:0:0:
346,188,10544,2,0,L|355:107,1,75.0000028610231,2|2,0:0|0:0,0:0:0:0:
169,143,10931,6,0,L|136:137,1,33.3333333333333
243,113,11189,1,2,0:0:0:0:
306,222,11318,2,0,L|338:216,1,33.3333333333333
232,192,11576,1,2,0:0:0:0:
169,301,11705,2,0,L|136:295,1,33.3333333333333
243,271,11963,1,2,0:0:0:0:
306,380,12092,2,0,L|338:374,1,33.3333333333333
232,350,12350,1,2,0:0:0:0:
398,294,12480,70,0,P|406:260|406:237,1,50
402,215,12770,1,0,0:0:0:0:
390,187,12867,1,0,0:0:0:0:
383,157,12963,1,0,0:0:0:0:
382,126,13060,1,0,0:0:0:0:
392,97,13157,1,0,0:0:0:0:
424,73,13254,1,2,0:0:0:0:
208,34,13641,1,2,0:0:0:0:
291,258,14028,53,4,0:0:0:0:
305,168,14222,1,0,0:0:0:0:
234,110,14415,1,2,0:0:0:0:
148,142,14609,1,0,0:0:0:0:
305,168,14802,6,0,L|359:177,1,37.5000014305115,2|0,0:0|0:0,0:0:0:0:
220,200,14996,1,0,0:0:0:0:
220,200,15092,1,0,0:0:0:0:
220,200,15189,2,0,L|183:193,1,37.5000014305115,2|0,0:0|0:0,0:0:0:0:
291,258,15383,1,0,0:0:0:0:
291,258,15479,1,0,0:0:0:0:
291,258,15576,70,0,L|327:264,3,37.5000014305115,2|0|0|0,0:0|0:0|0:0|0:0,0:0:0:0:
206,290,15963,2,0,L|169:283,3,37.5000014305115,2|0|0|0,0:0|0:0|0:0|0:0,0:0:0:0:
104,231,16351,5,2,0:0:0:0:
99,216,16447,1,0,0:0:0:0:
94,201,16544,1,0,0:0:0:0:
89,186,16641,1,0,0:0:0:0:
84,171,16738,1,2,0:0:0:0:
120,177,16834,1,0,0:0:0:0:
156,167,16931,1,0,0:0:0:0:
182,140,17028,1,0,0:0:0:0:
191,103,17125,70,0,P|192:85|190:62,1,37.5000014305115,2|0,0:0|0:0,0:0:0:0:
310,79,17318,1,0,0:0:0:0:
347,73,17415,1,0,0:0:0:0:
384,67,17512,1,2,0:0:0:0:
411,102,17609,1,0,0:0:0:0:
419,145,17705,1,0,0:0:0:0:
410,189,17802,1,0,0:0:0:0:
371,224,17899,5,2,0:0:0:0:
357,274,17996,1,0,0:0:0:0:
376,322,18092,1,0,0:0:0:0:
426,337,18189,1,0,0:0:0:0:
467,304,18286,1,2,0:0:0:0:
430,294,18383,1,0,0:0:0:0:
393,284,18480,1,0,0:0:0:0:
357,274,18576,1,0,0:0:0:0:
371,224,18673,69,2,0:0:0:0:
341,227,18770,1,0,0:0:0:0:
311,230,18867,1,0,0:0:0:0:
281,233,18963,1,0,0:0:0:0:
251,236,19060,1,2,0:0:0:0:
225,208,19157,1,0,0:0:0:0:
221,170,19254,1,0,0:0:0:0:
235,135,19351,1,0,0:0:0:0:
245,91,19447,5,2,0:0:0:0:
232,47,19544,1,0,0:0:0:0:
198,17,19641,2,0,L|148:11,1,37.5000014305115,2|0,0:0|0:0,0:0:0:0:
315,46,19834,2,0,L|365:40,1,37.5000014305115,2|0,0:0|0:0,0:0:0:0:
158,96,20028,2,0,L|108:90,1,37.5000014305115,2|0,0:0|0:0,0:0:0:0:
306,223,20222,37,4,0:0:0:0:
306,223,20286,1,0,0:0:0:0:
306,223,20351,1,0,0:0:0:0:
306,223,20415,1,0,0:0:0:0:
306,223,20480,1,0,0:0:0:0:
306,223,20544,1,0,0:0:0:0:
306,223,20609,6,0,L|342:229,5,25.0000009536744
399,184,20996,21,0,0:0:0:0:
351,328,21189,1,2,0:0:0:0:
189,196,21383,1,2,0:0:0:0:
250,337,21576,1,2,0:0:0:0:
326,108,21770,70,0,B|332:63|332:63|326:23,1,75.0000028610231,4|0,0:0|0:0,0:0:0:0:
190,121,22157,2,0,B|184:166|184:166|190:206,1,75.0000028610231,2|0,0:0|0:0,0:0:0:0:
274,307,22544,2,0,L|317:312,1,37.5000014305115,2|0,0:0|0:0,0:0:0:0:
250,337,22738,6,0,L|239:262,1,75.0000028610231,4|0,0:0|0:0,0:0:0:0:
303,103,23028,2,0,L|313:177,1,75.0000028610231,4|0,0:0|0:0,0:0:0:0:
210,59,23318,69,6,0:0:0:0:
195,55,23415,1,2,0:0:0:0:
180,50,23512,1,2,0:0:0:0:
165,45,23609,1,2,0:0:0:0:
121,140,23802,1,2,0:0:0:0:
181,225,23996,1,2,0:0:0:0:
195,229,24092,1,2,0:0:0:0:
137,320,24287,1,2,0:0:0:0:
143,333,24383,1,2,0:0:0:0:
76,234,24576,1,2,0:0:0:0:
256,315,24770,1,2,0:0:0:0:
237,119,24963,5,2,0:0:0:0:
240,104,25060,1,2,0:0:0:0:
243,89,25157,1,2,0:0:0:0:
286,216,25351,1,2,0:0:0:0:
346,126,25544,1,2,0:0:0:0:
359,119,25641,1,2,0:0:0:0:
393,222,25834,1,2,0:0:0:0:
407,226,25931,1,2,0:0:0:0:
333,312,26125,1,2,0:0:0:0:
179,208,26318,1,2,0:0:0:0:
165,204,26415,69,6,0:0:0:0:
168,226,26512,1,2,0:0:0:0:
171,248,26609,1,2,0:0:0:0:
174,270,26705,1,2,0:0:0:0:
299,186,26899,1,2,0:0:0:0:
164,120,27092,1,2,0:0:0:0:
157,98,27189,1,2,0:0:0:0:
288,36,27383,1,2,0:0:0:0:
296,14,27480,1,2,0:0:0:0:
423,102,27673,1,2,0:0:0:0:
309,335,27867,1,2,0:0:0:0:
301,357,27963,5,6,0:0:0:0:
330,353,28060,1,2,0:0:0:0:
359,350,28157,1,2,0:0:0:0:
388,347,28254,1,2,0:0:0:0:
284,185,28447,1,2,0:0:0:0:
393,28,28641,2,0,L|435:24,1,37.5000014305115,2|4,0:0|0:0,0:0:0:0:
286,53,28867,69,4,0:0:0:0:
323,120,28996,1,4,0:0:0:0:
284,185,29125,1,4,0:0:0:0:
321,252,29254,1,4,0:0:0:0:
286,320,29383,1,4,0:0:0:0:
170,102,32609,21,2,0:0:0:0:
324,173,33383,5,4,0:0:0:0:
256,192,33431,12,2,34157,0:0:0:0:
256,192,34205,12,2,35705,0:0:0:0:
256,192,35754,12,8,38415,0:0:0:0:
156,104,38802,53,8,0:0:0:0:
168,101,38866,1,8,0:0:0:0:
180,100,38931,1,8,0:0:0:0:
193,100,38995,1,8,0:0:0:0:
205,102,39060,1,8,0:0:0:0:
217,105,39124,1,8,0:0:0:0:
229,108,39189,1,4,0:0:0:0:
241,113,39253,1,4,0:0:0:0:
253,116,39318,1,4,0:0:0:0:
265,118,39382,1,4,0:0:0:0:
278,117,39447,1,4,0:0:0:0:
290,116,39511,1,4,0:0:0:0:
316,106,39576,70,0,B|311:176|311:176|318:213,1,100,4|0,0:0|0:0,0:0:0:0:
419,341,40222,1,0,0:0:0:0:
419,341,40286,1,0,0:0:0:0:
419,341,40351,6,0,P|378:332|313:338,1,100,4|0,0:0|0:0,0:0:0:0:
307,342,41125,1,8,0:0:0:0:
372,206,41415,1,8,0:0:0:0:
288,79,41705,1,4,0:0:0:0:
391,103,41899,69,4,0:0:0:0:
245,172,42092,1,8,0:0:0:0:
235,176,42157,1,8,0:0:0:0:
225,178,42222,1,8,0:0:0:0:
215,177,42286,2,0,L|181:171,2,25,0|4|0,0:0|0:0|0:0,0:0:0:0:
234,248,42544,1,8,0:0:0:0:
237,260,42609,1,0,0:0:0:0:
237,273,42673,1,0,0:0:0:0:
234,286,42738,1,0,0:0:0:0:
229,298,42802,1,0,0:0:0:0:
222,309,42867,2,0,L|187:312,3,25,8|4|0|8,0:0|0:0|0:0|0:0,0:0:0:0:
120,274,43254,2,0,L|75:265,1,33.3333333333333,4|8,0:0|0:0,0:0:0:0:
126,361,43447,5,8,0:0:0:0:
192,223,43738,1,8,0:0:0:0:
105,96,44028,1,8,0:0:0:0:
232,9,44318,1,4,0:0:0:0:
370,75,44609,2,0,L|398:72,1,16.6666666666667,8|8,0:0|0:0,0:0:0:0:
305,134,44802,2,0,L|288:132,2,16.6666666666667,0|8|2,0:0|0:0|2:0,0:0:0:0:
256,192,44996,12,0,47815,0:0:0:0:
405,65,48330,37,2,0:0:0:0:
405,65,48466,2,0,L|330:75,1,75.0000028610231,2|0,0:0|0:0,0:0:0:0:
170,108,48739,1,2,0:0:0:0:
170,108,48875,2,0,L|245:118,1,75.0000028610231,2|0,0:0|0:0,0:0:0:0:
405,151,49148,1,2,0:0:0:0:
405,151,49284,2,0,L|330:161,1,75.0000028610231,2|0,0:0|0:0,0:0:0:0:
170,194,49557,1,2,0:0:0:0:
170,194,49693,2,0,L|245:204,1,75.0000028610231,2|0,0:0|0:0,0:0:0:0:
352,325,49966,2,0,L|324:256,1,75.0000028610231,2|0,0:0|0:0,0:0:0:0:
375,101,50239,2,0,L|329:161,1,75.0000028610231,2|0,0:0|0:0,0:0:0:0:
185,349,50511,5,2,0:0:0:0:
185,349,50648,2,0,B|214:331|214:331|240:299,1,75.0000028610231,2|0,0:0|0:0,0:0:0:0:
394,278,50920,1,2,0:0:0:0:
394,278,51057,2,0,B|365:262|365:262|324:256,1,75.0000028610231,2|0,0:0|0:0,0:0:0:0:
161,245,51330,2,0,B|118:249|118:249|86:241,1,75.0000028610231,2|0,0:0|0:0,0:0:0:0:
151,88,51602,1,0,0:0:0:0:
300,108,51739,2,0,B|341:101|341:101|370:85,2,75.0000028610231,2|0|0,0:0|0:0|0:0,0:0:0:0:
186,235,52148,2,0,P|175:279|179:316,1,75.0000028610231,2|0,0:0|0:0,0:0:0:0:
337,347,52420,2,0,P|338:309|328:273,1,75.0000028610231,2|0,0:0|0:0,0:0:0:0:
248,60,52693,70,0,P|256:102|346:155,1,150.000005722046,4|0,0:0|0:0,0:0:0:0:
412,58,53102,1,2,0:0:0:0:
412,58,53239,2,0,L|338:64,1,75.0000028610231,2|0,0:0|0:0,0:0:0:0:
159,79,53511,1,2,0:0:0:0:
159,79,53648,2,0,P|158:41|172:7,1,75.0000028610231,2|0,0:0|0:0,0:0:0:0:
199,197,53920,1,2,0:0:0:0:
199,197,54057,2,0,P|199:234|185:268,1,75.0000028610231,2|0,0:0|0:0,0:0:0:0:
341,155,54330,2,0,B|455:162|455:162|423:178,1,150.000005722046,4|2,0:0|0:0,0:0:0:0:
186,269,54875,6,0,B|72:276|72:276|103:292,1,150.000005722046,4|2,0:0|0:0,0:0:0:0:
248,337,55284,1,2,0:0:0:0:
248,337,55420,2,0,P|269:306|277:269,1,75.0000028610231,2|0,0:0|0:0,0:0:0:0:
204,121,55693,2,0,P|212:158|233:189,1,75.0000028610231,2|0,0:0|0:0,0:0:0:0:
370,115,55966,22,0,L|296:122,1,75.0000028610231,4|0,0:0|0:0,0:0:0:0:
426,188,56239,2,0,L|500:195,1,75.0000028610231,4|0,0:0|0:0,0:0:0:0:
382,270,56511,2,0,L|307:276,1,75.0000028610231,4|0,0:0|0:0,0:0:0:0:
438,343,56784,1,4,0:0:0:0:
462,314,56852,1,0,0:0:0:0:
473,278,56920,1,0,0:0:0:0:
469,240,56989,1,0,0:0:0:0:
426,188,57057,6,0,P|427:137|435:85,1,100,4|0,0:0|0:0,0:0:0:0:
298,1,57330,1,8,0:0:0:0:
298,1,57466,2,0,P|305:50|306:100,1,100
128,282,57739,1,0,0:0:0:0:
167,150,57875,2,0,L|149:44,1,100,8|0,0:0|0:0,0:0:0:0:
306,101,58148,5,0,0:0:0:0:
267,233,58284,2,0,L|285:340,2,100,0|8|0,0:0|0:0|0:0,0:0:0:0:
416,322,58693,2,0,P|451:280|458:226,1,100
356,81,58966,2,0,P|374:132|418:165,1,100,8|0,0:0|0:0,0:0:0:0:
225,107,59239,70,0,P|159:95|71:210,1,200,0|8,0:0|0:0,0:0:0:0:
136,317,59648,2,0,P|185:316|235:308,1,100
334,118,59920,1,0,0:0:0:0:
376,230,60057,2,0,P|326:229|276:221,1,100,8|0,0:0|0:0,0:0:0:0:
107,77,60330,5,0,0:0:0:0:
45,196,60466,2,0,P|95:195|145:187,1,100,0|8,0:0|0:0,0:0:0:0:
361,111,60739,1,0,0:0:0:0:
361,111,60875,2,0,P|409:121|446:154,1,100
273,263,61148,2,0,P|257:215|267:167,1,100,8|0,0:0|0:0,0:0:0:0:
458,277,61420,69,2,0:0:0:0:
349,210,61557,1,2,0:0:0:0:
463,292,61693,1,10,0:0:0:0:
325,348,61830,2,0,P|275:347|225:339,2,100
186,198,62239,5,10,0:0:0:0:
129,336,62375,1,2,0:0:0:0:
200,190,62511,1,2,0:0:0:0:
342,267,62648,2,0,P|391:266|441:258,2,100,0|12|0,0:0|0:0|0:0,0:0:0:0:
95,152,63057,2,0,L|79:265,1,100,4|0,0:0|0:0,0:0:0:0:
277,100,63330,2,0,L|292:199,1,100,12|0,0:0|0:0,0:0:0:0:
75,40,63602,70,0,P|125:42|174:31,1,100,4|0,0:0|0:0,0:0:0:0:
220,12,63807,1,0,0:0:0:0:
268,2,63875,1,8,0:0:0:0:
312,6,63943,1,0,0:0:0:0:
347,23,64011,1,0,0:0:0:0:
372,54,64080,1,0,0:0:0:0:
385,91,64148,1,4,0:0:0:0:
384,125,64216,1,0,0:0:0:0:
373,153,64284,1,8,0:0:0:0:
351,173,64352,1,0,0:0:0:0:
323,184,64420,1,4,0:0:0:0:
305,220,64489,1,0,0:0:0:0:
306,259,64557,2,0,P|308:284|317:315,1,50
143,254,64693,6,0,P|102:296|95:346,1,100,12|0,0:0|0:0,0:0:0:0:
217,178,64966,1,0,0:0:0:0:
217,178,65102,2,0,P|211:123|220:73,1,100,8|0,0:0|0:0,0:0:0:0:
254,39,65330,1,8,0:0:0:0:
305,28,65420,1,8,0:0:0:0:
357,37,65511,2,8,P|389:44|427:46,1,66.6666666666667
358,118,65693,1,4,0:0:0:0:
388,192,65784,38,0,B|410:215|438:219|438:219|460:266|435:309,2,150,4|2|2,0:0|0:0|0:0,0:0:0:0:
384,174,67148,1,2,0:0:0:0:
292,134,67420,1,2,0:0:0:0:
211,193,67693,1,2,0:0:0:0:
221,292,67966,6,0,P|211:324|45:252,1,300,0|2,0:0|0:0,0:0:0:0:
131,281,68920,2,0,B|139:238|122:202|86:180|86:180|70:86|70:86|110:106,1,250,2|0,0:0|0:0,0:0:0:0:
185,139,69739,1,2,0:0:0:0:
258,84,69875,1,2,0:0:0:0:
342,119,70011,1,2,0:0:0:0:
415,49,70148,69,0,0:0:0:0:
424,46,70284,1,0,0:0:0:0:
433,43,70420,1,0,0:0:0:0:
442,40,70557,1,0,0:0:0:0:
451,37,70693,1,0,0:0:0:0:
460,34,70830,1,0,0:0:0:0:
469,31,70966,1,0,0:0:0:0:
478,29,71102,1,0,0:0:0:0:
459,189,71375,1,2,0:0:0:0:
459,189,71511,1,2,0:0:0:0:
302,122,71784,2,0,P|237:126|196:142,1,100
348,217,72330,5,2,0:0:0:0:
178,273,72602,1,2,0:0:0:0:
178,273,72739,2,0,P|130:258|80:257,2,100,2|0|2,0:0|0:0|0:0,0:0:0:0:
319,326,73966,1,2,0:0:0:0:
416,349,74239,1,2,0:0:0:0:
484,276,74511,70,0,B|502:226|480:173|429:151|429:151|442:95|409:55,1,250,2|2,0:0|0:0,0:0:0:0:
324,29,75330,1,2,0:0:0:0:
341,119,75466,1,2,0:0:0:0:
255,89,75602,2,0,B|201:78|161:119|161:119|136:115|114:124,2,150,2|2|2,0:0|0:0|0:0,0:0:0:0:
358,209,76693,5,2,0:0:0:0:
231,179,76966,1,2,0:0:0:0:
231,179,77102,1,2,0:0:0:0:
316,315,77375,1,2,0:0:0:0:
316,315,77511,1,2,0:0:0:0:
240,365,77648,1,0,0:0:0:0:
158,324,77784,1,2,0:0:0:0:
139,319,78057,1,0,0:0:0:0:
170,234,78193,1,0,0:0:0:0:
111,164,78330,1,2,0:0:0:0:
182,217,78466,1,0,0:0:0:0:
123,147,78602,1,2,0:0:0:0:
154,60,78739,1,0,0:0:0:0:
244,43,78875,69,2,0:0:0:0:
418,137,79693,1,2,0:0:0:0:
418,137,79830,1,2,0:0:0:0:
369,224,80102,2,0,P|365:264|368:291,1,50
278,264,80375,2,0,P|284:303|294:328,1,50
200,326,80648,2,0,P|216:362|232:384,2,50
208,175,81057,70,0,P|220:135|221:95,1,75.0000028610231,4|0,0:0|0:0,0:0:0:0:
104,215,81330,1,8,0:0:0:0:
278,264,81466,2,0,P|299:228|311:190,1,75.0000028610231,4|0,0:0|0:0,0:0:0:0:
168,297,81739,1,8,0:0:0:0:
322,368,81875,2,0,P|352:339|373:305,1,75.0000028610231,4|0,0:0|0:0,0:0:0:0:
431,141,82148,1,4,0:0:0:0:
378,196,82284,1,4,0:0:0:0:
452,212,82420,1,4,0:0:0:0:
431,141,82557,1,4,0:0:0:0:
431,141,83239,38,0,P|383:72|272:96,1,200,4|8,0:0|0:0,0:0:0:0:
291,254,83648,2,0,P|343:266|392:268,1,100,2|0,0:0|0:0,0:0:0:0:
342,154,83920,1,0,0:0:0:0:
135,270,84057,1,10,0:0:0:0:
135,270,84193,6,0,P|147:219|134:68,1,200,4|0,0:0|0:0,0:0:0:0:
356,55,84602,2,0,P|344:104|342:154,1,100,10|0,0:0|0:0,0:0:0:0:
474,306,84875,2,0,L|367:298,1,100,2|0,0:0|0:0,0:0:0:0:
71,266,85148,2,0,L|178:258,1,100,10|0,0:0|0:0,0:0:0:0:
453,109,85420,70,0,P|393:182|300:161,1,200,2|8,0:0|0:0,0:0:0:0:
151,117,85830,2,0,P|139:69|136:19,2,100
363,95,86239,1,10,0:0:0:0:
283,199,86375,6,0,B|354:177|422:193|422:193|459:187|479:171,1,200,2|0,0:0|0:0,0:0:0:0:
244,7,86784,2,0,P|232:55|229:105,1,100,12|0,0:0|0:0,0:0:0:0:
295,287,87057,1,0,0:0:0:0:
160,168,87193,1,2,0:0:0:0:
401,155,87330,2,0,P|352:150|302:156,1,100,10|2,0:0|0:0,0:0:0:0:
113,298,87602,69,6,0:0:0:0:
304,168,87739,1,2,0:0:0:0:
91,111,87875,1,10,0:0:0:0:
306,179,88011,1,2,0:0:0:0:
116,308,88148,1,2,0:0:0:0:
307,188,88284,1,2,0:0:0:0:
93,122,88420,1,10,0:0:0:0:
278,277,88557,6,0,P|352:272|393:158,1,200,2|2,0:0|0:0,0:0:0:0:
259,104,88966,2,0,P|276:151|308:189,1,100,14|0,0:0|0:0,0:0:0:0:
488,351,89239,2,0,L|380:341,1,100,2|0,0:0|0:0,0:0:0:0:
91,303,89511,2,0,L|199:293,1,100,10|0,0:0|0:0,0:0:0:0:
490,141,89784,70,0,P|444:161|395:166,1,100,6|0,0:0|0:0,0:0:0:0:
150,27,90057,1,10,0:0:0:0:
150,27,90193,2,0,P|166:125|149:230,1,200,2|0,0:0|0:0,0:0:0:0:
119,289,90534,1,0,0:0:0:0:
119,289,90602,1,8,0:0:0:0:
14,168,90739,1,0,0:0:0:0:
225,149,90875,5,4,0:0:0:0:
225,149,90943,1,0,0:0:0:0:
225,149,91011,1,0,0:0:0:0:
225,149,91080,1,0,0:0:0:0:
225,149,91148,1,8,0:0:0:0:
244,183,91216,1,0,0:0:0:0:
276,204,91284,1,0,0:0:0:0:
314,214,91352,1,0,0:0:0:0:
353,210,91420,1,0,0:0:0:0:
397,185,91489,1,0,0:0:0:0:
428,146,91557,1,0,0:0:0:0:
436,96,91625,1,0,0:0:0:0:
429,46,91693,2,0,P|420:21|408:1,1,50,8|0,0:0|0:0,0:0:0:0:
273,94,91830,2,8,P|298:99|323:99,1,50
483,218,91966,69,4,0:0:0:0:
443,209,92057,1,0,0:0:0:0:
403,211,92148,1,0,0:0:0:0:
365,225,92239,2,0,P|341:243|317:273,2,66.6666666666667,8|0|0,0:0|0:0|0:0,0:0:0:0:
173,217,92511,2,0,P|200:228|238:234,1,66.6666666666667
90,159,92693,1,0,0:0:0:0:
90,159,92784,2,0,P|57:163|26:176,2,66.6666666666667,8|0|0,0:0|0:0|0:0,0:0:0:0:
82,258,93057,5,4,0:0:0:0:
69,309,93148,1,0,0:0:0:0:
91,357,93239,1,0,0:0:0:0:
142,370,93330,2,0,P|174:370|213:362,2,66.6666666666667,8|0|0,0:0|0:0|0:0,0:0:0:0:
187,272,93602,1,0,0:0:0:0:
220,230,93693,1,0,0:0:0:0:
270,212,93784,1,0,0:0:0:0:
323,216,93875,2,0,P|350:232|380:258,2,66.6666666666667,8|0|0,0:0|0:0|0:0,0:0:0:0:
449,327,94148,69,4,0:0:0:0:
469,277,94239,1,0,0:0:0:0:
466,223,94330,1,0,0:0:0:0:
443,175,94420,2,0,P|433:141|431:104,1,66.6666666666667,8|0,0:0|0:0,0:0:0:0:
323,54,94602,2,0,P|316:86|318:119,1,66.6666666666667
252,244,94830,1,0,0:0:0:0:
252,244,94898,1,0,0:0:0:0:
252,244,94966,2,0,P|304:245|351:253,1,100,8|0,0:0|0:0,0:0:0:0:
220,122,95239,6,0,P|170:126|121:138,1,100,4|0,0:0|0:0,0:0:0:0:
50,194,95443,1,0,0:0:0:0:
50,194,95511,1,12,0:0:0:0:
62,232,95580,1,0,0:0:0:0:
66,271,95648,1,0,0:0:0:0:
60,310,95716,1,0,0:0:0:0:
38,355,95784,1,4,0:0:0:0:
67,349,95852,1,0,0:0:0:0:
96,344,95920,1,0,0:0:0:0:
125,339,95989,1,0,0:0:0:0:
155,312,96057,1,12,0:0:0:0:
173,318,96125,1,0,0:0:0:0:
191,324,96193,1,0,0:0:0:0:
210,330,96261,1,0,0:0:0:0:
252,359,96330,70,0,P|298:340|359:333,1,100,4|0,0:0|0:0,0:0:0:0:
446,345,96602,1,8,0:0:0:0:
336,153,96739,2,0,P|272:191|173:117,1,200,4|0,0:0|0:0,0:0:0:0:
262,99,97080,1,0,0:0:0:0:
262,99,97148,1,0,0:0:0:0:
249,137,97216,1,0,0:0:0:0:
247,176,97284,1,0,0:0:0:0:
250,215,97352,1,0,0:0:0:0:
266,269,97420,6,0,P|217:256|156:258,1,100,12|0,0:0|0:0,0:0:0:0:
290,363,97693,1,8,0:0:0:0:
336,202,97830,2,0,P|226:174|134:174,1,200,4|0,0:0|0:0,0:0:0:0:
56,197,98170,1,0,0:0:0:0:
56,197,98239,1,0,0:0:0:0:
52,147,98307,1,0,0:0:0:0:
70,100,98375,1,0,0:0:0:0:
107,67,98443,1,0,0:0:0:0:
164,52,98511,70,0,P|208:59|239:73,2,66.6666666666667,6|2|2,0:0|0:0|0:0,0:0:0:0:
280,146,98784,1,0,0:0:0:0:
300,152,99057,2,0,P|333:148|364:136,2,66.6666666666667,2|2|2,0:0|0:0|0:0,0:0:0:0:
225,230,99330,2,0,P|217:268|219:336,1,100
112,211,99602,5,8,0:0:0:0:
112,211,99693,2,8,P|80:199|47:195,1,66.6666666666667
183,135,99875,1,8,0:0:0:0:
183,135,99966,2,8,P|177:102|163:71,1,66.6666666666667
284,158,100148,1,4,0:0:0:0:
323,166,100239,1,4,0:0:0:0:
362,160,100330,1,4,0:0:0:0:
395,138,100420,2,4,P|406:106|410:73,2,66.6666666666667
292,327,100693,6,0,P|382:356|450:289,1,200,4|8,0:0|0:0,0:0:0:0:
287,138,101102,1,2,0:0:0:0:
361,268,101239,1,2,0:0:0:0:
292,115,101375,1,2,0:0:0:0:
198,258,101511,2,0,P|151:264|93:262,1,100,10|0,0:0|0:0,0:0:0:0:
287,138,101784,5,2,0:0:0:0:
312,343,101920,2,0,P|361:350|411:348,1,100,2|8,0:0|0:0,0:0:0:0:
282,165,102193,1,0,0:0:0:0:
361,268,102330,2,0,L|462:257,1,100,2|0,0:0|0:0,0:0:0:0:
287,138,102602,2,0,L|186:127,1,100,10|0,0:0|0:0,0:0:0:0:
390,71,102875,69,2,0:0:0:0:
360,228,103011,1,2,0:0:0:0:
399,63,103148,1,10,0:0:0:0:
282,165,103284,2,0,P|232:170|182:169,2,100,2|0|0,0:0|0:0|0:0,0:0:0:0:
70,80,103693,5,10,0:0:0:0:
100,237,103829,1,2,0:0:0:0:
61,72,103966,1,2,0:0:0:0:
188,207,104102,2,0,P|238:213|288:211,2,100,2|8|0,0:0|0:0|0:0,0:0:0:0:
51,64,104511,2,0,P|77:106|96:152,1,100,2|0,0:0|0:0,0:0:0:0:
42,344,104784,2,0,P|65:299|95:260,1,100,10|0,0:0|0:0,0:0:0:0:
264,116,105057,69,6,0:0:0:0:
140,77,105193,1,2,0:0:0:0:
272,128,105330,1,10,0:0:0:0:
103,178,105466,2,0,L|-1:168,2,100,2|0|0,0:0|0:0|0:0,0:0:0:0:
220,222,105875,5,10,0:0:0:0:
344,183,106011,1,2,0:0:0:0:
212,234,106148,1,2,0:0:0:0:
373,290,106284,2,0,L|472:281,2,100,2|8|0,0:0|0:0|0:0,0:0:0:0:
304,188,106693,2,0,P|303:138|314:89,1,100,2|0,0:0|0:0,0:0:0:0:
483,26,106966,2,0,P|482:75|471:124,1,100,10|0,0:0|0:0,0:0:0:0:
179,191,107239,70,0,P|200:122|117:38,1,200,4|8,0:0|0:0,0:0:0:0:
13,234,107648,1,2,0:0:0:0:
13,234,107784,2,0,P|65:245|119:243,1,100
353,145,108057,2,0,P|378:187|393:235,1,100,10|0,0:0|0:0,0:0:0:0:
279,348,108330,6,0,P|253:305|238:257,1,100,6|0,0:0|0:0,0:0:0:0:
251,74,108602,1,8,0:0:0:0:
251,74,108670,1,0,0:0:0:0:
251,74,108739,1,0,0:0:0:0:
251,74,108807,1,0,0:0:0:0:
251,74,108875,1,0,0:0:0:0:
211,68,108943,1,0,0:0:0:0:
171,75,109011,1,0,0:0:0:0:
136,95,109080,1,0,0:0:0:0:
111,138,109148,1,8,0:0:0:0:
130,184,109216,1,0,0:0:0:0:
136,233,109284,1,0,0:0:0:0:
128,282,109352,1,0,0:0:0:0:
88,327,109420,38,0,P|159:285|279:269,1,200,4|8,0:0|0:0,0:0:0:0:
493,276,109830,2,0,P|444:269|396:254,1,100,2|8,0:0|0:0,0:0:0:0:
252,116,110102,1,0,0:0:0:0:
369,146,110239,2,0,P|414:127|456:100,1,100,10|0,0:0|0:0,0:0:0:0:
316,255,110511,5,8,0:0:0:0:
199,225,110648,2,0,P|153:243|111:270,2,100,2|8|0,0:0|0:0|0:0,0:0:0:0:
261,136,111057,2,0,P|268:86|264:36,1,100,10|0,0:0|0:0,0:0:0:0:
308,234,111330,2,0,P|347:264|391:287,1,100,10|0,0:0|0:0,0:0:0:0:
475,137,111602,70,0,L|364:148,1,100,10|0,0:0|0:0,0:0:0:0:
161,145,111875,1,8,0:0:0:0:
161,145,112011,2,0,L|260:135,1,100,2|8,0:0|0:0,0:0:0:0:
452,47,112284,1,0,0:0:0:0:
452,47,112420,2,0,L|341:58,1,100,10|0,0:0|0:0,0:0:0:0:
68,33,112693,5,8,0:0:0:0:
68,33,112830,2,0,B|80:82|80:82|73:132,2,100,2|8|0,0:0|0:0|0:0,0:0:0:0:
149,195,113239,2,0,P|144:246|160:293,1,100,10|0,0:0|0:0,0:0:0:0:
314,335,113511,2,0,P|318:285|303:238,1,100,10|0,0:0|0:0,0:0:0:0:
146,70,113784,69,6,0:0:0:0:
328,75,113920,1,2,0:0:0:0:
138,55,114057,1,10,0:0:0:0:
360,173,114193,2,0,P|364:222|349:269,2,100,2|0|0,0:0|0:0|0:0,0:0:0:0:
422,343,114602,5,10,0:0:0:0:
233,339,114738,1,2,0:0:0:0:
430,358,114875,1,2,0:0:0:0:
190,272,115011,2,0,P|185:222|200:175,2,100,2|8|0,0:0|0:0|0:0,0:0:0:0:
90,88,115420,2,0,L|190:97,1,100,4|0,0:0|0:0,0:0:0:0:
354,9,115693,2,0,L|255:18,1,100,12|0,0:0|0:0,0:0:0:0:
215,193,115966,6,0,P|194:246|290:346,1,200,4|8,0:0|0:0,0:0:0:0:
299,125,116375,2,0,B|230:151|230:151|103:135,1,200,4|8,0:0|0:0,0:0:0:0:
285,253,116784,2,0,B|354:227|354:227|481:243,1,200,4|0,0:0|0:0,0:0:0:0:
366,341,117193,5,0,0:0:0:0:
236,193,117330,1,0,0:0:0:0:
408,144,117466,1,0,0:0:0:0:
348,307,117602,1,0,0:0:0:0:
261,210,117739,1,8,0:0:0:0:
375,170,117875,1,8,0:0:0:0:
345,268,118011,1,8,0:0:0:0:
345,268,118148,22,8,L|352:350,2,66.6666666666667,8|8|8,0:2|0:2|0:2,0:0:0:0:
230,303,118420,2,4,P|246:235|239:158,1,133.333333333333
240,167,118648,1,4,0:0:0:0:
237,162,118693,1,4,0:2:0:0:
256,192,118727,12,0,122443,0:0:0:0:
