osu file format v14

[General]
AudioFilename: audio.mp3
AudioLeadIn: 0
PreviewTime: 82631
Countdown: 0
SampleSet: Soft
StackLeniency: 0.2
Mode: 0
LetterboxInBreaks: 0
WidescreenStoryboard: 1

[Editor]
Bookmarks: 7835,14029,29512,48336,65790,109426,118699
DistanceSpacing: 1
BeatDivisor: 3
GridSize: 8
TimelineZoom: 2

[Metadata]
Title:Preserved Valkyria
TitleUnicode:Preserved Valkyria
Artist:penoreri
ArtistUnicode:ぺのれり
Creator:Alheak
Version:HYPER
Source:SOUND VOLTEX III GRAVITY WARS
Tags:konami sdvx 3 kac Song Contest Champion GoldenWolf Ponoyoshi pono Ayyri Realazy real bemani
BeatmapID:1466341
BeatmapSetID:433002

[Difficulty]
HPDrainRate:4
CircleSize:4
OverallDifficulty:7
ApproachRate:8
SliderMultiplier:1.7
SliderTickRate:1

[Events]
//Background and Video events
0,0,"bg.jpg",0,0
//Break Periods
2,29583,31859
//Storyboard Layer 0 (Background)
//Storyboard Layer 1 (Fail)
//Storyboard Layer 2 (Pass)
//Storyboard Layer 3 (Foreground)
//Storyboard Sound Samples

[TimingPoints]
93,387.096774193548,4,2,1,40,1,0
1254,-200,4,2,1,40,0,0
1544,-133.333333333333,4,2,1,20,0,0
1641,-133.333333333333,4,2,1,60,0,0
14028,-133.333333333333,4,2,1,65,0,0
38415,-133.333333333333,4,3,1,65,0,0
39576,-133.333333333333,4,2,1,65,0,0
41125,-133.333333333333,4,3,1,65,0,0
41899,-133.333333333333,4,2,1,65,0,0
42092,-133.333333333333,4,3,1,65,0,0
42286,-133.333333333333,4,2,1,65,0,0
43383,-133.333333333333,4,3,1,65,0,0
44609,-133.333333333333,4,2,1,65,0,0
44673,-133.333333333333,4,3,1,65,0,0
45770,-166.666666666667,4,2,1,65,0,0
46541,400,4,2,1,70,1,0
46941,413.793103448276,4,2,1,70,1,0
47354,461.538461538462,4,2,1,70,1,0
47354,-133.333333333333,4,2,1,70,0,0
47815,521.739130434783,4,2,1,70,1,0
48330,272.727272727273,4,2,1,70,1,0
48330,-133.333333333333,4,2,1,70,0,0
57057,-100,4,2,1,70,0,0
65332,-100,4,3,1,70,0,0
65784,-166.666666666667,4,2,1,70,0,0
82148,-166.666666666667,4,3,1,70,0,0
83239,-100,4,2,1,70,0,1
91830,-100,4,3,1,70,0,1
91966,-100,4,2,1,70,0,1
99602,-100,4,3,1,70,0,1
100693,-100,4,2,1,70,0,0
118148,-100,4,3,1,70,0,0

[Colours]
Combo1 : 228,221,69
Combo2 : 203,216,228
Combo3 : 89,120,193
Combo4 : 232,206,189
Combo5 : 228,86,50
Combo6 : 234,231,206

[HitObjects]
290,241,1254,22,0,P|325:272|359:277,1,63.75
358,197,1641,69,6,0:0:0:0:
284,90,2028,1,2,0:0:0:0:
152,114,2415,2,0,B|95:122|95:122|54:113,2,95.6250036478044,2|2|2,0:0|0:0|0:0,0:0:0:0:
251,197,3383,5,0,0:0:0:0:
263,215,3770,1,0,0:0:0:0:
351,232,3963,2,0,B|409:240|409:240|449:231,2,95.6250036478044,2|2|2,0:0|0:0|0:0,0:0:0:0:
247,307,4931,69,0,0:0:0:0:
247,307,5028,2,0,L|174:316,1,63.7500024318696,2|0,0:0|0:0,0:0:0:0:
129,372,5318,2,0,P|145:322|137:241,1,127.500004863739,2|0,0:0|0:0,0:0:0:0:
58,162,5899,1,0,0:0:0:0:
110,56,6092,1,2,0:0:0:0:
237,40,6286,6,0,L|269:36,3,31.8750012159348
182,100,6673,2,0,L|177:135,3,31.8750012159348
262,118,7060,2,0,B|336:104|336:104|392:117,1,127.500004863739,2|2,0:0|0:0,0:0:0:0:
512,203,7834,70,0,P|469:221|421:222,1,95.6250036478044,4|2,0:0|0:0,0:0:0:0:
421,301,8222,2,0,P|376:289|339:260,1,95.6250036478044,2|2,0:0|0:0,0:0:0:0:
295,190,8609,2,0,P|264:225|220:245,1,95.6250036478044,2|2,0:0|0:0,0:0:0:0:
203,168,8996,2,0,P|157:175|111:163,1,95.6250036478044,2|2,0:0|0:0,0:0:0:0:
62,100,9383,6,0,P|79:146|79:193,1,95.6250036478044,2|2,0:0|0:0,0:0:0:0:
41,263,9770,2,0,P|25:308|26:355,1,95.6250036478044,2|2,0:0|0:0,0:0:0:0:
105,354,10157,2,0,P|137:361|183:361,1,63.7500024318696,2|2,0:0|0:0,0:0:0:0:
327,329,10544,2,0,P|299:335|249:336,1,63.7500024318696,2|2,0:0|0:0,0:0:0:0:
259,238,10931,70,0,P|253:196|261:152,1,85.0000032424928,0|0,0:0|0:0,0:0:0:0:
340,154,11318,2,0,P|366:121|403:96,1,85.0000032424928
478,78,11705,2,0,P|437:86|395:80,1,85.0000032424928
322,47,12092,2,0,P|281:40|239:46,1,85.0000032424928
168,86,12480,5,2,0:0:0:0:
148,209,12673,2,0,L|143:244,5,31.8750012159348,0|0|0|0|0|0,0:0|0:0|0:0|0:0|0:0|0:0,0:0:0:0:
213,280,13254,2,0,B|198:203|198:203|207:154,1,127.500004863739,2|2,0:0|0:0,0:0:0:0:
392,95,14028,38,0,P|400:142|396:173,1,63.7500024318696,4|0,0:0|0:0,0:0:0:0:
306,201,14415,2,0,P|298:154|302:123,1,63.7500024318696,2|0,0:0|0:0,0:0:0:0:
390,260,14802,1,2,0:0:0:0:
298,303,14996,1,0,0:0:0:0:
298,303,15092,1,0,0:0:0:0:
298,303,15189,1,2,0:0:0:0:
234,224,15383,1,0,0:0:0:0:
230,228,15480,1,0,0:0:0:0:
226,232,15576,1,2,0:0:0:0:
154,313,15770,6,0,L|149:355,2,31.8750012159348,0|0|2,0:0|0:0|0:0,0:0:0:0:
82,245,16157,2,0,L|50:249,2,31.8750012159348,0|0|2,0:0|0:0|0:0,0:0:0:0:
126,137,16544,1,0,0:0:0:0:
52,47,16738,2,0,P|48:26|49:7,3,31.8750012159348,2|0|0|0,0:0|0:0|0:0|0:0,0:0:0:0:
132,20,17125,70,0,L|203:25,1,63.7500024318696,2|0,0:0|0:0,0:0:0:0:
268,59,17415,1,0,0:0:0:0:
268,59,17512,2,0,P|278:104|274:133,1,63.7500024318696,2|0,0:0|0:0,0:0:0:0:
212,184,17802,1,0,0:0:0:0:
212,184,17899,2,0,L|173:187,2,31.8750012159348,2|0|0,0:0|0:0|0:0,0:0:0:0:
262,265,18189,1,0,0:0:0:0:
262,265,18286,2,0,L|301:268,3,31.8750012159348,2|0|0|0,0:0|0:0|0:0|0:0,0:0:0:0:
222,341,18673,6,0,B|303:350|303:350|350:337,1,127.500004863739,2|2,0:0|0:0,0:0:0:0:
436,241,19254,1,0,0:0:0:0:
436,241,19351,1,0,0:0:0:0:
436,241,19447,2,0,P|425:212|422:181,1,63.7500024318696,2|2,0:0|0:0,0:0:0:0:
341,90,19834,2,0,P|337:122|324:151,1,63.7500024318696,2|2,0:0|0:0,0:0:0:0:
229,190,20222,70,0,L|193:193,12,21.2500008106232,4|0|0|0|0|0|0|0|0|0|0|0|0,0:0|0:0|0:0|0:0|0:0|0:0|0:0|0:0|0:0|0:0|0:0|0:0|0:0,0:0:0:0:
146,133,21189,2,0,L|151:70,2,63.7500024318696,0|0|0,0:0|0:0|0:0,0:0:0:0:
134,235,21770,6,0,P|67:203|10:228,2,127.500004863739,4|0|0,0:0|0:0|0:0,0:0:0:0:
79,347,22738,2,0,L|69:285,1,63.7500024318696,4|0,0:0|0:0,0:0:0:0:
222,220,23028,2,0,L|210:287,1,63.7500024318696,4|0,0:0|0:0,0:0:0:0:
272,352,23318,69,6,0:0:0:0:
272,352,23415,1,2,0:0:0:0:
272,352,23512,1,2,0:0:0:0:
272,352,23609,1,2,0:0:0:0:
408,330,23802,2,0,P|425:300|432:267,1,63.7500024318696,2|2,0:0|0:0,0:0:0:0:
384,198,24092,2,0,P|383:166|374:135,1,63.7500024318696,2|2,0:0|0:0,0:0:0:0:
308,82,24383,1,2,0:0:0:0:
216,141,24576,1,2,0:0:0:0:
111,104,24770,1,2,0:0:0:0:
24,172,24963,5,2,0:0:0:0:
24,172,25060,1,2,0:0:0:0:
24,172,25157,1,2,0:0:0:0:
47,51,25351,2,0,P|76:30|105:24,1,63.7500024318696,2|2,0:0|0:0,0:0:0:0:
176,53,25641,2,0,L|246:46,1,63.7500024318696,2|2,0:0|0:0,0:0:0:0:
310,11,25931,1,2,0:0:0:0:
407,43,26125,2,0,L|400:113,1,63.7500024318696,2|2,0:0|0:0,0:0:0:0:
334,151,26415,69,6,0:0:0:0:
334,151,26512,1,2,0:0:0:0:
334,151,26609,1,2,0:0:0:0:
334,151,26706,1,2,0:0:0:0:
235,202,26899,2,0,P|228:232|232:264,1,63.7500024318696,2|2,0:0|0:0,0:0:0:0:
259,338,27189,2,0,L|189:331,1,63.7500024318696,2|2,0:0|0:0,0:0:0:0:
122,356,27480,1,2,0:0:0:0:
60,265,27673,1,2,0:0:0:0:
124,176,27867,1,2,0:0:0:0:
233,196,28060,5,2,0:0:0:0:
233,196,28157,1,2,0:0:0:0:
233,196,28254,1,2,0:0:0:0:
340,223,28447,2,0,P|372:226|401:220,1,63.7500024318696,2|2,0:0|0:0,0:0:0:0:
441,146,28738,2,0,P|445:126|444:104,2,42.5000016212464,4|4|4,0:0|0:0|0:0,0:0:0:0:
364,116,29125,2,0,P|357:97|345:79,2,42.5000016212464,4|4|4,0:0|0:0|0:0,0:0:0:0:
361,253,32609,5,2,0:0:0:0:
160,284,33383,1,4,0:0:0:0:
256,192,33480,12,2,38415,0:0:0:0:
372,270,38802,6,0,P|316:336|296:252,1,212.500008106232,8|4,0:0|0:0,0:0:0:0:
320,217,39576,70,0,P|277:232|195:224,1,127.500004863739,4|0,0:0|0:0,0:0:0:0:
71,99,40351,2,0,P|114:114|196:106,1,127.500004863739,4|0,0:0|0:0,0:0:0:0:
351,21,41125,2,0,B|347:66|347:66|362:115,2,95.6250036478044,8|8|4,0:0|0:0|0:0,0:0:0:0:
434,56,41899,5,4,0:0:0:0:
256,192,41996,12,0,44931,0:0:0:0:
217,345,45770,70,0,L|154:354,1,50.9999984436036,0|0,0:0|0:0,0:0:0:0:
172,266,46157,2,0,L|109:259,1,50.9999984436036,0|0,0:0|0:0,0:0:0:0:
199,176,46541,5,0,0:0:0:0:
199,176,47354,2,0,P|261:192|327:186,1,127.500004863739,0|0,0:0|0:0,0:0:0:0:
327,190,48330,37,0,0:0:0:0:
327,190,48466,2,0,L|333:127,1,63.7500024318696,2|0,0:0|0:0,0:0:0:0:
261,3,48739,1,2,0:0:0:0:
261,3,48875,2,0,L|267:67,1,63.7500024318696,2|0,0:0|0:0,0:0:0:0:
242,218,49148,1,2,0:0:0:0:
242,218,49284,2,0,L|248:155,1,63.7500024318696,2|0,0:0|0:0,0:0:0:0:
176,31,49557,1,2,0:0:0:0:
176,31,49693,2,0,L|182:95,1,63.7500024318696,2|0,0:0|0:0,0:0:0:0:
108,167,49966,2,0,P|72:177|40:174,1,63.7500024318696,2|0,0:0|0:0,0:0:0:0:
34,87,50239,2,0,P|65:78|97:79,1,63.7500024318696,2|0,0:0|0:0,0:0:0:0:
193,109,50511,5,2,0:0:0:0:
193,109,50648,2,0,L|272:116,1,63.7500024318696,2|0,0:0|0:0,0:0:0:0:
225,193,50920,1,2,0:0:0:0:
225,193,51057,2,0,L|300:221,1,63.7500024318696,2|0,0:0|0:0,0:0:0:0:
136,180,51330,1,2,0:0:0:0:
136,180,51466,2,0,L|57:187,1,63.7500024318696,2|0,0:0|0:0,0:0:0:0:
104,264,51739,1,2,0:0:0:0:
104,264,51875,2,0,L|30:292,1,63.7500024318696,2|0,0:0|0:0,0:0:0:0:
220,260,52148,2,0,P|253:279|274:304,1,63.7500024318696,2|0,0:0|0:0,0:0:0:0:
217,369,52421,2,0,P|189:355|168:332,1,63.7500024318696,2|0,0:0|0:0,0:0:0:0:
119,245,52693,69,6,0:0:0:0:
119,245,52830,2,0,L|127:176,1,63.7500024318696,2|0,0:0|0:0,0:0:0:0:
208,230,53102,1,2,0:0:0:0:
208,230,53239,2,0,L|216:161,1,63.7500024318696,2|0,0:0|0:0,0:0:0:0:
269,297,53511,1,2,0:0:0:0:
269,297,53648,2,0,L|277:366,1,63.7500024318696,2|0,0:0|0:0,0:0:0:0:
358,312,53920,1,2,0:0:0:0:
358,312,54057,2,0,L|366:381,1,63.7500024318696,2|0,0:0|0:0,0:0:0:0:
429,236,54330,2,0,P|448:169|417:118,1,127.500004863739,4|2,0:0|0:0,0:0:0:0:
249,170,54875,6,0,B|310:191|310:191|373:182,1,127.500004863739,4|2,0:0|0:0,0:0:0:0:
318,95,55284,2,0,B|257:74|257:74|194:83,1,127.500004863739,2|0,0:0|0:0,0:0:0:0:
94,97,55693,2,0,P|62:97|25:88,1,63.7500024318696,2|0,0:0|0:0,0:0:0:0:
70,186,55966,22,0,L|82:267,1,63.7500024318696,4|0,0:0|0:0,0:0:0:0:
157,204,56239,2,0,L|169:285,1,63.7500024318696,4|0,0:0|0:0,0:0:0:0:
244,222,56511,2,0,L|256:303,1,63.7500024318696,4|0,0:0|0:0,0:0:0:0:
344,259,56784,2,0,P|375:258|406:251,1,63.7500024318696,4|0,0:0|0:0,0:0:0:0:
449,161,57057,6,0,B|434:246|434:246|455:327,1,170,4|8,0:0|0:0,0:0:0:0:
331,338,57466,2,0,P|230:341|154:311,1,170
68,259,57875,2,0,P|170:262|246:232,1,170,8|0,0:0|0:0,0:0:0:0:
327,161,58284,2,0,P|272:103|301:23,1,170,8|0,0:0|0:0,0:0:0:0:
427,61,58693,2,0,P|388:79|346:85,1,85,8|0,0:0|0:0,0:0:0:0:
218,2,58966,2,0,P|260:9|299:27,1,85,8|0,0:0|0:0,0:0:0:0:
263,182,59239,6,0,L|291:349,1,170,0|8,0:0|0:0,0:0:0:0:
186,276,59648,2,0,B|170:176|170:176|187:110,1,170
311,91,60057,2,0,B|349:148|349:148|366:249,1,170,8|0,0:0|0:0,0:0:0:0:
442,318,60466,2,0,B|459:252|459:252|442:150,1,170,8|0,0:0|0:0,0:0:0:0:
425,33,60875,2,0,L|517:49,1,85,8|0,0:0|0:0,0:0:0:0:
364,101,61148,2,0,L|272:117,1,85,8|0,0:0|0:0,0:0:0:0:
157,84,61420,69,2,0:0:0:0:
157,84,61557,2,0,P|144:37|147:-1,1,85,2|10,0:0|0:0,0:0:0:0:
260,127,61830,2,0,P|287:204|231:263,1,170,2|0,0:0|0:0,0:0:0:0:
22,242,62239,5,10,0:0:0:0:
22,242,62375,2,0,P|64:240|104:252,1,85,2|2,0:0|0:0,0:0:0:0:
171,339,62648,2,0,B|232:351|232:351|338:330,1,170,2|0,0:0|0:0,0:0:0:0:
497,303,63057,2,0,L|478:203,1,85,4|0,0:0|0:0,0:0:0:0:
417,80,63330,2,0,L|398:181,1,85,12|0,0:0|0:0,0:0:0:0:
300,167,63602,6,0,P|246:177|211:173,1,85,4|0,0:0|0:0,0:0:0:0:
133,145,63875,1,8,0:0:0:0:
155,255,64011,2,0,P|195:268|237:269,1,85,0|4,0:0|0:0,0:0:0:0:
325,253,64284,1,8,0:0:0:0:
274,351,64420,2,0,P|221:361|186:358,1,85,4|0,0:0|0:0,0:0:0:0:
54,321,64693,70,0,L|61:232,2,85,12|0|0,0:0|0:0|0:0,0:0:0:0:
124,167,65102,2,0,B|115:82|115:82|198:104|198:104|238:83|284:93,1,255,8|0,0:0|0:0,0:0:0:0:
427,134,65784,38,0,B|413:235|413:235|433:285,2,152.999995330811,4|2|2,0:0|0:0|0:0,0:0:0:0:
427,134,67148,1,2,0:0:0:0:
327,149,67420,1,2,0:0:0:0:
226,164,67693,1,2,0:0:0:0:
189,260,67966,5,0,0:0:0:0:
189,260,68784,2,0,L|124:247,1,50.9999984436036,2|2,0:0|0:0,0:0:0:0:
261,335,69739,2,0,L|326:322,2,50.9999984436036,2|2|2,0:0|0:0|0:0,0:0:0:0:
388,357,70148,70,0,P|393:328|389:302,7,50.9999984436036
262,174,71375,2,0,P|257:145|261:119,1,50.9999984436036,2|2,0:0|0:0,0:0:0:0:
321,42,71784,1,0,0:0:0:0:
421,66,72057,1,0,0:0:0:0:
442,167,72330,5,2,0:0:0:0:
463,268,72602,2,0,L|475:331,1,50.9999984436036,2|2,0:0|0:0,0:0:0:0:
366,236,73011,2,0,P|319:249|256:244,1,101.999996887207,0|0,0:0|0:0,0:0:0:0:
267,247,73966,1,2,0:0:0:0:
167,264,74239,1,2,0:0:0:0:
200,168,74511,69,2,0:0:0:0:
128,32,75193,2,0,L|66:23,2,50.9999984436036,2|2|0,0:0|0:0|0:0,0:0:0:0:
224,100,75602,2,0,B|123:112|123:112|62:96,2,152.999995330811,2|2|2,0:0|0:0|0:0,0:0:0:0:
306,39,76693,5,2,0:0:0:0:
408,52,76966,2,0,L|473:60,1,50.9999984436036,2|2,0:0|0:0,0:0:0:0:
345,133,77375,2,0,L|280:141,2,50.9999984436036,0|0|0,0:0|0:0|0:0,0:0:0:0:
453,149,77784,1,2,0:0:0:0:
346,248,78057,2,0,P|342:278|345:307,5,50.9999984436036,2|0|2|0|2|0,0:0|0:0|0:0|0:0|0:0|0:0,0:0:0:0:
404,351,78875,69,0,0:0:0:0:
102,319,79693,2,0,L|40:312,1,50.9999984436036,2|2,0:0|0:0,0:0:0:0:
253,267,80102,2,0,L|315:260,6,50.9999984436036,0|0|0|0|0|0|0,0:0|0:0|0:0|0:0|0:0|0:0|0:0,0:0:0:0:
202,203,81057,6,0,P|187:155|191:89,1,101.999996887207,4|8,0:0|0:0,0:0:0:0:
267,125,81466,2,0,P|279:76|315:21,1,101.999996887207,4|8,0:0|0:0,0:0:0:0:
368,84,81875,2,0,P|402:78|423:79,1,50.9999984436036,4|0,0:0|0:0,0:0:0:0:
471,155,82148,2,0,L|477:213,1,50.9999984436036,4|4,0:0|0:0,0:0:0:0:
386,187,82420,2,0,L|377:245,1,50.9999984436036,4|0,0:0|0:0,0:0:0:0:
378,238,83239,6,0,B|269:258|269:258|212:242,1,170,4|8,0:0|0:0,0:0:0:0:
124,189,83648,2,0,P|185:243|167:322,1,170,2|0,0:0|0:0,0:0:0:0:
65,384,84057,1,10,0:0:0:0:
28,309,84193,2,0,B|35:254|35:254|23:196|23:196|31:142,1,170,6|0,0:0|0:0,0:0:0:0:
0,45,84602,2,0,L|87:53,1,85,10|0,0:0|0:0,0:0:0:0:
199,35,84875,2,0,P|188:75|190:121,1,85,2|0,0:0|0:0,0:0:0:0:
276,214,85148,2,0,P|278:172|267:131,1,85,10|0,0:0|0:0,0:0:0:0:
199,227,85420,6,0,P|253:288|332:270,1,170,2|8,0:0|0:0,0:0:0:0:
431,302,85830,2,0,P|420:236|423:127,1,170
483,5,86239,1,10,0:0:0:0:
506,87,86375,2,0,B|422:103|422:103|339:84,1,170,2|0,0:0|0:0,0:0:0:0:
238,83,86784,2,0,B|322:105|322:105|352:141|339:196,1,170,12|0,0:0|0:0,0:0:0:0:
244,384,87193,1,2,0:0:0:0:
320,348,87330,2,0,L|308:263,1,85,2|2,0:0|0:0,0:0:0:0:
194,290,87602,70,0,P|146:278|97:281,1,85,6|2,0:0|0:0,0:0:0:0:
27,297,87875,1,10,0:0:0:0:
58,191,88011,2,0,P|99:181|142:181,1,85,2|2,0:0|0:0,0:0:0:0:
227,124,88284,2,0,P|191:103|150:92,1,85,2|10,0:0|0:0,0:0:0:0:
86,35,88557,2,0,P|122:12|163:7,1,85,2|0,0:0|0:0,0:0:0:0:
315,129,88830,1,2,0:0:0:0:
315,129,88966,2,0,P|306:87|279:54,1,85,14|0,0:0|0:0,0:0:0:0:
175,205,89239,2,0,L|267:213,1,85,2|0,0:0|0:0,0:0:0:0:
421,301,89511,2,0,L|329:309,1,85,10|0,0:0|0:0,0:0:0:0:
234,369,89784,6,0,P|191:370|140:344,1,85,6|0,0:0|0:0,0:0:0:0:
7,231,90057,1,10,0:0:0:0:
67,288,90193,2,0,P|110:289|161:263,1,85,2|0,0:0|0:0,0:0:0:0:
235,234,90466,2,0,L|289:242,4,42.5,0|0|8|0|0,0:0|0:0|0:0|0:0|0:0,0:0:0:0:
152,180,90875,2,0,B|145:98|145:98|124:50,1,127.5,4|0,0:0|0:0,0:0:0:0:
65,6,91148,2,0,P|136:19|193:7,1,127.5,8|0,0:0|0:0,0:0:0:0:
227,78,91420,2,0,L|360:121,1,127.5
424,96,91693,2,0,P|372:140|370:196,1,127.5,8|0,0:0|0:0,0:0:0:0:
456,183,91966,69,4,0:0:0:0:
456,183,92057,1,0,0:0:0:0:
456,183,92148,1,0,0:0:0:0:
456,183,92239,2,0,L|518:177,2,56.6666666666667,8|0|0,0:0|0:0|0:0,0:0:0:0:
460,285,92511,2,0,P|410:315|350:309,1,113.333333333333
275,286,92784,2,0,P|248:286|209:294,1,56.6666666666667,8|0,0:0|0:0,0:0:0:0:
220,207,92966,1,0,0:0:0:0:
220,207,93057,2,0,P|194:214|158:232,2,56.6666666666667,4|0|0,0:0|0:0|0:0,0:0:0:0:
125,138,93330,2,0,P|99:135|60:123,2,56.6666666666667,8|0|0,0:0|0:0|0:0,0:0:0:0:
90,51,93602,1,0,0:0:0:0:
90,51,93692,1,0,0:0:0:0:
90,51,93783,1,0,0:0:0:0:
90,51,93875,2,0,P|69:36|42:6,2,56.6666666666667,8|0|0,0:0|0:0|0:0,0:0:0:0:
187,63,94148,5,4,0:0:0:0:
187,63,94239,1,0,0:0:0:0:
187,63,94330,1,0,0:0:0:0:
187,63,94420,2,0,L|180:5,3,56.6666666666667,8|0|0|0,0:0|0:0|0:0|0:0,0:0:0:0:
269,45,94830,1,0,0:0:0:0:
269,45,94898,1,0,0:0:0:0:
269,45,94966,2,0,L|358:53,1,85,8|0,0:0|0:0,0:0:0:0:
250,142,95239,2,0,P|239:185|240:234,1,85,4|0,0:0|0:0,0:0:0:0:
328,176,95511,2,0,P|329:221|343:268,1,85,12|0,0:0|0:0,0:0:0:0:
412,331,95784,2,0,P|423:290|423:248,1,85,4|0,0:0|0:0,0:0:0:0:
511,297,96056,2,0,P|511:255|500:214,1,85,12|0,0:0|0:0,0:0:0:0:
438,131,96330,70,0,B|333:143|333:143|269:118,1,170,4|8,0:0|0:0,0:0:0:0:
211,38,96739,2,0,P|236:116|167:175,1,170,4|0,0:0|0:0,0:0:0:0:
63,194,97148,2,0,L|8:201,2,42.5,0|0|0,0:0|0:0|0:0,0:0:0:0:
98,290,97420,2,0,B|203:302|203:302|267:277,1,170,12|8,0:0|0:0,0:0:0:0:
325,197,97829,2,0,P|300:275|369:334,1,170,4|0,0:0|0:0,0:0:0:0:
470,343,98239,2,0,L|525:350,2,42.5,0|0|0,0:0|0:0|0:0,0:0:0:0:
424,253,98511,6,0,B|415:167|415:167|438:82,1,170,6|0,0:0|0:0,0:0:0:0:
274,37,99057,2,0,B|252:118|252:118|200:187,1,170,2|0,0:0|0:0,0:0:0:0:
281,334,99602,2,0,B|298:275,5,56.6666666666667,8|0|0|8|0|0,0:0|0:0|0:0|0:0|0:0|0:0,0:0:0:0:
384,293,100148,2,0,B|425:254,5,56.6666666666667,4|4|4|0|0|0,0:0|0:0|0:0|0:0|0:0|0:0,0:0:0:0:
496,292,100693,6,0,P|494:211|422:172,1,170,4|8,0:0|0:0,0:0:0:0:
256,194,101102,1,2,0:0:0:0:
256,194,101239,2,0,L|340:200,1,85,2|0,0:0|0:0,0:0:0:0:
429,84,101511,1,2,0:0:0:0:
429,84,101648,2,0,P|387:92|353:116,1,85,2|0,0:0|0:0,0:0:0:0:
332,282,101920,1,2,0:0:0:0:
332,282,102057,2,0,P|345:242|340:200,1,85,10|0,0:0|0:0,0:0:0:0:
233,90,102330,2,0,L|149:97,1,85,2|0,0:0|0:0,0:0:0:0:
191,171,102602,2,0,L|111:200,1,85,10|0,0:0|0:0,0:0:0:0:
141,366,102875,5,2,0:0:0:0:
141,366,103011,2,0,P|127:327|129:284,1,85,2|8,0:0|0:0,0:0:0:0:
211,259,103284,2,0,B|320:273|320:273|382:257,1,170,2|0,0:0|0:0,0:0:0:0:
459,228,103693,2,0,P|463:270|448:310,1,85,10|0,0:0|0:0,0:0:0:0:
369,344,103966,1,2,0:0:0:0:
369,344,104102,2,0,P|308:309|304:214,1,170,10|0,0:0|0:0,0:0:0:0:
360,154,104511,2,0,B|367:103|367:103|360:61,1,85,2|0,0:0|0:0,0:0:0:0:
283,103,104784,2,0,B|275:53|275:53|256:15,1,85,10|0,0:0|0:0,0:0:0:0:
111,72,105057,69,6,0:0:0:0:
111,72,105193,2,0,L|195:78,1,85,2|8,0:0|0:0,0:0:0:0:
217,161,105466,2,0,B|230:219|230:219|207:338,1,170,2|0,0:0|0:0,0:0:0:0:
51,377,105875,1,10,0:0:0:0:
51,377,106011,2,0,L|135:370,1,85,2|0,0:0|0:0,0:0:0:0:
221,343,106284,2,0,P|302:356|357:295,1,170,10|0,0:0|0:0,0:0:0:0:
394,181,106693,2,0,L|384:94,1,85,2|0,0:0|0:0,0:0:0:0:
284,31,106966,2,0,L|274:115,1,85,10|0,0:0|0:0,0:0:0:0:
117,200,107239,5,6,0:0:0:0:
117,200,107375,2,0,P|159:196|197:211,1,85,2|8,0:0|0:0,0:0:0:0:
146,281,107648,2,0,P|63:272|29:198,1,170,2|0,0:0|0:0,0:0:0:0:
70,124,108057,2,0,L|78:29,1,85,10|0,0:0|0:0,0:0:0:0:
156,73,108330,2,0,P|177:32|204:3,1,85,6|0,0:0|0:0,0:0:0:0:
255,71,108602,2,0,P|294:46|332:35,1,85,10|0,0:0|0:0,0:0:0:0:
379,105,108875,2,0,P|425:103|464:112,1,85,2|0,0:0|0:0,0:0:0:0:
464,197,109148,2,0,P|492:235|501:274,1,85,10|0,0:0|0:0,0:0:0:0:
397,277,109420,38,0,B|337:287|337:287|223:264,1,170,4|8,0:0|0:0,0:0:0:0:
203,175,109830,2,0,P|210:256|147:309,1,170,2|0,0:0|0:0,0:0:0:0:
75,358,110239,2,0,P|67:276|130:223,1,170,10|0,0:0|0:0,0:0:0:0:
124,139,110648,2,0,B|184:149|184:149|291:127,1,170,10|0,0:0|0:0,0:0:0:0:
396,106,111057,2,0,P|398:149|388:190,1,85,10|0,0:0|0:0,0:0:0:0:
293,230,111330,2,0,P|283:189|285:147,1,85,10|0,0:0|0:0,0:0:0:0:
304,47,111602,6,0,P|217:65|121:60,1,170,4|8,0:0|0:0,0:0:0:0:
54,41,112011,2,0,B|47:96|87:130|87:130|94:171|81:201,1,170,2|0,0:0|0:0,0:0:0:0:
38,273,112420,2,0,P|106:227|182:255,1,170,10|0,0:0|0:0,0:0:0:0:
235,323,112830,2,0,B|293:347|293:347|400:332,1,170,10|0,0:0|0:0,0:0:0:0:
478,175,113239,2,0,P|480:217|471:259,1,85,10|0,0:0|0:0,0:0:0:0:
364,197,113511,2,0,P|354:156|357:114,1,85,10|0,0:0|0:0,0:0:0:0:
480,10,113784,69,6,0:0:0:0:
480,11,113920,2,0,B|472:54|472:54|449:88,1,85,2|8,0:0|0:0,0:0:0:0:
347,99,114193,2,0,P|254:115|180:107,1,170,2|0,0:0|0:0,0:0:0:0:
69,224,114602,1,10,0:0:0:0:
69,224,114739,2,0,B|77:181|77:181|99:146,1,85,2|0,0:0|0:0,0:0:0:0:
157,214,115011,2,0,B|133:337|133:337|120:312|98:301,1,170,10|0,0:0|0:0,0:0:0:0:
54,375,115420,2,0,L|138:359,1,85,4|0,0:0|0:0,0:0:0:0:
314,313,115693,2,0,L|230:297,1,85,12|0,0:0|0:0,0:0:0:0:
383,240,115966,38,0,P|353:316|400:384,1,170,4|8,0:0|0:0,0:0:0:0:
449,188,116375,2,0,B|388:204|388:204|280:184,1,170,4|8,0:0|0:0,0:0:0:0:
218,110,116784,2,0,B|279:94|279:94|387:114,1,170,4|0,0:0|0:0,0:0:0:0:
476,97,117193,2,0,L|466:0,1,85,0|0,0:0|0:0,0:0:0:0:
383,24,117466,2,0,L|291:6,1,85,0|0,0:0|0:0,0:0:0:0:
216,25,117739,2,0,P|175:33|122:28,2,85,8|8|8,0:0|0:0|0:0,0:0:0:0:
280,114,118148,5,8,0:2:0:0:
280,114,118239,1,8,0:2:0:0:
280,114,118330,1,8,0:2:0:0:
280,114,118420,2,0,B|293:181|293:181|279:238,1,113.333333333333,4|0,0:0|0:0,0:0:0:0:
255,302,118693,1,4,0:2:0:0:
256,192,118761,12,0,122443,0:0:0:0:
