osu file format v14

[General]
AudioFilename: audio.mp3
AudioLeadIn: 0
PreviewTime: 82631
Countdown: 0
SampleSet: None
StackLeniency: 0.4
Mode: 0
LetterboxInBreaks: 0
WidescreenStoryboard: 1

[Editor]
Bookmarks: 7835,14029,29512,48336,65790,109426,118699
DistanceSpacing: 0.8
BeatDivisor: 4
GridSize: 4
TimelineZoom: 2

[Metadata]
Title:Preserved Valkyria
TitleUnicode:Preserved Valkyria
Artist:penoreri
ArtistUnicode:ぺのれり
Creator:Alheak
Version:EXHAUST
Source:SOUND VOLTEX III GRAVITY WARS
Tags:konami sdvx 3 kac Song Contest Champion GoldenWolf Ponoyoshi pono Ayyri Realazy real bemani
BeatmapID:1016092
BeatmapSetID:433002

[Difficulty]
HPDrainRate:5
CircleSize:4
OverallDifficulty:8
ApproachRate:9
SliderMultiplier:2
SliderTickRate:1

[Events]
//Background and Video events
0,0,"bg.jpg",0,0
//Break Periods
2,29583,32009
//Storyboard Layer 0 (Background)
//Storyboard Layer 1 (Fail)
//Storyboard Layer 2 (Pass)
//Storyboard Layer 3 (Foreground)
//Storyboard Sound Samples

[TimingPoints]
93,387.096774193548,4,2,1,40,1,0
1254,-400,4,2,1,40,0,0
1544,-400,4,2,1,20,0,0
1641,-200,4,2,1,60,0,0
14028,-133.333333333333,4,2,1,65,0,0
32609,-200,4,2,1,65,0,0
38415,-200,4,3,1,65,0,0
39576,-200,4,2,1,65,0,0
41125,-200,4,3,1,65,0,0
41899,-200,4,2,1,65,0,0
42092,-200,4,3,1,65,0,0
42286,-200,4,2,1,65,0,0
43383,-200,4,3,1,65,0,0
44609,-200,4,2,1,65,0,0
44673,-200,4,3,1,65,0,0
46541,400,4,2,1,70,1,0
46941,413.793103448276,4,2,1,70,1,0
47354,461.538461538462,4,2,1,70,1,0
47815,521.739130434783,4,2,1,70,1,0
48330,272.727272727273,4,2,1,70,1,0
48330,-133.333333333333,4,2,1,70,0,0
57057,-100,4,2,1,70,0,0
65332,-100,4,3,1,70,0,0
65784,-200,4,2,1,70,0,0
81057,-133.333333333333,4,2,1,70,0,0
82148,-133.333333333333,4,3,1,70,0,0
83239,-100,4,2,1,70,0,1
91830,-100,4,3,1,70,0,1
91966,-100,4,2,1,70,0,1
99602,-100,4,3,1,70,0,1
100693,-100,4,2,1,70,0,0
118148,-100,4,3,1,70,0,0

[Colours]
Combo1 : 228,221,69
Combo2 : 203,216,228
Combo3 : 89,120,193
Combo4 : 232,206,189
Combo5 : 228,86,50
Combo6 : 234,231,206

[HitObjects]
140,232,1254,22,0,L|145:195,1,37.5,0|0,0:0|0:0,0:0:0:0:
87,118,1641,69,4,0:0:0:0:
325,155,2028,1,2,0:0:0:0:
140,232,2415,1,2,0:0:0:0:
262,288,2705,1,2,0:0:0:0:
203,115,2996,6,0,B|250:127|250:127|308:116,1,100,2|0,0:0|0:0,0:0:0:0:
320,113,3770,1,0,0:0:0:0:
372,270,3963,2,0,L|382:188,2,75,2|2|2,0:0|0:0|0:0,0:0:0:0:
357,287,4931,70,0,L|400:282,1,25,0|2,0:0|0:0,0:0:0:0:
224,250,5222,2,0,L|181:245,1,25,0|2,0:0|0:0,0:0:0:0:
235,266,5705,1,0,0:0:0:0:
310,124,5899,1,0,0:0:0:0:
122,159,6092,6,0,L|55:150,1,50,2|0,0:0|0:0,0:0:0:0:
154,86,6383,1,0,0:0:0:0:
154,86,6480,1,0,0:0:0:0:
156,110,6576,1,0,0:0:0:0:
160,134,6673,1,0,0:0:0:0:
199,139,6770,1,0,0:0:0:0:
232,160,6867,1,0,0:0:0:0:
251,194,6963,1,0,0:0:0:0:
247,244,7060,2,0,L|346:234,1,100,2|2,0:0|0:0,0:0:0:0:
185,320,7834,70,0,P|164:296|153:258,1,50,4|2,0:0|0:0,0:0:0:0:
69,308,8125,1,2,0:0:0:0:
69,308,8222,2,0,P|62:276|72:238,1,50,2|2,0:0|0:0,0:0:0:0:
0,212,8512,1,2,0:0:0:0:
0,212,8609,2,0,P|17:188|52:165,1,50,2|2,0:0|0:0,0:0:0:0:
28,83,8899,1,2,0:0:0:0:
28,83,8996,2,0,P|58:86|88:96,1,50,2|2,0:0|0:0,0:0:0:0:
165,40,9286,1,2,0:0:0:0:
165,40,9383,2,0,P|172:69|172:105,1,50,2|2,0:0|0:0,0:0:0:0:
133,226,9673,1,2,0:0:0:0:
133,226,9770,2,0,P|132:195|140:161,1,50,2|2,0:0|0:0,0:0:0:0:
241,169,10060,1,2,0:0:0:0:
241,169,10157,6,0,P|261:172|280:172,1,25,2|0,0:0|0:0,0:0:0:0:
274,262,10351,2,0,P|294:260|313:256,1,25,2|0,0:0|0:0,0:0:0:0:
383,295,10544,2,0,P|398:286|411:274,1,25,2|0,0:0|0:0,0:0:0:0:
450,202,10738,1,2,0:0:0:0:
378,94,10931,70,0,L|383:51,2,33.3333333333333,0|0|0,0:0|0:0|0:0,0:0:0:0:
265,152,11318,2,0,L|260:109,2,33.3333333333333,0|0|0,0:0|0:0|0:0,0:0:0:0:
359,243,11705,2,0,L|364:200,2,33.3333333333333,0|0|0,0:0|0:0|0:0,0:0:0:0:
290,341,12092,2,0,L|285:298,2,33.3333333333333,0|0|0,0:0|0:0|0:0,0:0:0:0:
167,280,12480,6,0,P|134:276|101:277,1,50,2|0,0:0|0:0,0:0:0:0:
41,287,12770,1,0,0:0:0:0:
41,287,12867,1,0,0:0:0:0:
50,248,12963,1,0,0:0:0:0:
54,208,13060,1,0,0:0:0:0:
50,168,13157,1,0,0:0:0:0:
26,124,13254,2,0,P|84:135|124:132,1,100,2|2,0:0|0:0,0:0:0:0:
331,91,14028,37,4,0:0:0:0:
276,162,14222,1,0,0:0:0:0:
309,245,14415,2,0,P|316:281|312:328,1,75.0000028610231,2|0,0:0|0:0,0:0:0:0:
150,329,14802,2,0,P|143:293|146:245,1,75.0000028610231,2|0,0:0|0:0,0:0:0:0:
188,177,15092,1,0,0:0:0:0:
188,177,15189,2,0,B|151:169|151:169|107:172,1,75.0000028610231,2|0,0:0|0:0,0:0:0:0:
52,101,15480,1,0,0:0:0:0:
52,101,15576,6,0,L|54:61,3,37.5000014305115,2|0|0|0,0:0|0:0|0:0|0:0,0:0:0:0:
152,86,15963,2,0,L|156:48,3,37.5000014305115,2|0|0|0,0:0|0:0|0:0|0:0,0:0:0:0:
252,70,16351,1,2,0:0:0:0:
281,66,16447,1,0,0:0:0:0:
310,62,16544,1,0,0:0:0:0:
339,58,16641,1,0,0:0:0:0:
368,54,16738,1,2,0:0:0:0:
394,80,16834,1,0,0:0:0:0:
403,116,16931,1,0,0:0:0:0:
398,153,17028,1,0,0:0:0:0:
365,193,17125,70,0,P|357:232|359:274,1,75.0000028610231,2|0,0:0|0:0,0:0:0:0:
276,221,17415,1,0,0:0:0:0:
270,243,17512,2,0,P|272:282|285:322,1,75.0000028610231,2|0,0:0|0:0,0:0:0:0:
181,277,17802,1,0,0:0:0:0:
186,299,17899,1,2,0:0:0:0:
149,291,17996,1,0,0:0:0:0:
112,295,18092,1,0,0:0:0:0:
77,309,18189,1,0,0:0:0:0:
50,335,18286,2,0,P|38:355|32:377,3,37.5000014305115,2|0|0|0,0:0|0:0|0:0|0:0,0:0:0:0:
62,226,18673,6,0,P|55:208|45:192,3,37.5000014305115,2|0|0|0,0:0|0:0|0:0|0:0,0:0:0:0:
165,178,19060,2,0,P|168:159|167:140,1,37.5000014305115,2|0,0:0|0:0,0:0:0:0:
284,213,19254,1,0,0:0:0:0:
284,213,19351,1,0,0:0:0:0:
284,213,19447,2,0,L|336:207,1,37.5000014305115,2|0,0:0|0:0,0:0:0:0:
430,154,19641,2,0,L|378:148,1,37.5000014305115,2|0,0:0|0:0,0:0:0:0:
241,124,19834,2,0,L|293:118,1,37.5000014305115,2|0,0:0|0:0,0:0:0:0:
469,63,20028,2,0,L|417:57,1,37.5000014305115,2|0,0:0|0:0,0:0:0:0:
181,25,20222,70,0,L|176:1,5,25.0000009536744,4|0|0|0|0|0,0:0|0:0|0:0|0:0|0:0|0:0,0:0:0:0:
109,92,20609,2,0,L|85:87,5,25.0000009536744,0|0|0|0|0|0,0:0|0:0|0:0|0:0|0:0|0:0,0:0:0:0:
170,173,20996,1,0,0:0:0:0:
312,222,21189,1,0,0:0:0:0:
170,173,21383,1,0,0:0:0:0:
312,222,21576,1,0,0:0:0:0:
69,285,21770,6,0,B|81:219|81:219|73:168,1,112.500004291535,4|0,0:0|0:0,0:0:0:0:
174,62,22157,2,0,B|162:128|162:128|170:179,1,112.500004291535,0|0,0:0|0:0,0:0:0:0:
252,125,22544,2,0,L|258:88,1,37.5000014305115,0|0,0:0|0:0,0:0:0:0:
142,277,22738,2,0,P|103:276|66:285,1,75.0000028610231,4|0,0:0|0:0,0:0:0:0:
253,249,23028,2,0,P|289:257|326:256,1,75.0000028610231,4|0,0:0|0:0,0:0:0:0:
402,221,23318,69,6,0:0:0:0:
423,226,23415,1,2,0:0:0:0:
444,231,23512,1,2,0:0:0:0:
466,235,23609,1,2,0:0:0:0:
328,171,23802,1,2,0:0:0:0:
454,80,23996,2,0,L|496:72,1,37.5000014305115,2|2,0:0|0:0,0:0:0:0:
287,42,24286,2,0,L|245:34,1,37.5000014305115,2|2,0:0|0:0,0:0:0:0:
342,163,24576,1,2,0:0:0:0:
207,145,24770,1,2,0:0:0:0:
263,272,24963,5,2,0:0:0:0:
285,267,25060,1,2,0:0:0:0:
307,262,25157,1,2,0:0:0:0:
188,354,25351,1,2,0:0:0:0:
68,241,25544,2,0,L|23:232,1,37.5000014305115,2|2,0:0|0:0,0:0:0:0:
244,162,25834,2,0,L|280:154,1,37.5000014305115,2|2,0:0|0:0,0:0:0:0:
41,95,26125,1,2,0:0:0:0:
167,54,26318,1,2,0:0:0:0:
186,48,26415,69,6,0:0:0:0:
182,70,26512,1,2,0:0:0:0:
178,92,26609,1,2,0:0:0:0:
174,114,26705,1,2,0:0:0:0:
342,49,26899,1,2,0:0:0:0:
465,180,27092,2,0,L|507:188,1,37.5000014305115,2|2,0:0|0:0,0:0:0:0:
280,217,27383,2,0,L|238:225,1,37.5000014305115,2|2,0:0|0:0,0:0:0:0:
421,326,27673,1,2,0:0:0:0:
141,346,27867,1,2,0:0:0:0:
141,346,27963,5,6,0:0:0:0:
141,346,28060,2,0,L|148:294,2,37.5000014305115,2|2|2,0:0|0:0|0:0,0:0:0:0:
85,130,28447,2,0,B|92:172|92:172|88:204,1,75.0000028610231,2|2,0:0|0:0,0:0:0:0:
24,66,28738,1,4,0:0:0:0:
24,66,28867,2,0,P|48:50|74:42,1,50.0000019073487,4|4,0:0|0:0,0:0:0:0:
182,80,29125,2,0,P|203:95|227:103,1,50.0000019073487,4|4,0:0|0:0,0:0:0:0:
342,74,29383,1,4,0:0:0:0:
383,80,32609,5,2,0:0:0:0:
182,177,33383,1,4,0:0:0:0:
256,192,33480,12,2,35705,0:0:0:0:
256,192,35802,12,8,38415,0:0:0:0:
351,139,38802,6,0,L|369:132,5,16.6666666666667,8|8|8|8|8|8,0:0|0:0|0:0|0:0|0:0|0:0,0:0:0:0:
296,210,39189,2,0,L|292:234,5,16.6666666666667,4|4|4|4|4|4,0:0|0:0|0:0|0:0|0:0|0:0,0:0:0:0:
232,151,39576,70,0,P|188:144|130:148,1,100,4|0,0:0|0:0,0:0:0:0:
305,55,40222,2,0,L|300:25,1,16.6666666666667,2|0,0:0|0:0,0:0:0:0:
385,24,40351,6,0,B|392:63|392:63|385:128,1,100,4|0,0:0|0:0,0:0:0:0:
346,268,41125,2,0,L|361:354,2,75,8|8|4,0:0|0:0|0:0,0:0:0:0:
476,359,41899,69,4,0:0:0:0:
237,325,42092,2,0,L|208:320,2,16.6666666666667,8|8|8,0:0|0:0|0:0,0:0:0:0:
191,332,42286,2,0,B|197:304|197:304|189:255,1,75,2|0,0:0|0:0,0:0:0:0:
126,194,42673,2,0,L|73:186,1,50,0|8,0:0|0:0,0:0:0:0:
215,171,42963,2,0,L|268:163,1,50,4|8,0:0|0:0,0:0:0:0:
151,105,43254,2,0,P|152:83|158:57,1,33.3333333333333,4|8,0:0|0:0,0:0:0:0:
243,42,43447,6,0,L|159:52,1,75,8|8,0:0|0:0,0:0:0:0:
334,86,44028,2,0,L|418:96,1,75,8|4,0:0|0:0,0:0:0:0:
346,188,44609,2,0,L|349:208,5,16.6666666666667,8|8|0|0|8|2,0:0|0:0|0:0|0:0|0:0|2:0,0:0:0:0:
256,192,44996,12,0,47815,0:0:0:0:
431,222,48330,37,2,0:0:0:0:
431,222,48466,2,0,L|357:211,1,75.0000028610231,2|0,0:0|0:0,0:0:0:0:
340,305,48739,1,2,0:0:0:0:
340,305,48875,2,0,L|266:317,1,75.0000028610231,2|0,0:0|0:0,0:0:0:0:
244,217,49148,1,2,0:0:0:0:
244,217,49284,2,0,L|170:206,1,75.0000028610231,2|0,0:0|0:0,0:0:0:0:
153,300,49557,1,2,0:0:0:0:
153,300,49693,2,0,L|79:312,1,75.0000028610231,2|0,0:0|0:0,0:0:0:0:
19,190,49966,2,0,P|20:158|36:111,1,75.0000028610231,2|0,0:0|0:0,0:0:0:0:
184,133,50239,2,0,P|182:164|166:211,1,75.0000028610231,2|0,0:0|0:0,0:0:0:0:
18,37,50511,5,2,0:0:0:0:
18,38,50647,2,0,L|93:27,1,75.0000028610231,2|0,0:0|0:0,0:0:0:0:
109,121,50920,1,2,0:0:0:0:
109,121,51056,2,0,L|184:133,1,75.0000028610231,2|0,0:0|0:0,0:0:0:0:
244,39,51329,1,2,0:0:0:0:
244,39,51465,2,0,L|319:28,1,75.0000028610231,2|0,0:0|0:0,0:0:0:0:
335,122,51738,1,2,0:0:0:0:
335,122,51874,2,0,L|410:134,1,75.0000028610231,2|0,0:0|0:0,0:0:0:0:
393,256,52148,2,0,P|400:292|398:330,1,75.0000028610231,2|0,0:0|0:0,0:0:0:0:
228,337,52420,2,0,P|220:300|223:263,1,75.0000028610231,2|0,0:0|0:0,0:0:0:0:
256,143,52693,69,6,0:0:0:0:
256,143,52830,2,0,L|182:155,1,75.0000028610231,2|0,0:0|0:0,0:0:0:0:
33,80,53102,1,2,0:0:0:0:
33,80,53239,2,0,L|108:92,1,75.0000028610231,2|0,0:0|0:0,0:0:0:0:
274,46,53511,1,2,0:0:0:0:
274,46,53648,2,0,L|200:58,1,75.0000028610231,2|0,0:0|0:0,0:0:0:0:
13,177,53920,1,2,0:0:0:0:
13,177,54057,2,0,L|88:189,1,75.0000028610231,2|0,0:0|0:0,0:0:0:0:
272,259,54330,2,0,P|281:303|209:374,1,150.000005722046,4|2,0:0|0:0,0:0:0:0:
199,193,54875,6,0,B|274:206|274:206|349:194,1,150.000005722046,4|2,0:0|0:0,0:0:0:0:
356,105,55284,1,2,0:0:0:0:
356,105,55420,2,0,L|372:13,1,75.0000028610231,2|0,0:0|0:0,0:0:0:0:
180,31,55693,2,0,L|196:123,1,75.0000028610231,2|0,0:0|0:0,0:0:0:0:
74,191,55966,22,0,P|36:190|1:178,1,75.0000028610231,4|0,0:0|0:0,0:0:0:0:
165,136,56239,2,0,P|200:123|237:122,1,75.0000028610231,4|0,0:0|0:0,0:0:0:0:
273,279,56511,2,0,P|239:294|201:298,1,75.0000028610231,4|0,0:0|0:0,0:0:0:0:
38,334,56784,2,0,P|64:307|97:289,1,75.0000028610231,4|0,0:0|0:0,0:0:0:0:
273,279,57057,6,0,B|321:267|321:267|373:279,1,100,4|0,0:0|0:0,0:0:0:0:
469,305,57330,1,8,0:0:0:0:
393,188,57466,2,0,P|382:132|389:87,1,100,0|0,0:0|0:0,0:0:0:0:
256,270,57739,1,0,0:0:0:0:
286,92,57875,2,0,P|304:38|333:2,1,100,8|0,0:0|0:0,0:0:0:0:
409,182,58148,5,0,0:0:0:0:
221,200,58284,2,0,P|178:254|250:349,1,200,8|0,0:0|0:0,0:0:0:0:
111,199,58693,2,0,P|55:188|9:195,1,100,8|0,0:0|0:0,0:0:0:0:
256,270,58966,2,0,P|312:281|357:273,1,100,8|0,0:0|0:0,0:0:0:0:
282,66,59239,70,0,B|274:123|274:123|282:170,1,100,0|0,0:0|0:0,0:0:0:0:
453,331,59511,1,8,0:0:0:0:
352,372,59648,2,0,B|360:315|360:315|352:268,1,100,0|0,0:0|0:0,0:0:0:0:
179,101,59920,1,0,0:0:0:0:
118,244,60057,2,0,L|225:229,1,100,8|0,0:0|0:0,0:0:0:0:
376,167,60330,5,0,0:0:0:0:
306,61,60466,2,0,P|368:-7|454:31,1,200,8|0,0:0|0:0,0:0:0:0:
317,359,60875,2,0,P|312:310|325:262,1,100,8|0,0:0|0:0,0:0:0:0:
385,70,61148,2,0,P|390:119|377:167,1,100,8|0,0:0|0:0,0:0:0:0:
169,97,61420,69,2,0:0:0:0:
300,113,61557,1,2,0:0:0:0:
161,107,61693,1,10,0:0:0:0:
239,241,61830,2,0,B|246:282|246:282|238:353,2,100,2|0|0,0:0|0:0|0:0,0:0:0:0:
364,244,62239,5,10,0:0:0:0:
233,228,62376,1,2,0:0:0:0:
372,234,62512,1,2,0:0:0:0:
300,113,62649,2,0,B|293:72|293:72|301:1,2,100,2|12|0,0:0|0:0|0:0,0:0:0:0:
413,151,63057,2,0,P|468:156|513:171,1,100,4|0,0:0|0:0,0:0:0:0:
470,346,63330,2,0,P|414:340|369:325,1,100,12|0,0:0|0:0,0:0:0:0:
160,104,63602,70,0,B|169:171|169:171|145:231|145:231|155:298,1,200,4|8,0:0|0:0,0:0:0:0:
79,155,64011,2,0,B|69:90|69:90|85:53,2,100,0|4|8,0:0|0:0|0:0,0:0:0:0:
235,247,64420,2,0,B|244:311|244:311|229:349,1,100,4|0,0:0|0:0,0:0:0:0:
355,212,64693,6,0,P|410:195|461:196,1,100,12|0,0:0|0:0,0:0:0:0:
257,121,64966,1,0,0:0:0:0:
257,121,65102,2,0,P|202:104|151:105,1,100,8|0,0:0|0:0,0:0:0:0:
201,203,65330,1,8,0:0:0:0:
211,227,65420,1,8,0:0:0:0:
215,253,65511,2,0,P|217:284|211:327,2,66.6666666666667,0|0|4,0:0|0:0|0:0,0:0:0:0:
122,360,65784,37,4,0:0:0:0:
357,310,66193,1,2,0:0:0:0:
201,203,66602,1,2,0:0:0:0:
196,187,67148,1,2,0:0:0:0:
128,113,67420,1,2,0:0:0:0:
158,17,67693,1,2,0:0:0:0:
295,166,67966,5,0,0:0:0:0:
325,70,68784,1,2,0:0:0:0:
363,240,68920,1,2,0:0:0:0:
295,166,69739,1,2,0:0:0:0:
265,262,69875,2,0,L|247:329,1,50,2|2,0:0|0:0,0:0:0:0:
196,194,70148,70,0,L|147:206,7,50,0|0|0|0|0|0|0|0,0:0|0:0|0:0|0:0|0:0|0:0|0:0|0:0,0:0:0:0:
60,121,71375,1,2,0:0:0:0:
60,121,71511,1,2,0:0:0:0:
155,48,71784,1,0,0:0:0:0:
265,93,72057,1,0,0:0:0:0:
379,53,72330,6,0,L|435:46,1,50,2|0,0:0|0:0,0:0:0:0:
358,167,72602,1,2,0:0:0:0:
358,167,72739,2,0,B|352:208|352:208|361:271,2,100,2|0|0,0:0|0:0|0:0,0:0:0:0:
358,167,73966,1,2,0:0:0:0:
237,118,74239,1,2,0:0:0:0:
134,198,74511,69,2,0:0:0:0:
134,198,75193,1,2,0:0:0:0:
197,286,75330,2,0,L|191:342,1,50,2|0,0:0|0:0,0:0:0:0:
299,248,75602,1,2,0:0:0:0:
213,105,76011,1,2,0:0:0:0:
396,102,76420,1,2,0:0:0:0:
292,12,76693,5,2,0:0:0:0:
261,201,76966,1,2,0:0:0:0:
261,201,77102,1,2,0:0:0:0:
395,186,77375,2,0,L|457:176,2,50,0|0|0,0:0|0:0|0:0,0:0:0:0:
479,81,77784,1,2,0:0:0:0:
488,66,78057,2,0,L|498:4,1,50,2|0,0:0|0:0,0:0:0:0:
391,114,78330,2,0,L|401:176,1,50,2|0,0:0|0:0,0:0:0:0:
305,44,78602,2,0,L|243:34,1,50,2|0,0:0|0:0,0:0:0:0:
97,70,78875,69,0,0:0:0:0:
286,151,79693,1,2,0:0:0:0:
286,151,79830,1,2,0:0:0:0:
87,218,80102,2,0,P|82:249|82:275,1,50,0|0,0:0|0:0,0:0:0:0:
166,266,80375,2,0,P|169:297|175:322,1,50,0|0,0:0|0:0,0:0:0:0:
254,291,80648,2,0,P|265:320|278:342,2,50,0|0|0,0:0|0:0|0:0,0:0:0:0:
159,74,81057,70,0,L|174:-10,1,75.0000028610231,4|0,0:0|0:0,0:0:0:0:
66,116,81330,1,8,0:0:0:0:
242,133,81466,2,0,L|257:49,1,75.0000028610231,4|0,0:0|0:0,0:0:0:0:
149,176,81739,2,0,P|127:206|114:241,1,75.0000028610231,12|8,0:0|0:0,0:0:0:0:
249,311,82011,2,0,P|233:276|209:248,1,75.0000028610231,0|8,0:0|0:0,0:0:0:0:
81,330,82284,2,0,P|118:334|155:327,2,75.0000028610231,4|4|4,0:0|0:0|0:0,0:0:0:0:
81,330,83239,38,0,B|65:208|65:208|80:128,1,200,4|8,0:0|0:0,0:0:0:0:
188,76,83648,2,0,P|101:116|24:61,1,200,2|0,0:0|0:0,0:0:0:0:
217,197,84057,1,10,0:0:0:0:
304,68,84193,6,0,P|390:28|468:83,1,200,6|0,0:0|0:0,0:0:0:0:
431,270,84602,2,0,P|382:273|325:261,1,100,10|0,0:0|0:0,0:0:0:0:
118,203,84875,2,0,P|167:206|224:194,1,100,2|0,0:0|0:0,0:0:0:0:
334,44,85148,2,0,L|324:157,1,100,10|0,0:0|0:0,0:0:0:0:
37,268,85420,70,0,B|48:211|48:211|37:151|37:151|64:113|103:109,1,200,2|8,0:0|0:0,0:0:0:0:
201,207,85830,2,0,P|145:129|185:42,1,200,0|0,0:0|0:0,0:0:0:0:
425,73,86239,1,10,0:0:0:0:
324,142,86375,6,0,B|315:246|315:246|343:344,1,200,2|0,0:0|0:0,0:0:0:0:
511,227,86784,2,0,L|411:236,1,100,12|0,0:0|0:0,0:0:0:0:
314,52,87057,2,0,P|319:105|306:152,1,100,0|2,0:0|0:0,0:0:0:0:
156,212,87330,1,10,0:0:0:0:
191,37,87466,1,2,0:0:0:0:
50,176,87602,70,0,B|45:224|45:224|57:279,1,100,6|2,0:0|0:0,0:0:0:0:
254,266,87875,1,10,0:0:0:0:
156,212,88011,1,2,0:0:0:0:
353,203,88148,2,0,B|365:254|365:254|360:302,1,100,2|2,0:0|0:0,0:0:0:0:
156,324,88420,1,10,0:0:0:0:
267,133,88557,6,0,P|251:38|161:5,1,200,2|2,0:0|0:0,0:0:0:0:
14,164,88966,2,0,P|71:178|120:172,1,100,14|0,0:0|0:0,0:0:0:0:
364,143,89239,2,0,P|307:129|258:135,1,100,2|0,0:0|0:0,0:0:0:0:
55,292,89511,2,0,P|113:290|159:272,1,100,10|0,0:0|0:0,0:0:0:0:
325,46,89784,69,6,0:0:0:0:
335,33,90057,1,10,0:0:0:0:
149,67,90193,2,0,B|158:134|158:134|139:197|139:197|149:268,1,200,2|0,0:0|0:0,0:0:0:0:
208,336,90534,1,0,0:0:0:0:
208,336,90602,2,0,P|159:356|109:349,1,100,8|0,0:0|0:0,0:0:0:0:
235,210,90875,6,0,P|256:206|291:207,3,50,4|0|0|0,0:0|0:0|0:0|0:0,0:0:0:0:
277,120,91148,2,0,P|298:121|331:131,3,50,8|0|0|0,0:0|0:0|0:0|0:0,0:0:0:0:
450,187,91420,2,0,P|425:184|402:178,3,50,0|0|0|0,0:0|0:0|0:0|0:0,0:0:0:0:
491,97,91693,2,0,P|466:101|442:101,3,50,8|0|0|0,0:0|0:0|0:0|0:0,0:0:0:0:
365,34,91966,69,4,0:0:0:0:
333,22,92057,1,0,0:0:0:0:
299,21,92148,1,0,0:0:0:0:
266,29,92239,2,0,P|238:39|208:60,2,66.6666666666667,8|0|0,0:0|0:0|0:0,0:0:0:0:
313,114,92511,2,0,P|344:125|371:145,2,66.6666666666667,0|0|0,0:0|0:0|0:0,0:0:0:0:
161,142,92784,2,0,B|166:174|166:174|160:217,2,66.6666666666667,8|0|0,0:0|0:0|0:0,0:0:0:0:
250,224,93057,6,0,B|246:258|246:258|251:290,2,66.6666666666667,4|0|0,0:0|0:0|0:0,0:0:0:0:
163,326,93330,1,8,0:0:0:0:
138,318,93420,2,0,P|102:320|67:328,1,66.6666666666667,0|0,0:0|0:0,0:0:0:0:
84,181,93602,1,0,0:0:0:0:
75,148,93693,1,0,0:0:0:0:
80,115,93784,1,0,0:0:0:0:
96,86,93875,1,8,0:0:0:0:
122,65,93966,2,0,P|159:52|188:51,1,66.6666666666667,0|0,0:0|0:0,0:0:0:0:
276,121,94148,69,4,0:0:0:0:
274,147,94239,1,0,0:0:0:0:
271,174,94330,1,0,0:0:0:0:
268,200,94420,1,8,0:0:0:0:
292,231,94511,1,0,0:0:0:0:
328,246,94602,1,0,0:0:0:0:
367,244,94693,2,0,P|412:228|441:186,1,100,0|0,0:0|0:0,0:0:0:0:
382,58,94898,1,0,0:0:0:0:
363,66,94966,2,0,B|355:116|355:116|365:165,1,100,8|0,0:0|0:0,0:0:0:0:
171,95,95239,6,0,L|118:87,3,50,4|0|0|0,0:0|0:0|0:0|0:0,0:0:0:0:
231,153,95511,2,0,L|283:145,3,50,12|0|0|0,0:0|0:0|0:0|0:0,0:0:0:0:
191,225,95784,2,0,L|138:217,3,50,4|0|0|0,0:0|0:0|0:0|0:0,0:0:0:0:
207,307,96057,2,0,L|262:300,3,50,12|0|0|0,0:0|0:0|0:0|0:0,0:0:0:0:
68,264,96330,70,0,P|47:216|54:161,1,100,4|0,0:0|0:0,0:0:0:0:
114,22,96602,1,8,0:0:0:0:
141,201,96739,2,0,P|175:143|297:153,1,200,4|0,0:0|0:0,0:0:0:0:
424,246,97148,2,0,L|473:253,3,50
231,214,97420,6,0,P|208:166|213:115,1,100,12|0,0:0|0:0,0:0:0:0:
292,4,97693,1,8,0:0:0:0:
320,225,97830,2,0,P|286:283|164:273,1,200,4|0,0:0|0:0,0:0:0:0:
72,74,98239,2,0,L|64:24,3,50,0|0|0|0,0:0|0:0|0:0|0:0,0:0:0:0:
28,151,98511,69,6,0:0:0:0:
25,177,98602,1,2,0:0:0:0:
27,203,98693,1,2,0:0:0:0:
35,228,98784,2,0,B|43:288|43:288|32:333,1,100,2|0,0:0|0:0,0:0:0:0:
117,182,99057,1,2,0:0:0:0:
149,173,99148,1,2,0:0:0:0:
182,171,99239,1,2,0:0:0:0:
214,177,99330,2,0,P|266:184|317:177,1,100,2|0,0:0|0:0,0:0:0:0:
392,52,99602,6,0,P|393:86|384:121,2,66.6666666666667,8|0|0,0:0|0:0|0:0,0:0:0:0:
482,134,99875,2,0,P|480:168|489:203,2,66.6666666666667,8|0|0,0:0|0:0|0:0,0:0:0:0:
382,229,100148,2,0,P|352:247|317:256,2,66.6666666666667,4|4|4,0:0|0:0|0:0,0:0:0:0:
426,354,100420,2,0,P|455:372|490:381,2,66.6666666666667,0|0|0,0:0|0:0|0:0,0:0:0:0:
290,142,100693,6,0,P|308:212|210:269,1,200,4|8,0:0|0:0,0:0:0:0:
105,221,101102,1,2,0:0:0:0:
232,194,101239,1,2,0:0:0:0:
93,203,101375,1,2,0:0:0:0:
215,107,101511,2,0,P|227:57|225:8,1,100,10|0,0:0|0:0,0:0:0:0:
82,183,101784,5,2,0:0:0:0:
82,183,101920,2,0,P|80:232|92:281,2,100,2|8|0,0:0|0:0|0:0,0:0:0:0:
207,123,102330,2,0,L|308:115,1,100,2|0,0:0|0:0,0:0:0:0:
115,64,102602,2,0,L|14:56,1,100,10|0,0:0|0:0,0:0:0:0:
216,132,102875,69,2,0:0:0:0:
71,172,103011,1,2,0:0:0:0:
228,141,103148,1,10,0:0:0:0:
142,252,103284,2,0,P|130:302|132:351,2,100,2|0|0,0:0|0:0|0:0,0:0:0:0:
294,203,103693,5,10,0:0:0:0:
445,234,103829,1,2,0:0:0:0:
285,212,103966,1,2,0:0:0:0:
403,136,104102,2,0,P|414:87|413:37,2,100,2|8|0,0:0|0:0|0:0,0:0:0:0:
356,262,104511,2,0,B|346:322|346:322|352:371,1,100,2|0,0:0|0:0,0:0:0:0:
292,169,104784,2,0,B|302:109|302:109|296:60,1,100,10|0,0:0|0:0,0:0:0:0:
137,48,105057,69,6,0:0:0:0:
175,201,105193,1,2,0:0:0:0:
145,64,105330,1,10,0:0:0:0:
52,218,105466,2,0,P|40:266|41:316,2,100,2|0|0,0:0|0:0|0:0,0:0:0:0:
153,81,105875,5,10,0:0:0:0:
130,237,106011,1,2,0:0:0:0:
161,97,106148,1,2,0:0:0:0:
272,263,106284,2,0,P|283:312|282:362,2,100,2|8|0,0:0|0:0|0:0,0:0:0:0:
384,115,106693,2,0,L|490:107,1,100,2|0,0:0|0:0,0:0:0:0:
252,174,106966,2,0,L|146:166,1,100,10|0,0:0|0:0,0:0:0:0:
354,273,107239,70,0,P|365:321|364:371,1,100,4|0,0:0|0:0,0:0:0:0:
213,242,107511,1,10,0:0:0:0:
213,242,107648,2,0,P|247:278|270:322,1,100,2|0,0:0|0:0,0:0:0:0:
75,285,107920,1,2,0:0:0:0:
75,285,108057,2,0,P|122:298|165:325,1,100,10|0,0:0|0:0,0:0:0:0:
159,140,108330,6,0,B|167:76|167:76|158:33,1,100,4|0,0:0|0:0,0:0:0:0:
14,199,108602,2,0,L|64:193,3,50,8|0|0|0,0:0|0:0|0:0|0:0,0:0:0:0:
159,251,108875,2,0,L|215:258,3,50,0|0|0|0,0:0|0:0|0:0|0:0,0:0:0:0:
250,176,109148,1,8,0:0:0:0:
257,169,109216,1,0,0:0:0:0:
264,162,109284,1,0,0:0:0:0:
271,155,109352,1,0,0:0:0:0:
279,148,109420,38,0,P|334:151|381:138,1,100,4|0,0:0|0:0,0:0:0:0:
475,291,109693,1,8,0:0:0:0:
475,291,109830,2,0,P|425:294|376:282,1,100,2|0,0:0|0:0,0:0:0:0:
171,216,110102,1,0,0:0:0:0:
171,216,110239,2,0,L|183:320,1,100,10|0,0:0|0:0,0:0:0:0:
279,148,110511,5,0,0:0:0:0:
279,148,110648,2,0,B|318:92|286:29|286:29|368:44,1,200,10|0,0:0|0:0,0:0:0:0:
200,84,111057,2,0,B|137:95|137:95|90:86,1,100,10|0,0:0|0:0,0:0:0:0:
279,148,111330,2,0,B|278:150|383:129,1,100,10|0,0:0|0:0,0:0:0:0:
228,236,111602,70,0,B|165:247|165:247|124:272,1,100,4|0,0:0|0:0,0:0:0:0:
313,367,111875,1,8,0:0:0:0:
313,367,112011,2,0,P|328:331|328:271,1,100,2|0,0:0|0:0,0:0:0:0:
213,139,112284,1,0,0:0:0:0:
213,139,112420,2,0,P|210:189|228:236,1,100,10|0,0:0|0:0,0:0:0:0:
360,61,112693,5,0,0:0:0:0:
360,61,112830,2,0,B|328:49|288:66|288:66|261:34|208:24|171:42,1,200,10|0,0:0|0:0,0:0:0:0:
324,262,113239,2,0,L|334:163,1,100,10|0,0:0|0:0,0:0:0:0:
117,122,113511,2,0,L|126:221,1,100,10|0,0:0|0:0,0:0:0:0:
249,347,113784,69,6,0:0:0:0:
79,328,113920,1,2,0:0:0:0:
263,334,114057,1,10,0:0:0:0:
126,222,114193,2,0,B|69:210|69:210|26:217,2,100,2|0|0,0:0|0:0|0:0,0:0:0:0:
241,248,114602,5,10,0:0:0:0:
411,229,114738,1,2,0:0:0:0:
227,235,114875,1,2,0:0:0:0:
364,123,115011,2,0,B|421:111|421:111|464:118,2,100,2|8|0,0:0|0:0|0:0,0:0:0:0:
123,144,115420,2,0,P|118:94|132:46,1,100,4|0,0:0|0:0,0:0:0:0:
309,70,115693,2,0,P|313:119|299:167,1,100,12|0,0:0|0:0,0:0:0:0:
165,379,115966,6,0,P|162:285|71:261,1,200,4|8,0:0|0:0,0:0:0:0:
14,366,116375,2,0,B|35:256|35:256|16:163,1,200,4|8,0:0|0:0,0:0:0:0:
102,46,116784,2,0,B|123:144|123:144|163:99|212:115,1,200,4|0,0:0|0:0,0:0:0:0:
374,228,117193,6,0,P|374:278|364:327,1,100
187,288,117466,2,0,P|181:238|189:189,1,100
376,150,117739,2,0,P|390:198|392:248,1,100,8|8,0:0|0:0,0:0:0:0:
267,49,118011,1,8,0:0:0:0:
226,207,118148,22,0,B|221:246|221:246|226:280,2,66.6666666666667,8|8|8,0:2|0:2|0:2,0:0:0:0:
282,133,118420,2,0,P|223:159|125:146,1,133.333333333333,4|0,0:0|0:0,0:0:0:0:
91,108,118693,1,4,0:2:0:0:
256,192,118761,12,0,122443,0:0:0:0:
