osu file format v14

[General]
AudioFilename: audio.mp3
AudioLeadIn: 0
PreviewTime: 82631
Countdown: 0
SampleSet: Soft
StackLeniency: 0.2
Mode: 0
LetterboxInBreaks: 0
WidescreenStoryboard: 1

[Editor]
Bookmarks: 7835,14029,29512,48336,65790,109426,118699
DistanceSpacing: 1.2
BeatDivisor: 4
GridSize: 4
TimelineZoom: 1.6

[Metadata]
Title:Preserved Valkyria
TitleUnicode:Preserved Valkyria
Artist:penoreri
ArtistUnicode:ぺのれり
Creator:Alheak
Version:BASIC
Source:SOUND VOLTEX III GRAVITY WARS
Tags:konami sdvx 3 kac Song Contest Champion GoldenWolf Ponoyoshi pono Ayyri Realazy real bemani
BeatmapID:1081316
BeatmapSetID:433002

[Difficulty]
HPDrainRate:2
CircleSize:3
OverallDifficulty:2
ApproachRate:4
SliderMultiplier:0.799999999999999
SliderTickRate:1

[Events]
//Background and Video events
0,0,"bg.jpg",0,0
//Break Periods
2,65984,77555
//Storyboard Layer 0 (Background)
//Storyboard Layer 1 (Fail)
//Storyboard Layer 2 (Pass)
//Storyboard Layer 3 (Foreground)
//Storyboard Sound Samples

[TimingPoints]
93,387.096774193548,4,2,1,40,1,0
1254,-100,4,2,1,40,0,0
1544,-100,4,2,1,20,0,0
1641,-100,4,2,1,60,0,0
14028,-100,4,2,1,65,0,0
38415,-100,4,3,1,65,0,0
39576,-100,4,2,1,65,0,0
41125,-100,4,3,1,65,0,0
41899,-100,4,2,1,65,0,0
42092,-100,4,3,1,65,0,0
42286,-100,4,2,1,65,0,0
43383,-100,4,3,1,65,0,0
44609,-100,4,2,1,65,0,0
44673,-100,4,3,1,65,0,0
45770,-100,4,3,1,65,0,0
46541,400,4,2,1,70,1,0
46941,413.793103448276,4,2,1,70,1,0
47354,461.538461538462,4,2,1,70,1,0
47354,-100,4,2,1,70,0,0
47815,521.739130434783,4,2,1,70,1,0
48330,272.727272727273,4,2,1,70,1,0
48330,-100,4,2,1,70,0,0
57057,-100,4,2,1,70,0,0
65332,-100,4,3,1,70,0,0
65784,-100,4,2,1,70,0,0
82148,-100,4,3,1,70,0,0
83239,-100,4,2,1,70,0,1
91830,-100,4,3,1,70,0,1
91966,-100,4,2,1,70,0,1
99602,-100,4,3,1,70,0,1
100693,-100,4,2,1,70,0,0
118148,-100,4,3,1,70,0,0

[Colours]
Combo1 : 228,221,69
Combo2 : 203,216,228
Combo3 : 89,120,193
Combo4 : 232,206,189
Combo5 : 228,86,50
Combo6 : 234,231,206

[HitObjects]
188,100,1254,21,0,0:0:0:0:
272,146,1641,70,0,L|366:137,1,79.9999999999999,4|2,0:0|0:0,0:0:0:0:
433,187,2415,2,0,L|492:181,2,60,2|2|2,0:0|0:0|0:0,0:0:0:0:
348,233,3383,2,0,P|335:276|336:317,1,79.9999999999999,0|0,0:0|0:0,0:0:0:0:
360,351,3963,2,0,L|419:356,2,60,2|2|2,0:0|0:0|0:0,0:0:0:0:
270,379,4931,5,0,0:0:0:0:
192,326,5318,2,0,L|107:334,1,79.9999999999999,2|0,0:0|0:0,0:0:0:0:
144,243,6092,2,0,B|85:230|85:230|127:194|128:141|105:101,1,200,2|2,0:0|0:0,0:0:0:0:
23,59,7447,1,2,0:0:0:0:
103,10,7834,70,0,P|141:16|176:40,1,79.9999999999999,4|2,0:0|0:0,0:0:0:0:
271,35,8609,2,0,P|265:73|241:108,1,79.9999999999999,2|2,0:0|0:0,0:0:0:0:
151,132,9383,2,0,P|168:166|202:192,1,79.9999999999999,2|2,0:0|0:0,0:0:0:0:
174,284,10157,2,0,B|213:296|251:278|251:278|291:284,1,120,2|2,0:0|0:0,0:0:0:0:
329,314,10931,6,0,L|419:303,1,79.9999999999999,0|0,0:0|0:0,0:0:0:0:
384,211,11705,2,0,L|456:156,1,79.9999999999999,0|0,0:0|0:0,0:0:0:0:
386,88,12480,1,2,0:0:0:0:
226,196,13254,2,0,P|188:202|142:200,1,79.9999999999999,2|2,0:0|0:0,0:0:0:0:
72,139,14028,38,0,B|66:49,2,79.9999999999999,4|2|2,0:0|0:0|0:0,0:0:0:0:
58,234,15189,1,2,0:0:0:0:
44,329,15576,2,0,P|83:322|124:324,1,79.9999999999999,2|2,0:0|0:0,0:0:0:0:
212,359,16351,2,0,P|251:366|292:364,1,79.9999999999999,2|2,0:0|0:0,0:0:0:0:
380,328,17125,5,2,0:0:0:0:
474,346,17512,1,2,0:0:0:0:
442,255,17899,2,0,L|448:170,1,79.9999999999999,2|2,0:0|0:0,0:0:0:0:
359,137,18673,2,0,L|353:52,1,79.9999999999999,2|2,0:0|0:0,0:0:0:0:
260,32,19447,1,2,0:0:0:0:
166,6,19834,1,2,0:0:0:0:
100,74,20222,70,0,P|103:153|167:206,1,160,4|0,0:0|0:0,0:0:0:0:
188,111,21383,1,0,0:0:0:0:
284,123,21770,2,0,L|363:130,1,79.9999999999999,4|0,0:0|0:0,0:0:0:0:
415,211,22544,2,0,L|336:218,1,79.9999999999999,0|0,0:0|0:0,0:0:0:0:
265,284,23318,5,6,0:0:0:0:
256,192,23415,12,2,29383,0:0:0:0:
370,92,32609,21,2,0:0:0:0:
187,151,33383,2,0,B|205:247|205:247|200:326,2,160,4|2|0,0:0|0:0|0:0,0:0:0:0:
101,322,35705,1,2,0:0:0:0:
256,192,35802,12,8,38415,0:0:0:0:
295,142,39576,54,0,B|391:160|391:160|470:155,2,160,4|4|8,0:0|0:0|0:0,0:0:0:0:
440,267,41899,1,4,0:0:0:0:
256,192,42092,12,8,44931,0:0:0:0:
269,62,48330,70,0,P|230:25|167:18,1,120,2|2,0:0|0:0,0:0:0:0:
241,140,49148,2,0,P|280:103|343:96,1,120,2|2,0:0|0:0,0:0:0:0:
419,218,49966,2,0,L|427:298,1,79.9999999999999,2|2,0:0|0:0,0:0:0:0:
332,280,50511,6,0,B|253:270|253:270|208:279,1,120,2|2,0:0|0:0,0:0:0:0:
117,170,51330,2,0,B|196:180|196:180|241:171,1,120,2|2,0:0|0:0,0:0:0:0:
366,111,52148,2,0,P|362:148|373:189,1,79.9999999999999,2|2,0:0|0:0,0:0:0:0:
457,143,52693,70,0,P|456:78|425:35,1,120,6|2,0:0|0:0,0:0:0:0:
283,62,53511,2,0,B|243:71|243:71|160:60,1,120,2|2,0:0|0:0,0:0:0:0:
41,135,54330,2,0,L|131:148,1,79.9999999999999,4|2,0:0|0:0,0:0:0:0:
137,241,54875,6,0,B|215:254|215:254|251:275,2,120,4|2|2,0:0|0:0|0:0,0:0:0:0:
136,337,55966,22,0,P|174:361|209:370,1,79.9999999999999,4|4,0:0|0:0,0:0:0:0:
303,369,56511,2,0,P|341:358|374:336,1,79.9999999999999,4|4,0:0|0:0,0:0:0:0:
433,259,57057,6,0,P|414:205|414:132,1,120,4|2,0:0|0:0,0:0:0:0:
287,214,57875,2,0,P|282:156|301:86,1,120,8|10,0:0|0:0,0:0:0:0:
163,151,58693,2,0,P|123:153|83:146,1,79.9999999999999,8|8,0:0|0:0,0:0:0:0:
16,77,59239,6,0,B|26:156|26:156|16:199,1,120,0|2,0:0|0:0,0:0:0:0:
103,311,60057,2,0,B|142:301|142:301|221:311,1,120,8|10,0:0|0:0,0:0:0:0:
363,331,60875,2,0,L|447:321,1,79.9999999999999,8|8,0:0|0:0,0:0:0:0:
390,240,61420,70,0,P|382:192|391:121,1,120,2|2,0:0|0:0,0:0:0:0:
282,26,62239,2,0,P|290:74|281:145,1,120,10|2,0:0|0:0,0:0:0:0:
153,209,63057,2,0,L|69:199,1,79.9999999999999,4|12,0:0|0:0,0:0:0:0:
92,293,63602,6,0,B|172:302|172:302|213:282,2,120,4|0|4,0:0|0:0|0:0,0:0:0:0:
153,209,64693,2,0,B|188:191|188:191|268:201,2,120,12|8|0,0:0|0:0|0:0,0:0:0:0:
66,166,65784,37,4,0:0:0:0:
256,192,78875,12,0,81057,0:0:0:0:
430,101,82693,70,0,L|421:185,1,79.9999999999999,0|0,0:0|0:0,0:0:0:0:
369,261,83239,38,0,P|420:245|491:253,2,120,4|2|10,0:0|0:0|0:0,0:0:0:0:
280,300,84330,1,0,0:0:0:0:
215,229,84602,2,0,L|121:216,2,79.9999999999999,10|2|10,0:0|0:0|0:0,0:0:0:0:
245,138,85420,6,0,B|236:58|236:58|244:17,2,120,2|8|10,0:0|0:0|0:0,0:0:0:0:
149,122,86511,2,0,P|90:131|49:173,2,120,4|8|10,0:0|0:0|0:0,0:0:0:0:
134,217,87602,70,0,L|126:299,1,79.9999999999999,6|10,0:0|0:0,0:0:0:0:
221,283,88148,2,0,L|234:361,1,79.9999999999999,2|10,0:0|0:0,0:0:0:0:
330,362,88693,2,0,L|343:283,1,79.9999999999999,0|14,0:0|0:0,0:0:0:0:
437,296,89239,2,0,L|429:216,1,79.9999999999999,2|10,0:0|0:0,0:0:0:0:
479,134,89784,6,0,B|442:153|442:153|359:145,2,120,6|10|8,0:0|0:0|0:0,0:0:0:0:
419,58,90875,2,0,L|339:49,1,79.9999999999999,4|8,0:0|0:0,0:0:0:0:
244,64,91420,2,0,L|164:55,1,79.9999999999999,0|8,0:0|0:0,0:0:0:0:
71,28,91966,70,0,P|91:106|86:189,1,160,4|0,0:0|0:0,0:0:0:0:
56,345,93057,2,0,P|108:274|187:272,1,160,4|0,0:0|0:0,0:0:0:0:
308,357,94148,6,0,B|251:374|251:374|151:362,1,160,4|0,0:0|0:0,0:0:0:0:
280,265,95239,2,0,B|337:248|337:248|436:259,1,160,4|4,0:0|0:0,0:0:0:0:
497,185,96057,1,12,0:0:0:0:
457,97,96330,70,0,B|422:74|378:88|378:88|326:77,2,120,4|4|0,0:0|0:0|0:0,0:0:0:0:
407,179,97420,2,0,P|412:212|400:297,2,120,12|4|0,0:0|0:0|0:0,0:0:0:0:
315,207,98511,5,6,0:0:0:0:
217,372,99057,1,2,0:0:0:0:
30,330,99602,1,8,0:0:0:0:
13,140,100148,1,4,0:0:0:0:
188,62,100693,6,0,B|267:75|267:75|308:65,1,120,4|2,0:0|0:0,0:0:0:0:
371,193,101511,2,0,P|341:245|281:271,1,120,10|2,0:0|0:0,0:0:0:0:
198,160,102330,2,0,P|235:175|275:174,1,79.9999999999999,2|10,0:0|0:0,0:0:0:0:
339,102,102875,6,0,B|378:95|378:95|456:113,1,120,2|2,0:0|0:0,0:0:0:0:
375,233,103693,2,0,B|413:243|413:243|476:293,1,120,10|2,0:0|0:0,0:0:0:0:
328,319,104511,2,0,P|289:331|242:325,1,79.9999999999999,2|10,0:0|0:0,0:0:0:0:
280,235,105057,70,0,B|271:153|271:153|308:133,1,120,6|2,0:0|0:0,0:0:0:0:
431,65,105875,2,0,B|439:146|439:146|403:167,1,120,10|2,0:0|0:0,0:0:0:0:
333,41,106693,2,0,P|293:38|255:49,1,79.9999999999999,2|10,0:0|0:0,0:0:0:0:
166,86,107239,6,0,B|87:81|87:81|44:63,2,120,4|2|10,0:0|0:0|0:0,0:0:0:0:
209,171,108330,2,0,P|218:206|217:257,1,79.9999999999999,4|8,0:0|0:0,0:0:0:0:
125,224,108875,2,0,P|124:260|110:309,1,79.9999999999999,0|8,0:0|0:0,0:0:0:0:
47,371,109420,38,0,L|174:363,1,120,4|2,0:0|0:0,0:0:0:0:
297,302,110239,2,0,L|416:309,1,120,10|10,0:0|0:0,0:0:0:0:
372,172,111057,2,0,P|372:135|386:86,1,79.9999999999999,10|10,0:0|0:0,0:0:0:0:
450,25,111602,6,0,L|323:33,1,120,4|2,0:0|0:0,0:0:0:0:
200,94,112421,2,0,L|80:86,1,120,10|10,0:0|0:0,0:0:0:0:
23,218,113239,2,0,L|108:213,1,79.9999999999999,10|10,0:0|0:0,0:0:0:0:
196,190,113784,6,0,P|184:248|188:308,1,120,6|2,0:0|0:0,0:0:0:0:
307,226,114602,2,0,P|310:285|330:342,1,120,10|2,0:0|0:0,0:0:0:0:
471,313,115420,2,0,P|475:268|468:228,1,79.9999999999999,4|12,0:0|0:0,0:0:0:0:
430,145,115966,6,0,B|439:65|439:65|429:18,1,120,4|4,0:0|0:0,0:0:0:0:
327,126,116784,2,0,B|336:46|336:46|326:-1,1,120,4|0,0:0|0:0,0:0:0:0:
223,106,117602,2,0,P|232:144|224:183,1,79.9999999999999,0|8,0:0|0:0,0:0:0:0:
137,143,118148,22,0,L|54:151,2,79.9999999999999,8|4|4,0:2|0:0|0:2,0:0:0:0:
256,192,118761,12,0,122443,0:0:0:0:
