osu file format v14

[General]
AudioFilename: audio.mp3
AudioLeadIn: 0
PreviewTime: 82631
Countdown: 0
SampleSet: Soft
StackLeniency: 0.2
Mode: 0
LetterboxInBreaks: 0
WidescreenStoryboard: 1

[Editor]
Bookmarks: 93,65790,122517
DistanceSpacing: 1.2
BeatDivisor: 4
GridSize: 16
TimelineZoom: 1.6

[Metadata]
Title:Preserved Valkyria
TitleUnicode:Preserved Valkyria
Artist:penoreri
ArtistUnicode:ぺのれり
Creator:Alheak
Version:AYYLAZY'S NOVICE
Source:SOUND VOLTEX III GRAVITY WARS
Tags:konami sdvx 3 kac Song Contest Champion GoldenWolf Ponoyoshi pono Ayyri Realazy real bemani
BeatmapID:1374539
BeatmapSetID:433002

[Difficulty]
HPDrainRate:3
CircleSize:3.5
OverallDifficulty:4
ApproachRate:6
SliderMultiplier:1.28
SliderTickRate:1

[Events]
//Background and Video events
0,0,"bg.jpg",0,0
//Break Periods
2,65984,77825
//Storyboard Layer 0 (Background)
//Storyboard Layer 1 (Fail)
//Storyboard Layer 2 (Pass)
//Storyboard Layer 3 (Foreground)
//Storyboard Sound Samples

[TimingPoints]
93,387.096774193548,4,2,1,40,1,0
1254,-100,4,2,1,40,0,0
1544,-100,4,2,1,20,0,0
1641,-100,4,2,1,60,0,0
14028,-100,4,2,1,65,0,0
32609,-100,4,2,1,65,0,0
33383,-100,4,2,1,65,0,0
34060,-100,4,2,1,65,0,0
34109,-100,4,2,1,65,0,0
35609,-100,4,2,1,65,0,0
35657,-100,4,2,1,65,0,0
38415,-100,4,3,1,65,0,0
39576,-100,4,2,1,65,0,0
41125,-100,4,3,1,65,0,0
41899,-100,4,2,1,65,0,0
42092,-100,4,3,1,65,0,0
42286,-100,4,2,1,65,0,0
43383,-100,4,3,1,65,0,0
44609,-100,4,2,1,65,0,0
44673,-100,4,3,1,65,0,0
45576,-100,4,3,1,65,0,0
45770,-100,4,3,1,65,0,0
46541,400,4,2,1,70,1,0
46941,413.793103448276,4,2,1,70,1,0
47354,461.538461538462,4,2,1,70,1,0
47354,-100,4,2,1,70,0,0
47815,521.739130434783,4,2,1,70,1,0
48330,272.727272727273,4,2,1,70,1,0
48330,-100,4,2,1,70,0,0
57057,-100,4,2,1,70,0,0
65102,-100,4,2,1,70,0,0
65239,-100,4,2,1,70,0,0
65332,-100,4,3,1,70,0,0
65784,-100,4,2,1,70,0,0
80784,-100,4,2,1,70,0,0
81057,-100,4,2,1,70,0,0
82148,-100,4,3,1,70,0,0
83239,-100,4,2,1,70,0,1
91830,-100,4,3,1,70,0,1
91966,-100,4,2,1,70,0,1
96193,-100,4,2,1,70,0,1
96330,-100,4,2,1,70,0,1
99602,-100,4,3,1,70,0,1
100693,-100,4,2,1,70,0,0
118148,-100,4,3,1,70,0,0
118761,-100,4,3,1,70,0,0

[Colours]
Combo1 : 228,221,69
Combo2 : 203,216,228
Combo3 : 89,120,193
Combo4 : 232,206,189
Combo5 : 228,86,50
Combo6 : 234,231,206

[HitObjects]
265,30,1254,22,0,L|280:93,1,64,0|0,0:0|0:0,0:0:0:0:
331,147,1641,70,0,P|269:135|214:165,1,128,4|2,0:0|0:0,0:0:0:0:
97,264,2415,2,0,B|43:241|43:241|6:242,2,96,2|2|2,0:0|0:0|0:0,0:0:0:0:
241,317,3383,2,0,L|369:313,1,128,0|0,0:0|0:0,0:0:0:0:
428,264,3963,2,0,P|445:307|434:353,2,96,2|2|2,0:0|0:0|0:0,0:0:0:0:
302,174,4931,6,0,L|300:110,1,64,0|0,0:0|0:0,0:0:0:0:
253,48,5318,1,2,0:0:0:0:
241,54,5705,2,0,L|177:55,1,64,0|0,0:0|0:0,0:0:0:0:
125,106,6092,2,0,B|95:152|125:200|125:200|157:248|125:296|125:296|182:268|237:291,1,320,2|2,0:0|0:0,0:0:0:0:
242,298,7447,1,2,0:0:0:0:
252,305,7834,70,0,P|314:317|377:307,2,128,4|2|2,0:0|0:0|0:0,0:0:0:0:
152,187,8996,1,2,0:0:0:0:
257,75,9383,2,0,P|319:62|382:72,1,128,2|2,0:0|0:0,0:0:0:0:
462,203,10157,2,0,L|462:267,1,64,2|2,0:0|0:0,0:0:0:0:
387,288,10544,2,0,L|387:224,1,64,2|2,0:0|0:0,0:0:0:0:
332,169,10931,6,0,P|273:190|214:167,2,128,0|0|0,0:0|0:0|0:0,0:0:0:0:
455,78,12092,1,0,0:0:0:0:
487,228,12480,1,2,0:0:0:0:
487,228,13254,2,0,P|425:221|364:241,1,128,2|2,0:0|0:0,0:0:0:0:
220,294,14028,38,0,L|220:357,2,64,4|0|2,0:0|0:0|0:0,0:0:0:0:
171,234,14609,1,0,0:0:0:0:
104,272,14802,2,0,P|97:211|138:164,1,128,2|2,0:0|0:0,0:0:0:0:
215,167,15383,1,0,0:0:0:0:
281,205,15576,2,0,L|408:211,1,128,2|2,0:0|0:0,0:0:0:0:
457,151,16157,1,0,0:0:0:0:
484,222,16351,2,0,L|486:285,2,64,2|0|2,0:0|0:0|0:0,0:0:0:0:
457,151,16931,1,0,0:0:0:0:
406,93,17125,6,0,L|278:89,1,128,2|2,0:0|0:0,0:0:0:0:
215,45,17705,1,0,0:0:0:0:
138,51,17899,2,0,P|101:102|98:164,1,128,2|2,0:0|0:0,0:0:0:0:
123,238,18480,1,0,0:0:0:0:
185,282,18673,2,0,L|312:281,1,128,2|2,0:0|0:0,0:0:0:0:
369,333,19254,1,0,0:0:0:0:
425,281,19447,2,0,P|429:249|421:218,1,64,2|2,0:0|0:0,0:0:0:0:
376,156,19834,2,0,P|371:124|379:93,1,64,2|2,0:0|0:0,0:0:0:0:
443,51,20222,70,0,B|379:69|320:48|320:48|273:94|201:93,1,256,4|0,0:0|0:0,0:0:0:0:
137,134,21189,2,0,L|73:129,2,64,0|0|0,0:0|0:0|0:0,0:0:0:0:
190,188,21770,2,0,P|171:248|185:310,2,128,4|0|0,0:0|0:0|0:0,0:0:0:0:
246,135,22738,2,0,P|262:90|257:42,2,96,4|4|6,0:0|0:0|0:0,0:0:0:0:
256,192,23512,12,2,29383,0:0:0:0:
170,82,32609,21,2,0:0:0:0:
170,82,33383,2,0,B|202:142|170:206|170:206|138:270|168:327,2,256,4|0|0,0:0|0:0|0:0,0:0:0:0:
170,82,35705,1,0,0:0:0:0:
256,192,35899,12,0,38415,0:0:0:0:
160,104,39576,6,0,B|168:166|168:166|137:229,2,128,4|0|4,0:0|0:0|0:0,0:0:0:0:
282,11,40738,1,0,0:0:0:0:
401,107,41125,2,0,L|496:95,2,96,8|8|4,0:0|0:0|0:0,0:0:0:0:
346,161,41899,1,4,0:0:0:0:
256,192,42092,12,0,44931,0:0:0:0:
138,89,46541,69,0,0:0:0:0:
138,90,47354,2,0,P|201:93|257:122,1,128,0|0,0:0|0:0,0:0:0:0:
486,306,48330,54,0,L|478:369,2,64,2|2|0,0:0|0:0|0:0,0:0:0:0:
470,230,48739,1,2,0:0:0:0:
243,187,49148,2,0,L|250:123,2,64,2|2|0,0:0|0:0|0:0,0:0:0:0:
259,263,49557,1,2,0:0:0:0:
62,384,49966,2,0,P|87:327|81:264,1,128,2|2,0:0|0:0,0:0:0:0:
108,111,50511,6,0,P|76:117|44:114,2,64,2|2|0,0:0|0:0|0:0,0:0:0:0:
178,79,50920,1,2,0:0:0:0:
359,222,51330,2,0,P|390:228|422:225,2,64,2|2|0,0:0|0:0|0:0,0:0:0:0:
289,190,51739,1,2,0:0:0:0:
30,283,52148,2,0,P|77:323|140:327,1,128,2|2,0:0|0:0,0:0:0:0:
294,324,52693,70,0,L|357:333,2,64,6|2|0,0:0|0:0|0:0,0:0:0:0:
231,369,53102,1,2,0:0:0:0:
363,180,53511,2,0,L|425:167,2,64,2|2|0,0:0|0:0|0:0,0:0:0:0:
319,244,53920,1,2,0:0:0:0:
266,19,54330,2,0,L|138:18,1,128,4|2,0:0|0:0,0:0:0:0:
184,164,54875,6,0,B|208:105,2,64,4|0|2,0:0|0:0|0:0,0:0:0:0:
214,235,55284,2,0,P|152:233|111:187,1,128,2|0,0:0|0:0,0:0:0:0:
101,110,55693,1,2,0:0:0:0:
215,7,55966,2,0,L|343:8,1,128,4|4,0:0|0:0,0:0:0:0:
447,119,56511,2,0,L|319:121,1,128,4|4,0:0|0:0,0:0:0:0:
347,272,57057,38,0,P|353:303|346:334,2,64,4|0|8,0:0|0:0|0:0,0:0:0:0:
276,303,57466,1,0,0:0:0:0:
73,251,57875,2,0,P|69:219|77:189,1,64,8|0,0:0|0:0,0:0:0:0:
126,129,58148,1,0,0:0:0:0:
127,130,58284,2,0,L|254:130,1,128,8|0,0:0|0:0,0:0:0:0:
311,78,58693,2,0,P|305:140|333:197,1,128,8|8,0:0|0:0,0:0:0:0:
209,289,59239,6,0,L|209:225,2,64,0|0|8,0:0|0:0|0:0,0:0:0:0:
230,363,59648,1,0,0:0:0:0:
450,312,60057,2,0,P|457:281|448:251,1,64,8|0,0:0|0:0,0:0:0:0:
402,189,60330,1,0,0:0:0:0:
402,189,60466,2,0,P|380:131|409:76,1,128,8|0,0:0|0:0,0:0:0:0:
474,33,60875,2,0,L|347:28,1,128,8|8,0:0|0:0,0:0:0:0:
178,74,61420,70,0,P|148:67|116:72,2,64,2|2|10,0:0|0:0|0:0,0:0:0:0:
243,117,61830,2,0,P|299:91|360:106,1,128,2|0,0:0|0:0,0:0:0:0:
439,104,62239,2,0,L|426:41,2,64,10|2|2,0:0|0:0|0:0,0:0:0:0:
402,171,62648,2,0,L|427:296,1,128,2|0,0:0|0:0,0:0:0:0:
483,350,63057,2,0,B|425:328|425:328|361:340,1,128,4|12,0:0|0:0,0:0:0:0:
225,267,63602,6,0,L|162:264,1,64,4|0,0:0|0:0,0:0:0:0:
102,321,63875,1,8,0:0:0:0:
102,321,64011,2,0,P|81:262|108:206,1,128,0|8,0:0|0:0,0:0:0:0:
173,162,64420,2,0,L|237:160,1,64,4|0,0:0|0:0,0:0:0:0:
306,194,64693,70,0,P|270:143|274:80,1,128,12|0,0:0|0:0,0:0:0:0:
423,38,65239,2,0,P|459:89|455:152,1,128,0|0,0:0|0:0,0:0:0:0:
421,301,65784,53,4,0:0:0:0:
256,192,78875,12,0,81057,0:0:0:0:
63,162,82693,70,0,L|78:290,1,128,0|0,0:0|0:0,0:0:0:0:
223,339,83239,38,0,L|238:211,1,128,4|8,0:0|0:0,0:0:0:0:
287,152,83648,2,0,P|351:148|395:91,1,128,2|0,0:0|0:0,0:0:0:0:
361,31,84057,2,0,P|298:34|256:80,1,128,10|0,0:0|0:0,0:0:0:0:
167,205,84602,2,0,L|37:210,2,128,10|2|10,0:0|0:0|0:0,0:0:0:0:
247,336,85420,2,0,B|332:311|430:353|430:353|400:327|392:286,1,256,2|0,0:0|0:0,0:0:0:0:
312,164,86239,5,10,0:0:0:0:
312,164,86375,2,0,L|451:149,1,128,2|0,0:0|0:0,0:0:0:0:
429,74,86784,2,0,L|301:87,1,128,12|0,0:0|0:0,0:0:0:0:
227,65,87193,2,0,P|207:24|177:5,2,64,2|10|2,0:0|0:0|0:0,0:0:0:0:
190,133,87602,70,0,B|130:147|130:147|62:146,1,128,6|10,0:0|0:0,0:0:0:0:
82,299,88148,2,0,B|142:285|142:285|209:285,1,128,2|10,0:0|0:0,0:0:0:0:
282,305,88557,1,2,0:0:0:0:
374,181,88830,1,2,0:0:0:0:
374,181,88966,2,0,L|463:174,1,64,14|0,0:0|0:0,0:0:0:0:
476,109,89239,6,0,L|504:251,1,128,2|10,0:0|0:0,0:0:0:0:
389,360,89784,2,0,P|322:346|279:299,1,128,6|10,0:0|0:0,0:0:0:0:
282,227,90193,1,2,0:0:0:0:
182,109,90466,2,0,L|157:234,1,128,0|0,0:0|0:0,0:0:0:0:
121,303,90875,2,0,B|69:349|2:342,2,128,4|8|0,0:0|0:0|0:0,0:0:0:0:
282,227,91693,69,8,0:0:0:0:
335,353,91966,2,0,L|466:346,2,128,4|8|0,0:0|0:0|0:0,0:0:0:0:
282,227,92784,1,8,0:0:0:0:
194,353,93057,6,0,L|66:359,1,128,4|8,0:0|0:0,0:0:0:0:
33,209,93602,2,0,L|160:215,1,128,0|8,0:0|0:0,0:0:0:0:
223,74,94148,2,0,L|95:80,1,128,4|8,0:0|0:0,0:0:0:0:
33,209,94693,1,0,0:0:0:0:
33,209,94830,2,0,P|58:257|46:340,1,128,0|0,0:0|0:0,0:0:0:0:
123,356,95239,2,0,L|181:318,1,64,4|0,0:0|0:0,0:0:0:0:
252,320,95511,2,0,L|306:356,1,64,12|0,0:0|0:0,0:0:0:0:
377,328,95784,2,0,P|369:266|396:209,1,128,4|12,0:0|0:0,0:0:0:0:
325,71,96330,70,0,P|259:54|214:2,1,128,4|8,0:0|0:0,0:0:0:0:
146,35,96740,2,0,P|94:71|31:75,1,128,4|0,0:0|0:0,0:0:0:0:
145,260,97420,6,0,P|211:277|256:329,1,128,12|8,0:0|0:0,0:0:0:0:
324,296,97830,2,0,P|376:260|439:256,1,128,4|0,0:0|0:0,0:0:0:0:
325,71,98511,70,0,L|177:79,1,128,6|0,0:0|0:0,0:0:0:0:
140,221,99057,2,0,L|267:227,1,128,2|0,0:0|0:0,0:0:0:0:
403,155,99602,2,0,L|416:77,2,64,8|0|8,0:0|0:0|0:0,0:0:0:0:
457,299,100148,2,0,L|467:362,2,64,4|0|0,0:0|0:0|0:0,0:0:0:0:
304,318,100693,22,0,P|258:351|174:351,1,128,4|8,0:0|0:0,0:0:0:0:
41,307,101239,2,0,P|42:275|55:245,1,64,2|2,0:0|0:0,0:0:0:0:
130,226,101511,2,0,L|156:100,1,128,10|2,0:0|0:0,0:0:0:0:
212,47,101920,2,0,P|191:20|167:-4,2,64,2|8|0,0:0|0:0|0:0,0:0:0:0:
266,102,102330,6,0,P|333:92|378:25,1,128,2|10,0:0|0:0,0:0:0:0:
451,180,102875,2,0,L|461:258,1,64,2|2,0:0|0:0,0:0:0:0:
414,306,103148,1,10,0:0:0:0:
414,306,103284,2,0,P|349:313|292:353,1,128,2|0,0:0|0:0,0:0:0:0:
220,347,103693,2,0,P|194:328|166:313,1,64,10|2,0:0|0:0,0:0:0:0:
93,338,103966,2,0,L|63:194,1,128,2|0,0:0|0:0,0:0:0:0:
73,135,104375,2,0,P|101:105|111:58,1,64,0|2,0:0|0:0,0:0:0:0:
248,32,104784,70,0,L|255:103,1,64,10|0,0:0|0:0,0:0:0:0:
317,140,105057,2,0,L|459:132,1,128,6|10,0:0|0:0,0:0:0:0:
485,198,105466,2,0,L|492:269,1,64,2|0,0:0|0:0,0:0:0:0:
386,356,105875,6,0,P|336:313|256:305,1,128,10|2,0:0|0:0,0:0:0:0:
203,276,106284,2,0,L|184:135,1,128,10|0,0:0|0:0,0:0:0:0:
158,76,106693,2,0,P|95:58|28:78,1,128,2|10,0:0|0:0,0:0:0:0:
20,226,107239,70,0,L|133:312,1,128,4|10,0:0|0:0,0:0:0:0:
193,335,107648,2,0,P|250:303|283:241,1,128,2|2,0:0|0:0,0:0:0:0:
310,179,108057,2,0,P|341:155|376:141,1,64,10|0,0:0|0:0,0:0:0:0:
420,197,108330,2,0,L|429:40,2,128,4|8|0,0:0|0:0|0:0,0:0:0:0:
353,335,109148,54,0,L|259:342,1,64,8|0,0:0|0:0,0:0:0:0:
212,343,109420,6,0,P|169:305|160:222,1,128,4|8,0:0|0:0,0:0:0:0:
167,161,109830,2,0,L|22:151,1,128,2|0,0:0|0:0,0:0:0:0:
40,75,110239,2,0,L|167:66,1,128,10|0,0:0|0:0,0:0:0:0:
244,56,110648,2,0,B|263:121|263:121|311:175,1,128,10|0,0:0|0:0,0:0:0:0:
363,214,111057,2,0,B|344:279,2,64,10|0|10,0:0|0:0|0:0,0:0:0:0:
255,327,111602,70,0,P|299:369|383:373,1,128,4|8,0:0|0:0,0:0:0:0:
431,341,112011,2,0,B|468:218,1,128,2|0,0:0|0:0,0:0:0:0:
457,142,112420,2,0,P|413:98|425:11,1,128,10|0,0:0|0:0,0:0:0:0:
338,7,112830,1,10,0:0:0:0:
338,7,112966,2,0,B|281:40|281:40|199:45,1,128,0|10,0:0|0:0,0:0:0:0:
65,33,113511,6,0,L|74:100,1,64,10|0,0:0|0:0,0:0:0:0:
29,160,113784,2,0,L|156:161,1,128,6|10,0:0|0:0,0:0:0:0:
179,235,114193,2,0,L|51:236,1,128,2|0,0:0|0:0,0:0:0:0:
29,310,114602,2,0,L|172:312,1,128,10|2,0:0|0:0,0:0:0:0:
224,355,115011,2,0,L|254:273,1,64,10|0,0:0|0:0,0:0:0:0:
395,259,115420,2,0,L|344:126,1,128,4|12,0:0|0:0,0:0:0:0:
211,68,115966,70,0,P|188:108|99:126,1,128,4|8,0:0|0:0,0:0:0:0:
68,192,116375,2,0,P|108:215|126:304,1,128,4|8,0:0|0:0,0:0:0:0:
202,316,116784,2,0,P|225:276|314:258,1,128,4|0,0:0|0:0,0:0:0:0:
345,192,117193,6,0,L|361:115,1,64,0|0,0:0|0:0,0:0:0:0:
424,78,117466,2,0,L|437:140,1,64,0|0,0:0|0:0,0:0:0:0:
478,212,117739,1,8,0:0:0:0:
478,212,117875,2,0,L|465:275,1,64,8|8,0:0|0:0,0:0:0:0:
407,326,118148,2,0,L|365:333,3,42.6666666666667,8|8|8|4,0:2|0:2|0:2|0:0,0:0:0:0:
256,192,118693,12,4,122443,0:2:0:0:
