osu file format v14

[General]
AudioFilename: audio.mp3
AudioLeadIn: 0
PreviewTime: 82631
Countdown: 0
SampleSet: Soft
StackLeniency: 0.2
Mode: 0
LetterboxInBreaks: 0
WidescreenStoryboard: 1

[Editor]
Bookmarks: 7835,14029,29512,48336,65790,109426,118699
DistanceSpacing: 1
BeatDivisor: 6
GridSize: 8
TimelineZoom: 2

[Metadata]
Title:Preserved Valkyria
TitleUnicode:Preserved Valkyria
Artist:penoreri
ArtistUnicode:ぺのれり
Creator:Alheak
Version:ADVANCED
Source:SOUND VOLTEX III GRAVITY WARS
Tags:konami sdvx 3 kac Song Contest Champion GoldenWolf Ponoyoshi pono Ayyri Realazy real bemani
BeatmapID:1072302
BeatmapSetID:433002

[Difficulty]
HPDrainRate:4
CircleSize:4
OverallDifficulty:6
ApproachRate:7
SliderMultiplier:1.7
SliderTickRate:1

[Events]
//Background and Video events
0,0,"bg.jpg",0,0
//Break Periods
//Storyboard Layer 0 (Background)
//Storyboard Layer 1 (Fail)
//Storyboard Layer 2 (Pass)
//Storyboard Layer 3 (Foreground)
//Storyboard Sound Samples

[TimingPoints]
93,387.096774193548,4,2,1,40,1,0
1254,-133.333333333333,4,2,1,40,0,0
1544,-133.333333333333,4,2,1,20,0,0
1641,-133.333333333333,4,2,1,60,0,0
14028,-133.333333333333,4,2,1,65,0,0
38415,-133.333333333333,4,3,1,65,0,0
39576,-133.333333333333,4,2,1,65,0,0
41125,-133.333333333333,4,3,1,65,0,0
41899,-133.333333333333,4,2,1,65,0,0
42092,-133.333333333333,4,3,1,65,0,0
42286,-133.333333333333,4,2,1,65,0,0
43383,-133.333333333333,4,3,1,65,0,0
44609,-133.333333333333,4,2,1,65,0,0
44673,-133.333333333333,4,3,1,65,0,0
45770,-166.666666666667,4,2,1,65,0,0
46541,400,4,2,1,70,1,0
46941,413.793103448276,4,2,1,70,1,0
47354,461.538461538462,4,2,1,70,1,0
47354,-133.333333333333,4,2,1,70,0,0
47815,521.739130434783,4,2,1,70,1,0
48330,272.727272727273,4,2,1,70,1,0
48330,-133.333333333333,4,2,1,70,0,0
57057,-100,4,2,1,70,0,0
65332,-100,4,3,1,70,0,0
65784,-166.666666666667,4,2,1,70,0,0
82148,-166.666666666667,4,3,1,70,0,0
83239,-100,4,2,1,70,0,1
91830,-100,4,3,1,70,0,1
91966,-100,4,2,1,70,0,1
99602,-100,4,3,1,70,0,1
100693,-100,4,2,1,70,0,0
118148,-100,4,3,1,70,0,0

[Colours]
Combo1 : 228,221,69
Combo2 : 203,216,228
Combo3 : 89,120,193
Combo4 : 232,206,189
Combo5 : 228,86,50
Combo6 : 234,231,206

[HitObjects]
88,188,1254,22,0,P|119:223|124:271,1,95.6250036478044,0|0,0:0|0:0,0:0:0:0:
112,300,1641,70,0,L|238:314,1,127.500004863739,4|2,0:0|0:0,0:0:0:0:
360,270,2415,2,0,B|417:262|417:262|458:271,2,95.6250036478044,2|2|2,0:0|0:0|0:0,0:0:0:0:
261,187,3383,5,0,0:0:0:0:
249,169,3770,1,0,0:0:0:0:
161,152,3963,2,0,B|103:144|103:144|63:153,2,95.6250036478044,2|2|2,0:0|0:0|0:0,0:0:0:0:
265,77,4931,69,0,0:0:0:0:
265,77,5028,2,0,L|338:68,1,63.7500024318696,2|0,0:0|0:0,0:0:0:0:
354,51,5318,2,0,P|338:101|346:182,1,127.500004863739,2|0,0:0|0:0,0:0:0:0:
381,256,5899,2,0,L|373:319,1,63.7500024318696,0|2,0:0|0:0,0:0:0:0:
258,365,6286,6,0,L|252:327,3,31.8750012159348,0|0|0|0,0:0|0:0|0:0|0:0,0:0:0:0:
270,306,6673,2,0,L|275:271,3,31.8750012159348,0|0|0|0,0:0|0:0|0:0|0:0,0:0:0:0:
294,249,7060,2,0,B|220:263|220:263|164:250,1,127.500004863739,2|2,0:0|0:0,0:0:0:0:
46,169,7834,70,0,P|93:163|139:175,1,95.6250036478044,4|2,0:0|0:0,0:0:0:0:
130,144,8222,2,0,P|175:156|212:185,1,95.6250036478044,2|2,0:0|0:0,0:0:0:0:
225,217,8609,2,0,P|264:192|312:184,1,95.6250036478044,2|2,0:0|0:0,0:0:0:0:
309,216,8996,2,0,P|355:209|401:221,1,95.6250036478044,2|2,0:0|0:0,0:0:0:0:
430,236,9383,6,0,P|413:190|413:143,1,95.6250036478044,2|2,0:0|0:0,0:0:0:0:
441,128,9770,2,0,P|457:83|456:36,1,95.6250036478044,2|2,0:0|0:0,0:0:0:0:
415,34,10157,2,0,P|383:27|337:27,1,63.7500024318696,2|2,0:0|0:0,0:0:0:0:
211,71,10544,2,0,P|239:65|289:64,1,63.7500024318696,2|2,0:0|0:0,0:0:0:0:
253,146,10931,70,0,P|259:188|251:232,1,85.0000032424928,0|0,0:0|0:0,0:0:0:0:
211,215,11318,2,0,P|195:254|166:288,1,85.0000032424928,0|0,0:0|0:0,0:0:0:0:
130,306,11705,2,0,P|171:298|213:304,1,85.0000032424928,0|0,0:0|0:0,0:0:0:0:
252,322,12092,2,0,P|293:329|335:323,1,85.0000032424928,0|0,0:0|0:0,0:0:0:0:
374,304,12480,5,2,0:0:0:0:
443,248,12673,2,0,L|478:253,5,31.8750012159348,0|0|0|0|0|0,0:0|0:0|0:0|0:0|0:0|0:0,0:0:0:0:
458,203,13254,2,0,B|381:218|381:218|332:209,1,127.500004863739,2|2,0:0|0:0,0:0:0:0:
206,183,14028,38,0,P|214:230|210:261,1,63.7500024318696,4|0,0:0|0:0,0:0:0:0:
120,289,14415,2,0,P|112:242|116:211,1,63.7500024318696,2|0,0:0|0:0,0:0:0:0:
122,124,14802,1,2,0:0:0:0:
214,81,14996,2,0,L|210:32,2,31.8750012159348,0|0|2,0:0|0:0|0:0,0:0:0:0:
278,160,15383,2,0,L|273:209,2,31.8750012159348,0|0|2,0:0|0:0|0:0,0:0:0:0:
343,78,15770,6,0,L|425:71,1,63.7500024318696,0|2,0:0|0:0,0:0:0:0:
485,163,16157,2,0,L|421:158,1,63.7500024318696,0|2,0:0|0:0,0:0:0:0:
365,239,16544,1,0,0:0:0:0:
415,324,16738,2,0,P|419:345|418:364,3,31.8750012159348,2|0|0|0,0:0|0:0|0:0|0:0,0:0:0:0:
376,383,17125,70,0,L|305:378,1,63.7500024318696,2|0,0:0|0:0,0:0:0:0:
288,357,17415,1,0,0:0:0:0:
276,327,17512,2,0,P|266:282|270:253,1,63.7500024318696,2|0,0:0|0:0,0:0:0:0:
330,184,17899,2,0,L|369:181,2,31.8750012159348,2|0|0,0:0|0:0|0:0,0:0:0:0:
250,119,18286,2,0,L|211:116,2,31.8750012159348,2|0|0,0:0|0:0|0:0,0:0:0:0:
289,24,18673,6,0,B|208:15|208:15|161:28,1,127.500004863739,2|2,0:0|0:0,0:0:0:0:
98,106,19254,1,0,0:0:0:0:
102,140,19351,1,0,0:0:0:0:
106,174,19447,2,0,P|101:205|88:234,1,63.7500024318696,2|2,0:0|0:0,0:0:0:0:
171,294,19834,2,0,P|175:262|188:233,1,63.7500024318696,2|2,0:0|0:0,0:0:0:0:
283,194,20222,70,0,L|319:191,12,21.2500008106232,4|0|0|0|0|0|0|0|0|0|0|0|0,0:0|0:0|0:0|0:0|0:0|0:0|0:0|0:0|0:0|0:0|0:0|0:0|0:0,0:0:0:0:
366,251,21189,2,0,L|361:314,2,63.7500024318696,0|0|0,0:0|0:0|0:0,0:0:0:0:
378,149,21770,6,0,P|445:181|502:156,2,127.500004863739,4|0|0,0:0|0:0|0:0,0:0:0:0:
443,99,22738,2,0,L|431:29,1,63.7500024318696,4|0,0:0|0:0,0:0:0:0:
395,71,23028,2,0,L|349:16,1,63.7500024318696,4|0,0:0|0:0,0:0:0:0:
313,53,23318,70,0,L|268:47,3,31.8750012159348,6|2|2|2,0:0|0:0|0:0|0:0,0:0:0:0:
192,40,23802,2,0,P|201:73|199:107,1,63.7500024318696,2|2,0:0|0:0,0:0:0:0:
189,145,24092,2,0,P|188:176|196:207,1,63.7500024318696,2|2,0:0|0:0,0:0:0:0:
222,244,24383,1,2,0:0:0:0:
307,267,24576,2,0,L|377:260,1,63.7500024318696,2|2,0:0|0:0,0:0:0:0:
431,195,24963,6,0,L|437:139,2,31.8750012159348,2|2|2,0:0|0:0|0:0,0:0:0:0:
457,280,25351,2,0,P|443:313|421:333,1,63.7500024318696,2|2,0:0|0:0,0:0:0:0:
381,347,25641,2,0,L|311:354,1,63.7500024318696,2|2,0:0|0:0,0:0:0:0:
273,359,25931,1,2,0:0:0:0:
195,314,26125,2,0,L|125:307,1,63.7500024318696,2|2,0:0|0:0,0:0:0:0:
87,302,26415,70,0,L|40:297,3,31.8750012159348,6|2|2|2,0:0|0:0|0:0|0:0,0:0:0:0:
102,222,26899,2,0,P|109:192|105:160,1,63.7500024318696,2|2,0:0|0:0,0:0:0:0:
85,120,27189,2,0,L|78:50,1,63.7500024318696,2|2,0:0|0:0,0:0:0:0:
73,11,27480,1,2,0:0:0:0:
161,17,27673,2,0,L|231:24,1,63.7500024318696,2|2,0:0|0:0,0:0:0:0:
306,58,28060,6,0,L|345:54,2,31.8750012159348,2|2|2,0:0|0:0|0:0,0:0:0:0:
256,132,28447,2,0,P|253:164|259:193,1,63.7500024318696,2|2,0:0|0:0,0:0:0:0:
277,236,28738,2,0,P|281:256|280:278,2,42.5000016212464,4|4|4,0:0|0:0|0:0,0:0:0:0:
237,280,29125,2,0,P|230:299|218:317,2,42.5000016212464,4|4|4,0:0|0:0|0:0,0:0:0:0:
151,131,32609,5,2,0:0:0:0:
352,100,33383,1,4,0:0:0:0:
256,192,33480,12,2,38415,0:0:0:0:
140,114,38802,6,0,P|196:48|216:132,1,212.500008106232,8|4,0:0|0:0,0:0:0:0:
192,167,39576,70,0,P|235:152|317:160,1,127.500004863739,4|0,0:0|0:0,0:0:0:0:
441,285,40351,2,0,P|398:270|316:278,1,127.500004863739,4|0,0:0|0:0,0:0:0:0:
161,363,41125,2,0,B|165:318|165:318|150:269,2,95.6250036478044,8|8|4,0:0|0:0|0:0,0:0:0:0:
78,328,41899,5,4,0:0:0:0:
256,192,41996,12,0,44931,0:0:0:0:
307,90,45770,70,0,L|370:81,1,50.9999984436036,0|0,0:0|0:0,0:0:0:0:
352,169,46157,2,0,L|415:176,1,50.9999984436036,0|0,0:0|0:0,0:0:0:0:
325,259,46541,5,0,0:0:0:0:
325,259,47354,2,0,P|263:243|197:249,1,127.500004863739,0|0,0:0|0:0,0:0:0:0:
179,257,48330,38,0,L|186:178,2,63.7500024318696,2|2|0,0:0|0:0|0:0,0:0:0:0:
245,317,48739,2,0,L|252:396,2,63.7500024318696,2|2|0,0:0|0:0|0:0,0:0:0:0:
264,229,49148,2,0,L|271:150,2,63.7500024318696,2|2|0,0:0|0:0|0:0,0:0:0:0:
330,289,49557,2,0,L|337:368,2,63.7500024318696,2|2|0,0:0|0:0|0:0,0:0:0:0:
404,217,49966,2,0,P|440:207|472:210,1,63.7500024318696,2|0,0:0|0:0,0:0:0:0:
478,297,50239,2,0,P|447:306|415:305,1,63.7500024318696,2|0,0:0|0:0,0:0:0:0:
319,275,50511,6,0,L|240:268,2,63.7500024318696,2|2|0,0:0|0:0|0:0,0:0:0:0:
287,191,50920,2,0,L|212:163,2,63.7500024318696,2|2|0,0:0|0:0|0:0,0:0:0:0:
376,204,51330,2,0,L|455:197,2,63.7500024318696,2|2|0,0:0|0:0|0:0,0:0:0:0:
408,120,51739,2,0,L|482:92,2,63.7500024318696,2|2|0,0:0|0:0|0:0,0:0:0:0:
292,124,52148,2,0,P|259:105|238:80,1,63.7500024318696,2|0,0:0|0:0,0:0:0:0:
295,15,52421,2,0,P|323:29|344:52,1,63.7500024318696,2|0,0:0|0:0,0:0:0:0:
393,139,52693,70,0,L|385:208,2,63.7500024318696,6|2|0,0:0|0:0|0:0,0:0:0:0:
304,154,53102,2,0,L|296:223,2,63.7500024318696,2|2|0,0:0|0:0|0:0,0:0:0:0:
243,87,53511,2,0,L|235:18,2,63.7500024318696,2|2|0,0:0|0:0|0:0,0:0:0:0:
154,72,53920,2,0,L|146:3,2,63.7500024318696,2|2|0,0:0|0:0|0:0,0:0:0:0:
83,148,54330,2,0,P|64:215|95:266,1,127.500004863739,4|2,0:0|0:0,0:0:0:0:
263,214,54875,6,0,B|202:193|202:193|139:202,1,127.500004863739,4|2,0:0|0:0,0:0:0:0:
194,289,55284,2,0,B|255:310|255:310|318:301,1,127.500004863739,2|0,0:0|0:0,0:0:0:0:
418,287,55693,2,0,P|450:287|487:296,1,63.7500024318696,2|0,0:0|0:0,0:0:0:0:
442,198,55966,22,0,L|430:117,1,63.7500024318696,4|0,0:0|0:0,0:0:0:0:
355,180,56239,2,0,L|343:99,1,63.7500024318696,4|0,0:0|0:0,0:0:0:0:
268,162,56511,2,0,L|256:81,1,63.7500024318696,4|0,0:0|0:0,0:0:0:0:
181,144,56784,2,0,P|149:137|118:137,1,63.7500024318696,4|0,0:0|0:0,0:0:0:0:
63,223,57057,6,0,B|78:138|78:138|57:57,1,170,4|8,0:0|0:0,0:0:0:0:
159,55,57466,2,0,P|260:52|336:82,1,170,0|0,0:0|0:0,0:0:0:0:
413,124,57875,2,0,P|311:121|235:151,1,170,8|0,0:0|0:0,0:0:0:0:
185,223,58284,2,0,P|240:281|211:361,1,170,8|0,0:0|0:0,0:0:0:0:
85,323,58693,2,0,P|124:305|166:299,1,85,8|0,0:0|0:0,0:0:0:0:
294,382,58966,2,0,P|252:375|213:357,1,85,8|0,0:0|0:0,0:0:0:0:
325,274,59239,6,0,B|342:208|342:208|325:106,1,170,0|8,0:0|0:0,0:0:0:0:
221,35,59648,2,0,L|249:202,1,170,0|0,0:0|0:0,0:0:0:0:
201,293,60057,2,0,B|163:236|163:236|146:135,1,170,8|0,0:0|0:0,0:0:0:0:
70,66,60466,2,0,B|53:132|53:132|70:234,1,170,8|0,0:0|0:0,0:0:0:0:
87,351,60875,2,0,L|-5:335,1,85,8|0,0:0|0:0,0:0:0:0:
148,283,61148,2,0,L|240:267,1,85,8|0,0:0|0:0,0:0:0:0:
355,300,61420,70,0,P|368:347|365:385,2,85,2|2|10,0:0|0:0|0:0,0:0:0:0:
252,257,61830,2,0,P|225:180|281:121,1,170,2|0,0:0|0:0,0:0:0:0:
408,132,62239,6,0,P|455:145|493:142,2,85,10|2|2,0:0|0:0|0:0,0:0:0:0:
300,108,62648,2,0,B|239:120|239:120|133:99,1,170,2|0,0:0|0:0,0:0:0:0:
15,81,63057,2,0,L|34:181,1,85,4|0,0:0|0:0,0:0:0:0:
95,304,63330,2,0,L|114:203,1,85,12|0,0:0|0:0,0:0:0:0:
212,217,63602,70,0,P|266:207|301:211,1,85,4|0,0:0|0:0,0:0:0:0:
275,115,63875,1,8,0:0:0:0:
275,115,64011,2,0,P|329:119|362:132,1,85,0|4,0:0|0:0,0:0:0:0:
360,31,64284,1,8,0:0:0:0:
360,31,64420,2,0,P|411:49|440:70,1,85,4|0,0:0|0:0,0:0:0:0:
494,161,64693,6,0,L|487:250,2,85,12|0|0,0:0|0:0|0:0,0:0:0:0:
388,217,65102,2,0,B|397:302|397:302|314:280|314:280|274:301|228:291,1,255,8|0,0:0|0:0,0:0:0:0:
85,250,65784,38,0,B|99:149|99:149|79:99,2,152.999995330811,4|2|2,0:0|0:0|0:0,0:0:0:0:
85,250,67148,1,2,0:0:0:0:
185,235,67420,1,2,0:0:0:0:
286,220,67693,1,2,0:0:0:0:
323,124,67966,5,0,0:0:0:0:
323,124,68784,2,0,L|388:137,1,50.9999984436036,2|2,0:0|0:0,0:0:0:0:
251,49,69739,2,0,L|186:62,2,50.9999984436036,2|2|2,0:0|0:0|0:0,0:0:0:0:
187,82,70148,70,0,P|182:111|186:137,7,50.9999984436036,0|0|0|0|0|0|0|0,0:0|0:0|0:0|0:0|0:0|0:0|0:0|0:0,0:0:0:0:
250,210,71375,2,0,P|255:239|251:265,1,50.9999984436036,2|2,0:0|0:0,0:0:0:0:
191,342,71784,1,0,0:0:0:0:
91,318,72057,1,0,0:0:0:0:
70,217,72330,5,2,0:0:0:0:
49,116,72602,2,0,L|37:53,1,50.9999984436036,2|2,0:0|0:0,0:0:0:0:
146,148,73011,2,0,P|193:135|256:140,1,101.999996887207,0|0,0:0|0:0,0:0:0:0:
245,137,73966,1,2,0:0:0:0:
345,120,74239,1,2,0:0:0:0:
312,216,74511,69,2,0:0:0:0:
312,216,75193,2,0,L|303:278,2,50.9999984436036,2|2|0,0:0|0:0|0:0,0:0:0:0:
288,284,75602,2,0,B|389:272|389:272|450:288,2,152.999995330811,2|2|2,0:0|0:0|0:0,0:0:0:0:
206,345,76693,5,2,0:0:0:0:
104,332,76966,2,0,L|39:324,1,50.9999984436036,2|2,0:0|0:0,0:0:0:0:
167,251,77375,2,0,L|232:243,2,50.9999984436036,0|0|0,0:0|0:0|0:0,0:0:0:0:
130,232,77784,1,2,0:0:0:0:
166,136,78057,2,0,P|170:106|167:77,5,50.9999984436036,2|0|2|0|2|0,0:0|0:0|0:0|0:0|0:0|0:0,0:0:0:0:
156,46,78875,69,0,0:0:0:0:
341,58,79693,2,0,L|403:65,1,50.9999984436036,2|2,0:0|0:0,0:0:0:0:
259,117,80102,2,0,L|197:124,6,50.9999984436036,0|0|0|0|0|0|0,0:0|0:0|0:0|0:0|0:0|0:0|0:0,0:0:0:0:
310,181,81057,6,0,P|325:229|321:295,1,101.999996887207,4|8,0:0|0:0,0:0:0:0:
245,259,81466,2,0,P|233:308|197:363,1,101.999996887207,4|8,0:0|0:0,0:0:0:0:
144,300,81875,2,0,P|110:306|89:305,1,50.9999984436036,4|0,0:0|0:0,0:0:0:0:
41,229,82148,2,0,L|35:171,1,50.9999984436036,4|4,0:0|0:0,0:0:0:0:
126,197,82420,2,0,L|135:139,1,50.9999984436036,4|0,0:0|0:0,0:0:0:0:
134,146,83239,6,0,B|243:126|243:126|300:142,1,170,4|8,0:0|0:0,0:0:0:0:
388,195,83648,2,0,P|327:141|345:62,1,170,2|0,0:0|0:0,0:0:0:0:
482,74,84057,1,10,0:0:0:0:
482,74,84193,2,0,B|475:129|475:129|487:187|487:187|479:241,1,170,6|0,0:0|0:0,0:0:0:0:
512,339,84602,2,0,L|425:331,1,85,10|0,0:0|0:0,0:0:0:0:
313,349,84875,2,0,P|324:309|322:263,1,85,2|0,0:0|0:0,0:0:0:0:
236,170,85148,2,0,P|234:212|245:253,1,85,10|0,0:0|0:0,0:0:0:0:
313,157,85420,6,0,P|259:96|180:114,1,170,2|8,0:0|0:0,0:0:0:0:
77,105,85830,2,0,P|88:171|85:280,1,170,0|0,0:0|0:0,0:0:0:0:
45,368,86239,1,10,0:0:0:0:
45,368,86375,2,0,B|129:352|129:352|212:371,1,170,2|0,0:0|0:0,0:0:0:0:
285,299,86784,2,0,B|201:277|201:277|171:241|184:186,1,170,12|0,0:0|0:0,0:0:0:0:
216,102,87193,2,0,L|204:11,2,85,2|10|2,0:0|0:0|0:0,0:0:0:0:
318,94,87602,70,0,P|366:106|415:103,1,85,6|2,0:0|0:0,0:0:0:0:
454,193,87875,1,10,0:0:0:0:
454,193,88011,2,0,P|413:203|370:203,1,85,2|2,0:0|0:0,0:0:0:0:
285,260,88284,2,0,P|321:281|362:292,1,85,2|10,0:0|0:0,0:0:0:0:
426,349,88557,2,0,P|390:372|349:377,1,85,2|0,0:0|0:0,0:0:0:0:
233,330,88830,1,2,0:0:0:0:
233,330,88966,2,0,P|205:293|198:252,1,85,14|0,0:0|0:0,0:0:0:0:
243,164,89239,2,0,L|151:156,1,85,2|0,0:0|0:0,0:0:0:0:
72,63,89511,2,0,L|164:55,1,85,10|0,0:0|0:0,0:0:0:0:
278,15,89784,6,0,P|321:14|372:40,1,85,6|0,0:0|0:0,0:0:0:0:
445,96,90057,1,10,0:0:0:0:
445,96,90193,2,0,P|402:95|351:121,1,85,2|0,0:0|0:0,0:0:0:0:
267,145,90466,2,0,L|213:137,2,42.5,0|0|8,0:0|0:0|0:0,0:0:0:0:
349,213,90739,1,0,0:0:0:0:
349,213,90875,2,0,B|356:295|356:295|377:343,1,127.5,4|0,0:0|0:0,0:0:0:0:
393,375,91148,2,0,P|322:362|265:374,1,127.5,8|0,0:0|0:0,0:0:0:0:
232,350,91420,2,0,L|95:326,1,127.5,0|0,0:0|0:0,0:0:0:0:
88,288,91693,2,0,P|140:244|142:188,1,127.5,8|0,0:0|0:0,0:0:0:0:
67,211,91966,70,0,L|5:217,5,56.6666666666667,4|0|0|8|0|0,0:0|0:0|0:0|0:0|0:0|0:0,0:0:0:0:
61,132,92511,2,0,P|106:95|166:92,1,113.333333333333,0|0,0:0|0:0,0:0:0:0:
237,98,92784,2,0,P|264:98|303:90,1,56.6666666666667,8|0,0:0|0:0,0:0:0:0:
292,177,92966,1,0,0:0:0:0:
292,177,93057,2,0,P|318:170|354:152,5,56.6666666666667,4|0|0|8|0|0,0:0|0:0|0:0|0:0|0:0|0:0,0:0:0:0:
362,231,93602,2,0,P|388:234|427:246,5,56.6666666666667,0|0|0|8|0|0,0:0|0:0|0:0|0:0|0:0|0:0,0:0:0:0:
340,311,94148,6,0,L|347:369,5,56.6666666666667,4|0|0|8|0|0,0:0|0:0|0:0|0:0|0:0|0:0,0:0:0:0:
258,345,94693,1,0,0:0:0:0:
258,345,94830,2,0,L|169:337,2,85,0|8|0,0:0|0:0|0:0,0:0:0:0:
262,242,95239,2,0,P|273:199|272:150,1,85,4|0,0:0|0:0,0:0:0:0:
184,208,95511,2,0,P|183:163|169:116,1,85,12|0,0:0|0:0,0:0:0:0:
100,53,95784,2,0,P|89:94|89:136,1,85,4|0,0:0|0:0,0:0:0:0:
1,87,96056,2,0,P|1:129|12:170,1,85,12|0,0:0|0:0,0:0:0:0:
74,253,96330,70,0,B|179:241|179:241|243:266,1,170,4|8,0:0|0:0,0:0:0:0:
301,346,96739,2,0,P|276:268|345:209,1,170,4|0,0:0|0:0,0:0:0:0:
449,190,97148,2,0,L|504:183,2,42.5,0|0|0,0:0|0:0|0:0,0:0:0:0:
414,94,97420,2,0,B|309:82|309:82|245:107,1,170,12|8,0:0|0:0,0:0:0:0:
187,187,97829,2,0,P|212:109|143:50,1,170,4|0,0:0|0:0,0:0:0:0:
42,41,98239,2,0,L|-13:34,2,42.5,0|0|0,0:0|0:0|0:0,0:0:0:0:
88,131,98511,6,0,B|97:217|97:217|74:302,1,170,6|0,0:0|0:0,0:0:0:0:
238,347,99057,2,0,B|260:266|260:266|312:197,1,170,2|0,0:0|0:0,0:0:0:0:
231,50,99602,2,0,B|214:109,5,56.6666666666667,8|0|0|8|0|0,0:0|0:0|0:0|0:0|0:0|0:0,0:0:0:0:
128,91,100148,2,0,B|87:130,5,56.6666666666667,4|4|4|0|0|0,0:0|0:0|0:0|0:0|0:0|0:0,0:0:0:0:
16,92,100693,6,0,P|18:173|90:212,1,170,4|8,0:0|0:0,0:0:0:0:
172,184,101102,2,0,L|258:191,2,85,2|2|2,0:0|0:0|0:0,0:0:0:0:
159,268,101511,2,0,P|125:293|80:300,2,85,10|0|2,0:0|0:0|0:0,0:0:0:0:
206,339,101920,2,0,P|236:367|280:380,2,85,2|8|0,0:0|0:0|0:0,0:0:0:0:
279,294,102330,2,0,L|363:287,1,85,2|0,0:0|0:0,0:0:0:0:
321,213,102602,2,0,L|401:184,1,85,10|0,0:0|0:0,0:0:0:0:
383,100,102875,6,0,P|386:58|371:18,2,85,2|2|10,0:0|0:0|0:0,0:0:0:0:
301,125,103284,2,0,B|192:111|192:111|130:127,1,170,2|0,0:0|0:0,0:0:0:0:
53,156,103693,2,0,P|49:114|64:74,1,85,10|2,0:0|0:0,0:0:0:0:
143,40,103966,1,2,0:0:0:0:
143,40,104102,2,0,P|204:75|208:170,1,170,10|0,0:0|0:0,0:0:0:0:
152,230,104511,2,0,B|145:281|145:281|152:323,1,85,2|0,0:0|0:0,0:0:0:0:
229,281,104784,2,0,B|237:331|237:331|256:369,1,85,10|0,0:0|0:0,0:0:0:0:
317,306,105057,70,0,L|405:313,2,85,6|2|10,0:0|0:0|0:0,0:0:0:0:
295,223,105466,2,0,B|282:165|282:165|305:46,1,170,2|0,0:0|0:0,0:0:0:0:
377,14,105875,2,0,L|461:7,2,85,10|2|2,0:0|0:0|0:0,0:0:0:0:
291,41,106284,2,0,P|210:28|155:89,1,170,10|0,0:0|0:0,0:0:0:0:
145,174,106693,2,0,L|155:261,1,85,2|0,0:0|0:0,0:0:0:0:
228,353,106966,2,0,L|238:269,1,85,10|0,0:0|0:0,0:0:0:0:
315,173,107239,6,0,P|354:189|396:184,2,85,4|0|10,0:0|0:0|0:0,0:0:0:0:
366,103,107648,2,0,P|449:112|483:186,1,170,2|2,0:0|0:0,0:0:0:0:
442,260,108057,2,0,L|434:355,1,85,10|0,0:0|0:0,0:0:0:0:
356,311,108330,2,0,P|335:352|308:381,1,85,4|0,0:0|0:0,0:0:0:0:
257,313,108602,2,0,P|218:338|180:349,1,85,8|0,0:0|0:0,0:0:0:0:
133,279,108875,2,0,P|87:281|48:272,1,85,0|0,0:0|0:0,0:0:0:0:
48,187,109148,2,0,P|20:149|11:110,1,85,8|0,0:0|0:0,0:0:0:0:
115,107,109420,38,0,B|175:97|175:97|289:120,1,170,4|8,0:0|0:0,0:0:0:0:
303,201,109830,2,0,P|289:148|372:65,1,170,2|0,0:0|0:0,0:0:0:0:
431,18,110239,2,0,P|445:71|362:154,1,170,10|0,0:0|0:0,0:0:0:0:
382,237,110648,2,0,B|322:227|322:227|208:250,1,170,10|0,0:0|0:0,0:0:0:0:
116,278,111057,2,0,P|114:235|124:194,1,85,10|0,0:0|0:0,0:0:0:0:
219,154,111330,2,0,P|229:195|227:237,1,85,10|0,0:0|0:0,0:0:0:0:
208,337,111602,6,0,P|295:319|391:324,1,170,4|8,0:0|0:0,0:0:0:0:
458,343,112011,2,0,B|465:288|425:254|425:254|418:213|431:183,1,170,2|0,0:0|0:0,0:0:0:0:
474,111,112420,2,0,P|406:157|330:129,1,170,10|0,0:0|0:0,0:0:0:0:
277,61,112830,2,0,B|219:37|219:37|112:52,1,170,10|0,0:0|0:0,0:0:0:0:
41,125,113239,2,0,P|31:168|34:209,1,85,10|0,0:0|0:0,0:0:0:0:
155,270,113511,2,0,P|157:227|147:186,1,85,10|0,0:0|0:0,0:0:0:0:
63,296,113784,70,0,B|40:330|40:330|32:373,2,85,6|2|10,0:0|0:0|0:0,0:0:0:0:
165,285,114193,2,0,P|258:269|332:277,1,170,2|0,0:0|0:0,0:0:0:0:
413,238,114602,2,0,B|435:203|435:203|443:160,2,85,10|2|2,0:0|0:0|0:0,0:0:0:0:
355,170,115011,2,0,B|379:47|379:47|392:72|414:83,1,170,10|0,0:0|0:0,0:0:0:0:
458,9,115420,2,0,L|374:25,1,85,4|0,0:0|0:0,0:0:0:0:
292,50,115693,2,0,L|208:34,1,85,12|0,0:0|0:0,0:0:0:0:
112,0,115966,38,0,P|158:67|130:143,1,170,4|8,0:0|0:0,0:0:0:0:
63,196,116375,2,0,B|124:180|124:180|232:200,1,170,4|8,0:0|0:0,0:0:0:0:
294,274,116784,2,0,B|233:290|233:290|125:270,1,170,4|0,0:0|0:0,0:0:0:0:
36,287,117193,2,0,L|46:384,1,85,0|0,0:0|0:0,0:0:0:0:
129,360,117466,2,0,L|221:378,1,85,0|0,0:0|0:0,0:0:0:0:
296,359,117739,2,0,P|337:351|390:356,2,85,8|8|8,0:0|0:0|0:0,0:0:0:0:
275,274,118148,22,0,B|265:207,2,56.6666666666667,8|8|8,0:2|0:2|0:2,0:0:0:0:
232,263,118420,2,0,B|222:193|222:193|237:136,1,113.333333333333,4|0,0:0|0:0,0:0:0:0:
259,78,118693,1,4,0:2:0:0:
256,192,118761,12,0,122443,0:0:0:0:
