osu file format v14

[General]
AudioFilename: audio.mp3
AudioLeadIn: 0
PreviewTime: 74542
Countdown: 0
SampleSet: Soft
StackLeniency: 0.7
Mode: 3
LetterboxInBreaks: 0
SpecialStyle: 0
WidescreenStoryboard: 0

[Editor]
DistanceSpacing: 0.5
BeatDivisor: 4
GridSize: 32
TimelineZoom: 1.6

[Metadata]
Title:Prayer
TitleUnicode:Prayer
Artist:penoreri
ArtistUnicode:ぺのれり
Creator:Wonki
Version:EXHAUST
Source:SOUND VOLTEX III GRAVITY WARS
Tags:Beomsan Exellence Award sdvx 3 The 5th KAC Original Song Contest / The 5th KAC オリジナル楽曲コンテスト konami bemani
BeatmapID:1255368
BeatmapSetID:593370

[Difficulty]
HPDrainRate:8
CircleSize:4
OverallDifficulty:8
ApproachRate:5
SliderMultiplier:1.4
SliderTickRate:1

[Events]
//Background and Video events
0,0,"BG.png",0,0
//Break Periods
//Storyboard Layer 0 (Background)
//Storyboard Layer 1 (Fail)
//Storyboard Layer 2 (Pass)
//Storyboard Layer 3 (Foreground)
//Storyboard Sound Samples

[TimingPoints]
602,416.666666666667,4,2,1,40,1,0
75393,-100,4,2,1,40,0,1
102060,-100,4,2,1,40,0,0

[HitObjects]
448,192,602,5,0,0:0:0:0:
320,192,602,1,0,0:0:0:0:
64,192,706,1,0,0:0:0:0:
320,192,810,1,0,0:0:0:0:
192,192,810,1,0,0:0:0:0:
64,192,914,1,0,0:0:0:0:
448,192,1018,1,0,0:0:0:0:
192,192,1122,1,0,0:0:0:0:
64,192,1122,1,0,0:0:0:0:
320,192,1227,1,0,0:0:0:0:
64,192,1331,1,0,0:0:0:0:
448,192,1435,1,0,0:0:0:0:
320,192,1435,1,0,0:0:0:0:
192,192,1539,1,0,0:0:0:0:
448,192,1643,1,0,0:0:0:0:
192,192,1747,1,0,0:0:0:0:
64,192,1747,1,0,0:0:0:0:
320,192,1852,1,0,0:0:0:0:
64,192,1956,1,0,0:0:0:0:
448,192,2060,1,0,0:0:0:0:
320,192,2060,1,0,0:0:0:0:
192,192,2164,1,0,0:0:0:0:
448,192,2268,1,0,0:0:0:0:
64,192,2372,1,0,0:0:0:0:
320,192,2477,1,0,0:0:0:0:
192,192,2477,1,0,0:0:0:0:
64,192,2581,1,0,0:0:0:0:
320,192,2685,1,0,0:0:0:0:
192,192,2789,1,0,0:0:0:0:
64,192,2789,1,0,0:0:0:0:
448,192,2893,1,0,0:0:0:0:
192,192,2997,1,0,0:0:0:0:
448,192,3102,1,0,0:0:0:0:
320,192,3102,1,0,0:0:0:0:
64,192,3206,1,0,0:0:0:0:
448,192,3310,1,0,0:0:0:0:
320,192,3414,1,0,0:0:0:0:
192,192,3414,1,0,0:0:0:0:
64,192,3518,1,0,0:0:0:0:
448,192,3622,1,0,0:0:0:0:
192,192,3727,1,0,0:0:0:0:
64,192,3727,1,0,0:0:0:0:
320,192,3831,1,0,0:0:0:0:
192,192,3935,1,0,0:0:0:0:
448,192,4039,1,0,0:0:0:0:
64,192,4143,1,0,0:0:0:0:
192,192,4143,1,0,0:0:0:0:
320,192,4247,1,0,0:0:0:0:
64,192,4352,1,0,0:0:0:0:
320,192,4456,1,0,0:0:0:0:
448,192,4456,1,0,0:0:0:0:
192,192,4560,1,0,0:0:0:0:
448,192,4664,1,0,0:0:0:0:
192,192,4768,1,0,0:0:0:0:
64,192,4768,1,0,0:0:0:0:
320,192,4872,1,0,0:0:0:0:
64,192,4977,1,0,0:0:0:0:
448,192,5081,1,0,0:0:0:0:
320,192,5081,1,0,0:0:0:0:
192,192,5185,1,0,0:0:0:0:
448,192,5289,1,0,0:0:0:0:
192,192,5393,1,0,0:0:0:0:
64,192,5393,1,0,0:0:0:0:
320,192,5497,1,0,0:0:0:0:
64,192,5602,1,0,0:0:0:0:
448,192,5602,128,0,6018:0:0:0:0:
320,192,5706,1,0,0:0:0:0:
192,192,5810,1,0,0:0:0:0:
64,192,5810,1,0,0:0:0:0:
320,192,5914,1,0,0:0:0:0:
192,192,6018,1,0,0:0:0:0:
448,192,6122,128,0,6643:0:0:0:0:
320,192,6122,1,0,0:0:0:0:
64,192,6227,1,0,0:0:0:0:
320,192,6331,1,0,0:0:0:0:
64,192,6435,1,0,0:0:0:70:twinkling.wav
192,192,6435,1,0,0:0:0:0:
320,192,6539,1,0,0:0:0:0:
64,192,6643,128,0,6747:0:0:0:0:
192,192,6643,128,0,6747:0:0:0:0:
320,192,6852,1,0,0:0:0:0:
448,192,6852,128,0,7268:0:0:0:0:
192,192,7268,128,2,8831:0:0:0:0:
64,192,7268,128,0,9143:0:0:0:70:Cymbol.wav
320,192,7268,128,0,8727:0:0:0:0:
448,192,8102,128,0,8622:0:0:0:0:
448,192,8727,128,0,9039:0:0:0:0:
320,192,8831,128,0,9039:0:0:0:0:
192,192,8935,128,0,9143:0:0:0:0:
448,192,9143,1,2,0:0:0:0:
320,192,9213,1,2,0:0:0:0:
192,192,9282,1,2,0:0:0:0:
64,192,9352,1,2,0:0:0:0:
320,192,9352,1,0,0:0:0:0:
448,192,9352,1,0,0:0:0:70:soft-hitfinish.wav
64,192,9560,1,0,0:0:0:70:HihaT.wav
192,192,9560,1,0,0:0:0:0:
192,192,9768,128,2,9977:0:0:0:0:
320,192,9768,128,0,9977:0:0:0:0:
320,192,10081,1,2,0:0:0:0:
448,192,10081,1,0,0:0:0:0:
448,192,10393,1,0,0:0:0:70:Cymbol.wav
192,192,10393,128,0,10706:0:0:0:0:
64,192,10393,128,2,10706:0:0:0:0:
320,192,10706,1,2,0:0:0:0:
448,192,10706,1,0,0:0:0:0:
192,192,10810,1,2,0:0:0:0:
64,192,10810,1,0,0:0:0:0:
448,192,10914,1,0,0:0:0:0:
320,192,10914,1,2,0:0:0:0:
64,192,11018,1,0,0:0:0:0:
192,192,11018,1,2,0:0:0:0:
448,192,11088,1,2,0:0:0:0:
320,192,11157,1,2,0:0:0:0:
192,192,11227,1,2,0:0:0:0:
448,192,11296,1,2,0:0:0:0:
320,192,11365,1,2,0:0:0:0:
192,192,11435,1,2,0:0:0:0:
64,192,11435,1,0,0:0:0:0:
320,192,11643,1,0,0:0:0:0:
192,192,11695,1,0,0:0:0:0:
64,192,11747,1,0,0:0:0:0:
448,192,11747,1,2,0:0:0:0:
192,192,11852,1,0,0:0:0:0:
320,192,11921,1,2,0:0:0:0:
448,192,11921,1,0,0:0:0:0:
64,192,11990,1,0,0:0:0:0:
192,192,11990,1,2,0:0:0:0:
320,192,12060,1,2,0:0:0:0:
448,192,12060,1,0,0:0:0:0:
64,192,12129,1,0,0:0:0:0:
320,192,12199,1,0,0:0:0:0:
192,192,12268,1,2,0:0:0:0:
64,192,12268,1,4,0:0:0:0:
448,192,12268,1,0,0:0:0:0:
320,192,12338,1,0,0:0:0:0:
192,192,12407,1,0,0:0:0:0:
64,192,12477,1,0,0:0:0:0:
320,192,12581,1,2,0:0:0:0:
448,192,12581,1,0,0:0:0:0:
192,192,12685,1,2,0:0:0:0:
64,192,12685,1,0,0:0:0:0:
320,192,12754,1,2,0:0:0:0:
448,192,12754,1,0,0:0:0:0:
64,192,12824,1,0,0:0:0:0:
192,192,12824,1,2,0:0:0:0:
448,192,12893,128,0,13102:0:0:0:0:
320,192,12893,1,2,0:0:0:0:
192,192,12963,1,2,0:0:0:0:
64,192,13032,1,2,0:0:0:0:
192,192,13102,128,2,13310:0:0:0:0:
320,192,13102,128,0,13310:0:0:0:70:Cymbol.wav
320,192,13414,128,2,13622:0:0:0:0:
64,192,13414,128,0,13622:0:0:0:0:
192,192,13727,128,0,13935:0:0:0:0:
448,192,13727,128,2,13935:0:0:0:0:
64,192,13727,1,0,0:0:0:70:Cymbol.wav
320,192,13935,1,0,0:0:0:0:
64,192,14004,1,0,0:0:0:0:
448,192,14074,1,0,0:0:0:0:
192,192,14143,1,0,0:0:0:0:
320,192,14213,1,0,0:0:0:0:
448,192,14282,1,0,0:0:0:0:
64,192,14352,1,0,0:0:0:70:HihaT.wav
192,192,14421,1,0,0:0:0:0:
320,192,14490,1,0,0:0:0:0:
448,192,14560,1,0,0:0:0:0:
192,192,14629,1,2,0:0:0:0:
64,192,14629,1,0,0:0:0:0:
320,192,14699,1,2,0:0:0:0:
448,192,14699,1,0,0:0:0:0:
192,192,14768,1,2,0:0:0:0:
64,192,14768,1,0,0:0:0:0:
448,192,14838,1,0,0:0:0:0:
320,192,14907,1,0,0:0:0:0:
192,192,14977,1,0,0:0:0:0:
448,192,15046,1,0,0:0:0:0:
320,192,15046,1,2,0:0:0:0:
64,192,15115,1,0,0:0:0:0:
192,192,15185,1,0,0:0:0:0:
320,192,15254,1,0,0:0:0:0:
448,192,15324,1,0,0:0:0:0:
192,192,15393,1,2,0:0:0:0:
64,192,15393,1,0,0:0:0:0:
320,192,15463,1,0,0:0:0:0:
448,192,15532,1,0,0:0:0:0:
64,192,15602,128,2,16122:0:0:0:0:
192,192,15602,128,0,15810:0:0:0:0:
448,192,15914,128,0,16227:0:0:0:0:
320,192,15914,1,2,0:0:0:0:
192,192,15966,1,2,0:0:0:0:
320,192,16018,1,2,0:0:0:0:
64,192,16227,1,0,0:0:0:0:
192,192,16227,1,2,0:0:0:0:
320,192,16331,1,2,0:0:0:0:
448,192,16331,1,0,0:0:0:0:
64,192,16435,128,0,16643:0:0:0:70:HihaT.wav
192,192,16435,128,2,16643:0:0:0:0:
320,192,16643,1,0,0:0:0:0:
448,192,16643,1,0,0:0:0:0:
192,192,16747,1,0,0:0:0:0:
64,192,16747,1,0,0:0:0:0:
320,192,16852,128,2,17268:0:1:0:0:
448,192,16852,128,0,17546:0:0:0:0:
192,192,17060,128,2,17164:0:0:0:0:
64,192,17060,128,0,17164:0:0:0:0:
64,192,17268,128,2,17546:0:0:0:0:
192,192,17407,1,2,0:0:0:0:
320,192,17407,1,0,0:0:0:0:
192,192,17546,1,2,0:0:0:0:
320,192,17546,1,0,0:0:0:0:
64,192,17685,1,2,0:0:0:0:
448,192,17685,1,0,0:0:0:0:
192,192,17824,1,2,0:0:0:0:
320,192,17824,1,0,0:0:0:0:
192,192,17963,1,2,0:0:0:0:
320,192,17963,1,0,0:0:0:0:
64,192,18102,1,2,0:0:0:0:
448,192,18102,1,0,0:0:0:0:
320,192,18240,1,0,0:0:0:0:
64,192,18240,1,2,0:0:0:0:
192,192,18379,1,0,0:0:0:0:
64,192,18379,1,2,0:0:0:0:
320,192,18518,1,2,0:0:0:0:
448,192,18518,1,0,0:0:0:0:
64,192,18657,1,2,0:0:0:0:
192,192,18657,1,0,0:0:0:0:
320,192,18796,1,2,0:0:0:0:
448,192,18796,1,0,0:0:0:0:
192,192,18935,128,0,19143:0:0:0:0:
64,192,18935,128,2,19143:0:0:0:0:
64,192,19247,128,2,19456:0:0:0:0:
320,192,19247,128,0,19456:0:0:0:0:
448,192,19560,128,0,20081:0:0:0:0:
192,192,19560,128,2,20081:0:0:0:0:
64,192,19977,128,0,20081:0:0:0:70:HihaT.wav
320,192,19977,128,0,20081:0:0:0:0:
64,192,20185,1,2,0:0:0:0:
192,192,20185,1,0,0:0:0:70:snare.wav
448,192,20185,1,0,0:0:0:0:
320,192,20185,1,0,0:0:0:0:
192,192,20602,1,2,0:0:0:0:
448,192,20602,1,0,0:0:0:0:
64,192,20706,1,0,0:0:0:0:
448,192,20810,1,0,0:0:0:70:HihaT.wav
320,192,20914,1,0,0:0:0:0:
192,192,21018,1,2,0:0:0:0:
64,192,21018,1,0,0:0:0:0:
448,192,21122,1,0,0:0:0:0:
320,192,21227,1,0,0:0:0:70:HihaT.wav
192,192,21331,1,0,0:0:0:0:
64,192,21435,1,2,0:0:0:0:
448,192,21435,1,0,0:0:0:0:
320,192,21539,1,0,0:0:0:0:
64,192,21643,1,0,0:0:0:70:HihaT.wav
448,192,21747,1,0,0:0:0:0:
448,192,21852,1,2,0:0:0:0:
192,192,21852,1,0,0:0:0:0:
64,192,21956,1,0,0:0:0:0:
320,192,22060,1,0,0:0:0:70:HihaT.wav
448,192,22164,1,0,0:0:0:0:
192,192,22268,1,2,0:0:0:0:
64,192,22268,1,0,0:0:0:0:
320,192,22372,1,0,0:0:0:0:
64,192,22477,1,0,0:0:0:70:HihaT.wav
448,192,22581,1,0,0:0:0:0:
192,192,22685,1,2,0:0:0:0:
64,192,22685,1,0,0:0:0:0:
320,192,22789,1,2,0:0:0:0:
448,192,22789,1,0,0:0:0:0:
64,192,22893,1,0,0:0:0:0:
192,192,22893,1,2,0:0:0:0:
320,192,22963,1,2,0:0:0:0:
448,192,22963,1,0,0:0:0:0:
192,192,23032,1,2,0:0:0:0:
64,192,23032,1,0,0:0:0:0:
320,192,23102,1,2,0:0:0:0:
448,192,23102,1,0,0:0:0:70:soft-hitfinish.wav
64,192,23310,1,2,0:0:0:0:
192,192,23414,1,2,0:0:0:0:
320,192,23414,1,0,0:0:0:0:
448,192,23414,1,0,0:0:0:0:
320,192,23622,1,0,0:0:0:0:
192,192,23727,128,0,24143:0:0:0:0:
64,192,23727,128,0,24143:0:0:0:70:Cymbol.wav
448,192,23727,1,2,0:0:0:0:
448,192,24143,1,0,0:0:0:70:HihaT.wav
320,192,24213,1,0,0:0:0:0:
192,192,24282,1,0,0:0:0:0:
64,192,24352,1,0,0:0:0:0:
448,192,24352,1,2,0:0:0:0:
320,192,24456,1,0,0:0:0:0:
192,192,24456,1,0,0:0:0:0:
448,192,24560,128,0,24768:0:0:0:70:HihaT.wav
64,192,24560,1,0,0:0:0:0:
192,192,24664,1,0,0:0:0:0:
320,192,24768,1,2,0:0:0:0:
64,192,24872,1,0,0:0:0:0:
320,192,24977,1,0,0:0:0:70:HihaT.wav
448,192,24977,128,0,25185:0:0:0:0:
192,192,25081,1,0,0:0:0:0:
64,192,25185,1,2,0:0:0:0:
320,192,25289,1,0,0:0:0:0:
64,192,25393,128,0,25602:0:0:0:70:HihaT.wav
448,192,25393,1,0,0:0:0:0:
320,192,25497,1,0,0:0:0:0:
192,192,25602,1,2,0:0:0:0:
448,192,25706,1,0,0:0:0:0:
64,192,25810,128,0,26018:0:0:0:0:
320,192,25810,1,0,0:0:0:70:HihaT.wav
192,192,25914,1,0,0:0:0:0:
448,192,26018,1,2,0:0:0:0:
320,192,26018,1,0,0:0:0:0:
192,192,26122,1,0,0:0:0:0:
64,192,26227,1,4,0:0:0:0:
448,192,26227,1,2,0:0:0:0:
320,192,26296,1,2,0:0:0:0:
192,192,26296,1,0,0:0:0:0:
64,192,26365,1,0,0:0:0:0:
448,192,26365,1,2,0:0:0:0:
192,192,26435,1,0,0:0:0:0:
320,192,26435,1,2,0:0:0:0:
320,192,26643,1,2,0:0:0:0:
448,192,26747,1,2,0:0:0:0:
192,192,26747,1,0,0:0:0:0:
64,192,26747,1,4,0:0:0:0:
64,192,27060,1,2,0:0:0:0:
192,192,27060,1,0,0:0:0:0:
320,192,27060,128,0,27372:0:0:0:0:
448,192,27060,128,0,27372:0:0:0:70:Cymbol.wav
192,192,27372,1,0,0:0:0:0:
64,192,27477,1,0,0:0:0:70:HihaT.wav
448,192,27581,1,0,0:0:0:0:
64,192,27685,1,2,0:0:0:0:
320,192,27685,1,0,0:0:0:0:
448,192,27789,1,0,0:0:0:0:
192,192,27893,1,0,0:0:0:70:HihaT.wav
320,192,27997,1,0,0:0:0:0:
64,192,28102,1,0,0:0:0:0:
448,192,28102,1,2,0:0:0:0:
192,192,28171,1,0,0:0:0:0:
320,192,28240,1,0,0:0:0:0:
64,192,28310,1,0,0:0:0:70:HihaT.wav
192,192,28379,1,0,0:0:0:0:
320,192,28449,1,0,0:0:0:0:
64,192,28518,1,2,0:0:0:0:
448,192,28518,1,0,0:0:0:0:
320,192,28588,1,0,0:0:0:0:
192,192,28657,1,0,0:0:0:0:
448,192,28727,1,0,0:0:0:70:HihaT.wav
320,192,28796,1,0,0:0:0:0:
192,192,28865,1,0,0:0:0:0:
64,192,28935,1,0,0:0:0:0:
448,192,28935,1,2,0:0:0:0:
192,192,29004,1,0,0:0:0:0:
320,192,29074,1,0,0:0:0:0:
64,192,29143,1,0,0:0:0:0:
448,192,29143,1,2,0:0:0:0:
192,192,29213,1,0,0:0:0:0:
320,192,29213,1,2,0:0:0:0:
64,192,29282,1,0,0:0:0:0:
448,192,29282,1,2,0:0:0:0:
192,192,29352,1,0,0:0:0:0:
320,192,29352,1,2,0:0:0:0:
192,192,29456,1,0,0:0:0:0:
320,192,29456,1,2,0:0:0:0:
64,192,29560,1,0,0:0:0:0:
448,192,29560,1,2,0:0:0:0:
320,192,29629,1,2,0:0:0:0:
192,192,29699,1,2,0:0:0:0:
64,192,29768,1,2,0:0:0:0:
448,192,29768,1,4,0:0:0:0:
320,192,29768,1,0,0:0:0:0:
64,192,30081,1,0,0:0:0:0:
192,192,30081,1,2,0:0:0:0:
448,192,30185,1,4,0:0:0:0:
320,192,30185,1,2,0:0:0:0:
64,192,30393,1,0,0:0:0:70:Cymbol.wav
192,192,30393,1,2,0:0:0:0:
320,192,30393,128,0,31018:0:0:0:0:
448,192,30393,128,0,31018:0:0:0:0:
64,192,30810,1,2,0:0:0:0:
64,192,31018,1,2,0:0:0:0:
192,192,31018,1,0,0:0:0:70:HihaT.wav
320,192,31227,1,2,0:0:0:0:
448,192,31227,1,0,0:0:0:0:
64,192,31296,1,2,0:0:0:0:
192,192,31365,1,2,0:0:0:0:
320,192,31435,1,2,0:0:0:0:
448,192,31435,1,0,0:0:0:0:
192,192,31539,1,2,0:0:0:0:
64,192,31539,1,0,0:0:0:0:
448,192,31643,1,0,0:0:0:0:
320,192,31643,1,2,0:0:0:0:
192,192,31747,1,2,0:0:0:0:
64,192,31747,1,0,0:0:0:0:
192,192,31852,1,2,0:0:0:0:
448,192,31852,1,0,0:0:0:0:
320,192,31956,1,2,0:0:0:0:
64,192,31956,1,0,0:0:0:0:
192,192,32060,1,2,0:0:0:0:
448,192,32060,128,0,32268:0:0:0:70:HihaT.wav
320,192,32268,1,0,0:0:0:70:HihaT.wav
64,192,32268,1,2,0:0:0:0:
192,192,32268,1,4,0:0:0:0:
64,192,32633,1,0,0:0:0:0:
192,192,32685,1,0,0:0:0:0:
320,192,32685,1,0,0:0:0:0:
448,192,32685,1,0,0:0:0:70:twinkling.wav
64,192,33102,1,0,0:0:0:0:
448,192,33310,1,0,0:0:0:0:
320,192,33518,1,0,0:0:0:0:
192,192,33727,1,0,0:0:0:0:
64,192,33935,1,0,0:0:0:0:
448,192,33935,1,0,0:0:0:0:
320,192,34143,1,0,0:0:0:0:
192,192,34352,1,0,0:0:0:0:
64,192,34352,128,0,34664:0:0:0:0:
320,192,34664,1,0,0:0:0:0:
448,192,34664,1,0,0:0:0:0:
448,192,34768,1,0,0:0:0:0:
320,192,34768,128,0,34977:0:0:0:0:
64,192,34977,128,0,35289:0:0:0:0:
192,192,35081,128,0,35393:0:0:0:0:
320,192,35185,128,0,35497:0:0:0:0:
448,192,35289,128,0,35497:0:0:0:0:
64,192,35393,1,0,0:0:0:0:
192,192,35497,1,0,0:0:0:0:
448,192,35602,1,0,0:0:0:0:
320,192,35602,1,0,0:0:0:0:
64,192,35810,1,0,0:0:0:0:
192,192,35914,1,0,0:0:0:0:
320,192,36018,1,0,0:0:0:0:
64,192,36122,1,0,0:0:0:0:
448,192,36227,1,0,0:0:0:0:
192,192,36331,1,0,0:0:0:0:
320,192,36435,1,0,0:0:0:0:
448,192,36435,1,0,0:0:0:0:
64,192,36539,1,0,0:0:0:0:
192,192,36643,1,0,0:0:0:0:
448,192,36747,1,0,0:0:0:0:
320,192,36852,1,0,0:0:0:0:
192,192,36956,1,0,0:0:0:0:
64,192,37060,1,0,0:0:0:0:
448,192,37164,1,0,0:0:0:0:
192,192,37268,1,0,0:0:0:0:
64,192,37268,128,0,37997:0:0:0:0:
320,192,37477,1,0,0:0:0:0:
448,192,37581,1,0,0:0:0:0:
192,192,37685,1,0,0:0:0:0:
448,192,37789,1,0,0:0:0:0:
192,192,37893,1,0,0:0:0:0:
320,192,37997,1,0,0:0:0:0:
448,192,38102,1,0,0:0:0:0:
64,192,38102,128,0,38518:0:0:0:0:
192,192,38206,1,0,0:0:0:0:
320,192,38310,1,0,0:0:0:0:
192,192,38414,1,0,0:0:0:0:
320,192,38518,1,0,0:0:0:0:
448,192,38518,128,0,38935:0:0:0:0:
64,192,38622,1,0,0:0:0:0:
192,192,38727,1,0,0:0:0:0:
320,192,38831,1,0,0:0:0:0:
64,192,38935,128,0,39352:0:0:0:0:
192,192,38935,1,0,0:0:0:0:
448,192,39039,1,0,0:0:0:0:
320,192,39143,1,0,0:0:0:0:
192,192,39247,1,0,0:0:0:0:
448,192,39352,128,0,39560:0:0:0:0:
320,192,39352,1,0,0:0:0:0:
192,192,39456,1,0,0:0:0:0:
64,192,39560,128,0,39768:0:0:0:0:
320,192,39560,1,0,0:0:0:0:
448,192,39664,1,0,0:0:0:0:
192,192,39768,1,0,0:0:0:0:
320,192,39768,128,0,40185:0:0:0:0:
64,192,39872,1,0,0:0:0:0:
448,192,39977,1,0,0:0:0:0:
192,192,40081,1,0,0:0:0:0:
64,192,40185,1,0,0:0:0:0:
448,192,40185,128,0,40602:0:0:0:0:
64,192,40602,128,0,40914:0:0:0:0:
192,192,40602,1,0,0:0:0:0:
448,192,40914,1,0,0:0:0:0:
64,192,41018,1,0,0:0:0:0:
320,192,41018,128,0,41227:0:0:0:0:
64,192,41227,1,0,0:0:0:0:
192,192,41227,1,0,0:0:0:0:
192,192,41435,1,0,0:0:0:0:
448,192,41435,128,0,41643:0:0:0:0:
320,192,41643,1,0,0:0:0:0:
192,192,41852,128,0,42060:0:0:0:0:
64,192,41852,1,0,0:0:0:0:
448,192,42060,1,0,0:0:0:0:
192,192,42268,1,0,0:0:0:0:
320,192,42268,128,0,42546:0:0:0:0:
64,192,42546,1,2,0:0:0:0:
192,192,42546,1,0,0:0:0:0:
320,192,42615,1,2,0:0:0:0:
448,192,42615,1,0,0:0:0:0:
64,192,42685,1,0,0:0:0:70:snare.wav
192,192,42685,128,2,43102:0:0:0:0:
448,192,43102,1,0,0:0:0:0:
320,192,43102,128,0,43518:0:0:0:0:
64,192,43518,1,0,0:0:0:0:
192,192,43553,1,0,0:0:0:0:
320,192,43588,1,0,0:0:0:0:
448,192,43622,1,0,0:0:0:0:
64,192,43657,1,0,0:0:0:0:
192,192,43692,1,0,0:0:0:0:
320,192,43727,1,0,0:0:0:0:
448,192,43761,1,0,0:0:0:0:
64,192,43796,1,0,0:0:0:0:
192,192,43831,1,0,0:0:0:0:
320,192,43865,1,0,0:0:0:0:
448,192,43900,1,0,0:0:0:0:
64,192,43935,128,2,45602:0:0:0:0:
192,192,43935,128,4,44352:0:0:0:0:
448,192,44352,1,0,0:0:0:0:
320,192,44456,1,0,0:0:0:0:
192,192,44560,1,0,0:0:0:0:
320,192,44664,1,0,0:0:0:0:
448,192,44768,1,0,0:0:0:0:
192,192,44872,1,0,0:0:0:0:
320,192,44977,1,0,0:0:0:0:
448,192,45081,1,0,0:0:0:0:
192,192,45185,1,0,0:0:0:0:
320,192,45289,1,0,0:0:0:0:
448,192,45393,1,0,0:0:0:0:
192,192,45497,1,0,0:0:0:0:
320,192,45602,1,0,0:0:0:0:
448,192,45602,1,0,0:0:0:0:
192,192,45706,1,0,0:0:0:0:
64,192,45810,1,0,0:0:0:0:
320,192,45914,1,0,0:0:0:0:
64,192,46018,1,0,0:0:0:0:
448,192,46018,1,0,0:0:0:0:
192,192,46122,1,0,0:0:0:0:
320,192,46227,1,0,0:0:0:0:
64,192,46331,1,2,0:0:0:0:
448,192,46331,1,0,0:0:0:0:
192,192,46383,1,2,0:0:0:0:
320,192,46435,1,2,0:0:0:0:
448,192,46435,1,0,0:0:0:0:
64,192,46643,1,2,0:0:0:0:
192,192,46643,128,0,46852:0:0:0:0:
320,192,46747,128,0,46956:0:0:0:0:
448,192,46852,128,0,47060:0:0:0:0:
64,192,46852,128,0,46956:0:0:0:0:
192,192,46956,128,0,47060:0:0:0:0:
64,192,47060,1,2,0:0:0:0:
320,192,47060,128,0,47164:0:0:0:0:
192,192,47164,1,2,0:0:0:0:
448,192,47164,128,0,47268:0:0:0:0:
320,192,47268,1,0,0:0:0:0:
64,192,47268,1,2,0:0:0:0:
192,192,47581,1,0,0:0:0:0:
64,192,47581,1,0,0:0:0:0:
448,192,47633,1,0,0:0:0:0:
64,192,47685,1,0,0:0:0:0:
320,192,47685,1,0,0:0:0:0:
192,192,48102,1,0,0:0:0:0:
448,192,48102,1,0,0:0:0:0:
320,192,48518,1,0,0:0:0:0:
64,192,48518,1,0,0:0:0:0:
320,192,48883,1,0,0:0:0:0:
192,192,48935,1,0,0:0:0:0:
64,192,48935,1,0,0:0:0:70:HihaT.wav
448,192,48935,1,0,0:0:0:0:
64,192,49352,1,0,0:0:0:0:
448,192,49352,1,0,0:0:0:0:
192,192,49560,1,0,0:0:0:0:
64,192,49768,1,0,0:0:0:0:
320,192,49768,1,0,0:0:0:0:
448,192,50185,1,0,0:0:0:0:
64,192,50602,1,0,0:0:0:0:
448,192,50602,1,0,0:0:0:10:Cymbol.wav
192,192,50706,1,0,0:0:0:0:
320,192,50810,1,0,0:0:0:0:
448,192,50914,1,0,0:0:0:0:
192,192,51018,1,0,0:0:0:0:
64,192,51018,1,0,0:0:0:0:
192,192,51227,1,0,0:0:0:0:
448,192,51227,1,0,0:0:0:0:
320,192,51331,1,0,0:0:0:0:
448,192,51435,1,0,0:0:0:0:
320,192,51643,1,0,0:0:0:0:
192,192,51852,1,0,0:0:0:0:
64,192,52060,1,0,0:0:0:0:
192,192,52268,1,0,0:0:0:0:
448,192,52268,1,0,0:0:0:0:
320,192,52372,1,0,0:0:0:0:
64,192,52477,1,0,0:0:0:0:
192,192,52581,1,0,0:0:0:0:
320,192,52685,1,0,0:0:0:0:
448,192,52685,1,0,0:0:0:0:
320,192,52893,1,0,0:0:0:0:
64,192,52893,1,0,0:0:0:0:
192,192,52997,1,0,0:0:0:0:
64,192,53102,1,0,0:0:0:0:
448,192,53310,1,0,0:0:0:0:
320,192,53379,1,0,0:0:0:0:
192,192,53449,1,0,0:0:0:0:
448,192,53518,1,0,0:0:0:0:
64,192,53518,1,0,0:0:0:0:
320,192,53727,1,0,0:0:0:0:
64,192,53831,1,2,0:0:0:0:
192,192,53831,1,0,0:0:0:0:
320,192,53883,1,2,0:0:0:0:
448,192,53883,1,0,0:0:0:0:
64,192,53935,1,2,0:0:0:0:
192,192,53935,1,0,0:0:0:0:
64,192,54247,1,2,0:0:0:0:
192,192,54247,1,0,0:0:0:0:
192,192,54352,1,0,0:0:0:70:Cymbol.wav
448,192,54352,1,0,0:0:0:0:
64,192,54352,1,2,0:0:0:0:
320,192,54352,1,0,0:0:0:0:
448,192,54664,1,0,0:0:0:0:
320,192,54664,1,2,0:0:0:0:
192,192,54716,1,2,0:0:0:0:
64,192,54716,1,0,0:0:0:0:
448,192,54768,1,0,0:0:0:0:
320,192,54768,1,2,0:0:0:0:
64,192,55081,1,0,0:0:0:0:
320,192,55081,1,2,0:0:0:0:
320,192,55185,1,2,0:0:0:0:
448,192,55185,1,0,0:0:0:0:
64,192,55185,1,0,0:0:0:0:
192,192,55185,1,0,0:0:0:70:Cymbol.wav
64,192,55602,1,0,0:0:0:0:
192,192,55602,1,0,0:0:0:0:
448,192,55602,1,0,0:0:0:0:
320,192,55706,1,0,0:0:0:0:
192,192,55810,1,0,0:0:0:0:
320,192,55914,1,0,0:0:0:0:
448,192,56018,1,0,0:0:0:0:
64,192,56018,1,0,0:0:0:0:
192,192,56227,1,0,0:0:0:0:
448,192,56227,1,0,0:0:0:0:
192,192,56435,1,2,0:0:0:0:
64,192,56435,128,0,56852:0:0:0:0:
192,192,56852,1,0,0:0:0:0:
320,192,56852,1,0,0:0:0:70:snare.wav
448,192,56852,1,2,0:0:0:0:
64,192,57268,1,4,0:0:0:0:
320,192,57268,1,0,0:0:0:0:
448,192,57268,1,2,0:0:0:0:
192,192,57477,1,2,0:0:0:0:
64,192,57477,1,0,0:0:0:0:
320,192,57581,1,2,0:0:0:0:
448,192,57581,1,0,0:0:0:0:
320,192,57789,1,0,0:0:0:0:
192,192,57789,1,2,0:0:0:0:
64,192,57893,1,2,0:0:0:0:
448,192,57893,1,0,0:0:0:0:
320,192,58102,1,2,0:0:0:0:
448,192,58102,1,0,0:0:0:0:
192,192,58206,1,2,0:0:0:0:
64,192,58206,1,0,0:0:0:0:
64,192,58414,1,2,0:0:0:0:
320,192,58414,1,0,0:0:0:0:
192,192,58518,128,2,58935:0:0:0:0:
448,192,58518,128,4,58935:0:0:0:0:
320,192,58935,1,2,0:0:0:0:
64,192,58935,1,4,0:0:0:0:
320,192,59143,1,2,0:0:0:0:
448,192,59143,1,0,0:0:0:0:
192,192,59247,1,2,0:0:0:0:
64,192,59247,1,0,0:0:0:0:
64,192,59456,1,0,0:0:0:0:
448,192,59456,1,2,0:0:0:0:
192,192,59560,1,0,0:0:0:0:
320,192,59560,1,2,0:0:0:0:
64,192,59768,1,2,0:0:0:0:
192,192,59768,1,0,0:0:0:0:
320,192,59872,1,2,0:0:0:0:
448,192,59872,1,0,0:0:0:0:
64,192,60081,1,2,0:0:0:0:
320,192,60081,1,0,0:0:0:0:
192,192,60185,1,2,0:0:0:0:
448,192,60185,1,0,0:0:0:0:
320,192,60393,1,2,0:0:0:0:
192,192,60393,1,0,0:0:0:0:
64,192,60602,1,4,0:0:0:0:
320,192,60602,1,0,0:0:0:0:
448,192,60602,1,2,0:0:0:0:
64,192,60810,1,0,0:0:0:0:
192,192,60810,1,2,0:0:0:0:
320,192,60914,1,2,0:0:0:0:
448,192,60914,1,0,0:0:0:0:
192,192,61122,1,2,0:0:0:0:
320,192,61122,1,0,0:0:0:0:
64,192,61227,1,2,0:0:0:0:
448,192,61227,1,0,0:0:0:0:
320,192,61435,1,0,0:0:0:0:
448,192,61435,1,0,0:0:0:0:
192,192,61539,1,2,0:0:0:0:
64,192,61539,1,0,0:0:0:0:
64,192,61747,1,4,0:0:0:0:
320,192,61747,1,2,0:0:0:0:
192,192,61852,1,2,0:0:0:0:
448,192,61852,1,4,0:0:0:0:
320,192,61921,1,2,0:0:0:0:
64,192,61990,1,2,0:0:0:0:
192,192,62060,1,2,0:0:0:0:
448,192,62129,1,2,0:0:0:0:
320,192,62199,1,2,0:0:0:0:
192,192,62268,1,2,0:0:0:0:
64,192,62268,128,4,62685:0:0:0:0:
320,192,62581,1,0,0:0:0:0:
448,192,62685,128,0,62997:0:0:0:0:
192,192,62893,1,2,0:0:0:0:
320,192,62997,1,2,0:0:0:0:
192,192,63102,1,4,0:0:0:0:
448,192,63102,1,2,0:0:0:0:
64,192,63102,128,0,63518:0:0:0:0:
448,192,63414,1,2,0:0:0:0:
320,192,63466,1,2,0:0:0:0:
192,192,63518,128,2,63935:0:0:0:0:
448,192,63622,1,2,0:0:0:0:
64,192,63727,1,0,0:0:0:0:
320,192,63727,1,2,0:0:0:0:
64,192,63935,1,2,0:0:0:0:
320,192,63935,1,0,0:0:0:0:
448,192,63935,1,0,0:0:0:70:Cymbol.wav
192,192,64039,1,0,0:0:0:0:
320,192,64143,1,2,0:0:0:0:
448,192,64143,1,0,0:0:0:0:
64,192,64247,1,0,0:0:0:0:
192,192,64247,1,2,0:0:0:0:
448,192,64352,1,0,0:0:0:0:
320,192,64456,1,2,0:0:0:0:
64,192,64456,1,0,0:0:0:0:
192,192,64560,1,0,0:0:0:0:
448,192,64560,1,2,0:0:0:0:
64,192,64664,1,0,0:0:0:0:
320,192,64768,1,2,0:0:0:0:
448,192,64768,1,0,0:0:0:0:
192,192,64872,1,2,0:0:0:0:
64,192,64872,1,0,0:0:0:0:
320,192,64977,1,0,0:0:0:0:
448,192,65081,1,0,0:0:0:0:
64,192,65081,1,2,0:0:0:0:
192,192,65185,1,2,0:0:0:0:
320,192,65185,1,4,0:0:0:0:
64,192,65289,1,0,0:0:0:0:
448,192,65393,1,0,0:0:0:0:
192,192,65497,1,0,0:0:0:0:
64,192,65602,1,2,0:0:0:0:
448,192,65602,1,0,0:0:0:0:
320,192,65602,1,4,0:0:0:0:
192,192,65706,1,0,0:0:0:0:
64,192,65810,1,2,0:0:0:0:
448,192,65810,1,0,0:0:0:0:
320,192,65914,1,0,0:0:0:0:
192,192,65914,1,2,0:0:0:0:
448,192,66018,1,0,0:0:0:0:
64,192,66122,1,0,0:0:0:0:
192,192,66122,1,2,0:0:0:0:
320,192,66227,1,2,0:0:0:0:
448,192,66227,1,0,0:0:0:0:
64,192,66331,1,0,0:0:0:0:
192,192,66435,1,0,0:0:0:0:
448,192,66435,1,2,0:0:0:0:
320,192,66539,1,2,0:0:0:0:
64,192,66539,1,0,0:0:0:0:
448,192,66643,1,0,0:0:0:0:
192,192,66747,1,0,0:0:0:0:
64,192,66747,1,2,0:0:0:0:
320,192,66852,1,2,0:0:0:0:
448,192,66852,1,0,0:0:0:0:
192,192,66956,1,0,0:0:0:0:
64,192,67060,1,0,0:0:0:0:
448,192,67060,1,0,0:0:0:0:
320,192,67164,1,0,0:0:0:0:
192,192,67268,1,0,0:0:0:0:
64,192,67268,1,2,0:0:0:0:
448,192,67268,1,4,0:0:0:0:
320,192,67372,1,0,0:0:0:0:
64,192,67477,1,0,0:0:0:0:
192,192,67477,1,2,0:0:0:0:
320,192,67581,1,2,0:0:0:0:
448,192,67581,1,0,0:0:0:0:
64,192,67685,1,0,0:0:0:0:
192,192,67789,1,2,0:0:0:0:
448,192,67789,1,0,0:0:0:0:
320,192,67893,1,0,0:0:0:0:
64,192,67893,1,2,0:0:0:0:
448,192,67997,1,0,0:0:0:0:
192,192,68102,1,2,0:0:0:0:
64,192,68102,1,0,0:0:0:0:
320,192,68206,1,2,0:0:0:0:
448,192,68206,1,0,0:0:0:0:
64,192,68310,1,0,0:0:0:0:
320,192,68414,1,2,0:0:0:0:
448,192,68414,1,0,0:0:0:0:
192,192,68518,1,2,0:0:0:0:
64,192,68518,1,4,0:0:0:0:
320,192,68622,1,2,0:0:0:0:
448,192,68622,1,0,0:0:0:0:
64,192,68727,1,2,0:0:0:0:
192,192,68727,1,0,0:0:0:0:
448,192,68831,1,2,0:0:0:0:
320,192,68831,1,0,0:0:0:0:
64,192,68935,128,4,69768:0:0:0:0:
192,192,68935,128,2,69560:0:0:0:0:
448,192,69247,1,2,0:0:0:0:
448,192,69560,128,0,69664:0:0:0:0:
320,192,69664,128,0,69768:0:0:0:0:
448,192,69768,1,0,0:0:0:0:
192,192,69768,128,4,70185:0:0:0:0:
320,192,70185,128,0,70602:0:0:0:70:HihaT.wav
448,192,70185,1,0,0:0:0:0:
64,192,70393,1,2,0:0:0:0:
192,192,70497,1,2,0:0:0:0:
64,192,70602,1,2,0:0:0:0:
448,192,70602,128,4,71018:0:0:0:0:
320,192,70914,1,2,0:0:0:0:
64,192,71018,128,0,71435:0:0:0:0:
320,192,71227,1,2,0:0:0:0:
192,192,71331,1,2,0:0:0:0:
320,192,71435,128,2,71852:0:0:0:0:
448,192,71435,1,4,0:0:0:0:
64,192,71747,1,2,0:0:0:0:
448,192,71852,128,4,72268:0:0:0:0:
192,192,71852,1,2,0:0:0:0:
320,192,72060,1,0,0:0:0:0:
192,192,72268,1,4,0:0:0:0:
64,192,72268,1,2,0:0:0:0:
320,192,72372,1,0,0:0:0:0:
192,192,72424,1,0,0:0:0:0:
64,192,72477,1,0,0:0:0:0:
192,192,72581,1,0,0:0:0:0:
320,192,72685,1,0,0:0:0:0:
448,192,72789,1,0,0:0:0:0:
192,192,72893,1,0,0:0:0:0:
320,192,72997,1,0,0:0:0:0:
448,192,73102,1,0,0:0:0:0:
64,192,73102,1,0,0:0:0:0:
192,192,73206,1,0,0:0:0:0:
320,192,73310,1,0,0:0:0:0:
448,192,73414,1,0,0:0:0:0:
64,192,73518,1,0,0:0:0:0:
192,192,73622,1,0,0:0:0:0:
320,192,73727,1,0,0:0:0:0:
448,192,73831,1,0,0:0:0:0:
64,192,73935,128,0,74247:0:0:0:70:HihaT.wav
192,192,73935,128,0,74247:0:0:0:0:
192,192,74352,1,0,0:0:0:0:
64,192,74352,1,2,0:0:0:0:
448,192,74352,1,0,0:0:0:50:snare.wav
320,192,74421,1,0,0:0:0:0:
64,192,74490,1,0,0:0:0:0:
192,192,74560,1,0,0:0:0:0:
448,192,74560,1,0,0:0:0:0:
320,192,74664,1,0,0:0:0:0:
192,192,74768,1,0,0:0:0:0:
64,192,74768,1,0,0:0:0:0:
448,192,74838,1,0,0:0:0:0:
192,192,74907,1,0,0:0:0:0:
320,192,74977,1,0,0:0:0:0:
64,192,75046,1,0,0:0:0:0:
192,192,75115,1,0,0:0:0:0:
448,192,75115,1,0,0:0:0:0:
320,192,75185,1,0,0:0:0:0:
64,192,75393,1,2,0:0:0:0:
192,192,75393,1,0,0:0:0:0:
320,192,75393,128,0,75810:0:0:0:70:Cymbol.wav
448,192,75393,128,0,75810:0:0:0:0:
64,192,75810,1,0,0:0:0:0:
192,192,75810,1,2,0:0:0:0:
320,192,75879,1,0,0:0:0:0:
448,192,75949,1,0,0:0:0:0:
64,192,76018,1,4,0:0:0:0:
192,192,76018,1,2,0:0:0:0:
320,192,76088,1,0,0:0:0:0:
64,192,76157,1,0,0:0:0:0:
320,192,76227,1,0,0:0:0:0:
448,192,76227,1,0,0:0:0:0:
192,192,76331,1,0,0:0:0:0:
448,192,76435,128,0,76747:0:0:0:0:
64,192,76435,128,2,76747:0:0:0:0:
192,192,76747,1,2,0:0:0:0:
320,192,76852,1,2,0:0:0:0:
448,192,76852,1,4,0:0:0:0:
64,192,76852,1,0,0:0:0:0:
192,192,77060,128,2,77477:0:0:0:0:
320,192,77060,128,0,77477:0:0:0:0:
64,192,77477,1,0,0:0:0:0:
448,192,77477,1,2,0:0:0:0:
192,192,77546,1,0,0:0:0:0:
320,192,77615,1,0,0:0:0:0:
64,192,77685,1,4,0:0:0:0:
448,192,77685,1,2,0:0:0:0:
192,192,77789,1,0,0:0:0:0:
320,192,77789,1,0,0:0:0:0:
64,192,77893,1,0,0:0:0:0:
448,192,77893,1,0,0:0:0:0:
320,192,77997,1,0,0:0:0:0:
192,192,78102,128,0,78414:0:0:0:0:
64,192,78102,128,2,78414:0:0:0:0:
320,192,78414,1,2,0:0:0:0:
192,192,78518,1,2,0:0:0:0:
64,192,78518,1,4,0:0:0:0:
448,192,78518,1,0,0:0:0:0:
64,192,78727,128,0,79143:0:0:0:0:
448,192,78727,128,2,79143:0:0:0:0:
192,192,79143,1,0,0:0:0:0:
320,192,79143,1,2,0:0:0:0:
448,192,79247,1,0,0:0:0:0:
192,192,79352,1,2,0:0:0:0:
320,192,79352,1,0,0:0:0:0:
64,192,79352,1,4,0:0:0:0:
448,192,79456,1,0,0:0:0:0:
64,192,79560,1,0,0:0:0:0:
192,192,79664,1,0,0:0:0:0:
320,192,79768,128,2,80081:0:0:0:0:
448,192,79768,128,0,80081:0:0:0:0:
192,192,80081,1,2,0:0:0:0:
64,192,80185,1,0,0:0:0:0:
320,192,80185,1,2,0:0:0:0:
448,192,80185,1,4,0:0:0:0:
192,192,80289,1,0,0:0:0:0:
320,192,80393,128,2,80810:0:0:0:0:
64,192,80393,128,0,80810:0:0:0:0:
192,192,80810,1,2,0:0:0:0:
448,192,80810,1,0,0:0:0:0:
320,192,80879,1,0,0:0:0:0:
192,192,80949,1,0,0:0:0:0:
64,192,81018,1,2,0:0:0:0:
448,192,81018,1,4,0:0:0:0:
320,192,81088,1,0,0:0:0:0:
192,192,81157,1,0,0:0:0:0:
64,192,81227,1,0,0:0:0:0:
448,192,81227,1,0,0:0:0:0:
192,192,81331,1,0,0:0:0:0:
64,192,81435,128,0,81747:0:0:0:0:
320,192,81435,128,2,81747:0:0:0:0:
448,192,81747,1,2,0:0:0:0:
320,192,81852,1,2,0:0:0:0:
192,192,81852,1,4,0:0:0:0:
64,192,81852,1,0,0:0:0:0:
192,192,82060,128,2,82477:0:0:0:0:
448,192,82060,128,0,82477:0:0:0:0:
320,192,82477,1,0,0:0:0:0:
64,192,82477,1,2,0:0:0:0:
192,192,82546,1,0,0:0:0:0:
320,192,82615,1,0,0:0:0:0:
448,192,82685,1,4,0:0:0:0:
64,192,82685,1,2,0:0:0:0:
192,192,82754,1,0,0:0:0:0:
320,192,82824,1,0,0:0:0:0:
448,192,82893,1,0,0:0:0:0:
64,192,82893,1,0,0:0:0:0:
192,192,82997,1,0,0:0:0:0:
320,192,83102,128,2,83414:0:0:0:0:
448,192,83102,128,0,83414:0:0:0:0:
192,192,83414,1,2,0:0:0:0:
64,192,83518,1,0,0:0:0:0:
320,192,83518,1,2,0:0:0:0:
448,192,83518,1,4,0:0:0:0:
192,192,83727,128,2,84143:0:0:0:0:
448,192,83727,128,0,84143:0:0:0:0:
320,192,84143,1,0,0:0:0:0:
64,192,84143,1,2,0:0:0:0:
192,192,84213,1,0,0:0:0:0:
320,192,84282,1,0,0:0:0:0:
64,192,84352,1,2,0:0:0:0:
448,192,84352,1,4,0:0:0:0:
320,192,84421,1,0,0:0:0:0:
192,192,84490,1,0,0:0:0:0:
64,192,84560,1,0,0:0:0:0:
448,192,84560,1,0,0:0:0:0:
320,192,84664,1,0,0:0:0:0:
192,192,84768,128,2,85081:0:0:0:0:
64,192,84768,128,0,85081:0:0:0:0:
448,192,85081,1,2,0:0:0:0:
320,192,85185,1,2,0:0:0:0:
192,192,85185,1,4,0:0:0:0:
64,192,85185,1,0,0:0:0:0:
192,192,85393,128,2,85810:0:0:0:0:
448,192,85393,128,0,85810:0:0:0:0:
64,192,85810,1,2,0:0:0:0:
320,192,85810,1,0,0:0:0:0:
192,192,85914,1,0,0:0:0:0:
320,192,86018,1,4,0:0:0:0:
448,192,86018,1,2,0:0:0:0:
64,192,86018,1,0,0:0:0:0:
192,192,86122,1,0,0:0:0:0:
448,192,86227,1,0,0:0:0:0:
320,192,86227,1,0,0:0:0:0:
64,192,86539,1,0,0:0:0:0:
192,192,86643,1,0,0:0:0:0:
320,192,86643,1,2,0:0:0:0:
448,192,86747,1,0,0:0:0:0:
320,192,86852,1,0,0:0:0:0:
192,192,86852,1,2,0:0:0:0:
64,192,86852,1,4,0:0:0:0:
448,192,87060,128,0,87372:0:0:0:0:
64,192,87060,128,2,87372:0:0:0:0:
192,192,87372,1,0,0:0:0:0:
320,192,87477,1,2,0:0:0:0:
448,192,87477,1,0,0:0:0:0:
192,192,87685,1,6,0:0:0:0:
64,192,87685,1,0,0:0:0:0:
448,192,87685,1,0,0:0:0:0:
320,192,87789,1,0,0:0:0:0:
192,192,87893,1,2,0:0:0:0:
64,192,87893,1,0,0:0:0:0:
448,192,87997,1,0,0:0:0:0:
320,192,87997,1,2,0:0:0:0:
64,192,88102,128,2,88414:0:0:0:0:
192,192,88102,1,0,0:0:0:0:
448,192,88206,1,2,0:0:0:0:
192,192,88310,1,2,0:0:0:0:
320,192,88414,1,2,0:0:0:0:
192,192,88518,1,6,0:0:0:0:
64,192,88518,1,0,0:0:0:0:
448,192,88518,1,0,0:0:0:0:
320,192,88727,1,0,0:0:0:0:
448,192,88727,1,0,0:0:0:70:Cymbol.wav
64,192,88727,1,2,0:0:0:0:
192,192,88935,1,0,0:0:0:0:
448,192,89039,1,0,0:0:0:0:
320,192,89143,1,2,0:0:0:0:
192,192,89247,1,0,0:0:0:0:
64,192,89352,1,0,0:0:0:0:
320,192,89352,1,0,0:0:0:0:
448,192,89352,1,6,0:0:0:0:
192,192,89456,1,0,0:0:0:0:
448,192,89560,1,0,0:0:0:0:
64,192,89560,1,0,0:0:0:0:
192,192,89664,1,0,0:0:0:0:
320,192,89664,1,0,0:0:0:0:
64,192,89768,1,2,0:0:0:0:
448,192,89768,1,0,0:0:0:0:
320,192,89872,1,0,0:0:0:0:
192,192,89977,1,0,0:0:0:0:
320,192,90081,1,0,0:0:0:0:
64,192,90081,1,2,0:0:0:0:
448,192,90185,1,0,0:0:0:0:
192,192,90185,1,6,0:0:0:0:
320,192,90289,1,0,0:0:0:0:
192,192,90393,1,0,0:0:0:0:
64,192,90393,1,2,0:0:0:0:
448,192,90497,1,0,0:0:0:0:
320,192,90602,1,0,0:0:0:0:
192,192,90706,1,0,0:0:0:0:
64,192,90810,1,0,0:0:0:0:
448,192,90810,1,2,0:0:0:0:
320,192,90914,1,0,0:0:0:0:
192,192,91018,1,2,0:0:0:0:
64,192,91018,1,4,0:0:0:0:
448,192,91018,1,0,0:0:0:0:
320,192,91122,1,0,0:0:0:0:
64,192,91227,1,0,0:0:0:0:
192,192,91227,1,0,0:0:0:0:
448,192,91331,1,0,0:0:0:0:
320,192,91435,1,2,0:0:0:0:
64,192,91435,1,0,0:0:0:0:
192,192,91539,1,0,0:0:0:0:
320,192,91643,1,0,0:0:0:0:
448,192,91747,1,0,0:0:0:0:
64,192,91747,1,2,0:0:0:0:
192,192,91852,1,2,0:0:0:0:
320,192,91852,1,4,0:0:0:0:
64,192,91956,1,0,0:0:0:0:
320,192,92060,1,0,0:0:0:0:
448,192,92060,1,2,0:0:0:0:
192,192,92164,1,0,0:0:0:0:
64,192,92268,1,0,0:0:0:0:
448,192,92372,1,0,0:0:0:0:
192,192,92477,1,0,0:0:0:0:
64,192,92477,1,2,0:0:0:0:
192,192,92581,1,0,0:0:0:0:
64,192,92581,1,2,0:0:0:0:
320,192,92685,1,2,0:0:0:0:
448,192,92685,1,0,0:0:0:0:
192,192,92789,1,2,0:0:0:0:
64,192,92789,1,0,0:0:0:0:
320,192,92893,1,2,0:0:0:0:
448,192,92893,1,0,0:0:0:0:
192,192,92997,1,2,0:0:0:0:
64,192,92997,1,0,0:0:0:0:
320,192,93102,1,2,0:0:0:0:
448,192,93102,1,0,0:0:0:0:
192,192,93206,1,0,0:0:0:0:
320,192,93310,1,0,0:0:0:0:
448,192,93414,1,2,0:0:0:0:
64,192,93414,1,0,0:0:0:0:
192,192,93518,1,0,0:0:0:0:
320,192,93622,1,0,0:0:0:0:
192,192,93727,1,2,0:0:0:0:
448,192,93727,1,4,0:0:0:0:
64,192,93831,1,0,0:0:0:0:
320,192,93935,1,0,0:0:0:0:
192,192,94039,1,0,0:0:0:0:
64,192,94143,1,2,0:0:0:0:
448,192,94143,1,0,0:0:0:0:
320,192,94247,1,0,0:0:0:0:
192,192,94352,1,0,0:0:0:0:
64,192,94352,1,6,0:0:0:0:
448,192,94352,1,0,0:0:0:0:
320,192,94456,1,0,0:0:0:0:
192,192,94508,1,0,0:0:0:0:
64,192,94560,1,0,0:0:0:0:
448,192,94560,1,0,0:0:0:0:
320,192,94664,1,0,0:0:0:0:
192,192,94768,1,2,0:0:0:0:
64,192,94768,1,0,0:0:0:0:
448,192,94838,1,0,0:0:0:0:
320,192,94907,1,0,0:0:0:0:
192,192,94977,1,0,0:0:0:0:
64,192,95046,1,0,0:0:0:0:
448,192,95115,1,0,0:0:0:0:
192,192,95185,1,0,0:0:0:0:
320,192,95185,1,2,0:0:0:0:
64,192,95254,1,0,0:0:0:0:
448,192,95324,1,0,0:0:0:0:
320,192,95393,1,0,0:0:0:0:
192,192,95393,1,0,0:0:0:0:
64,192,95463,1,0,0:0:0:0:
192,192,95532,1,0,0:0:0:0:
320,192,95602,1,0,0:0:0:0:
448,192,95671,1,0,0:0:0:0:
192,192,95740,1,0,0:0:0:0:
64,192,95810,1,2,0:0:0:0:
448,192,95810,1,0,0:0:0:0:
320,192,95879,1,0,0:0:0:0:
192,192,95949,1,0,0:0:0:0:
64,192,96018,1,6,0:0:0:0:
448,192,96018,1,0,0:0:0:0:
320,192,96088,1,0,0:0:0:0:
192,192,96157,1,0,0:0:0:0:
64,192,96227,1,0,0:0:0:0:
448,192,96227,1,0,0:0:0:0:
320,192,96296,1,0,0:0:0:0:
192,192,96365,1,0,0:0:0:0:
64,192,96435,1,0,0:0:0:0:
320,192,96435,1,2,0:0:0:0:
448,192,96504,1,0,0:0:0:0:
192,192,96574,1,0,0:0:0:0:
320,192,96643,1,0,0:0:0:0:
448,192,96713,1,0,0:0:0:0:
64,192,96782,1,0,0:0:0:0:
192,192,96852,1,0,0:0:0:0:
320,192,96852,1,6,0:0:0:0:
448,192,96921,1,0,0:0:0:0:
192,192,96990,1,0,0:0:0:0:
64,192,97060,1,0,0:0:0:0:
320,192,97060,1,6,0:0:0:0:
448,192,97129,1,0,0:0:0:0:
192,192,97199,1,0,0:0:0:0:
64,192,97268,1,0,0:0:0:0:
448,192,97338,1,0,0:0:0:0:
320,192,97407,1,0,0:0:0:0:
192,192,97477,1,2,0:0:0:0:
64,192,97477,1,0,0:0:0:0:
448,192,97546,1,0,0:0:0:0:
64,192,97615,1,0,0:0:0:0:
192,192,97685,1,0,0:0:0:0:
320,192,97685,1,6,0:0:0:0:
448,192,97754,1,0,0:0:0:0:
64,192,97824,1,0,0:0:0:0:
192,192,97893,1,0,0:0:0:0:
320,192,97963,1,0,0:0:0:0:
448,192,98032,1,0,0:0:0:0:
192,192,98102,1,0,0:0:0:0:
64,192,98102,1,2,0:0:0:0:
320,192,98171,1,0,0:0:0:0:
64,192,98240,1,0,0:0:0:0:
448,192,98310,1,0,0:0:0:0:
192,192,98379,1,0,0:0:0:0:
320,192,98449,1,0,0:0:0:0:
64,192,98518,1,6,0:0:0:0:
192,192,98518,1,0,0:0:0:0:
448,192,98588,1,0,0:0:0:0:
320,192,98657,1,0,0:0:0:0:
192,192,98727,1,0,0:0:0:0:
64,192,98727,128,6,99143:0:0:0:0:
448,192,99143,1,0,0:0:0:0:
320,192,99143,1,2,0:0:0:0:
192,192,99247,1,0,0:0:0:0:
64,192,99352,1,0,0:0:0:0:
448,192,99352,1,0,0:0:0:0:
320,192,99352,1,6,0:0:0:0:
192,192,99456,1,0,0:0:0:0:
64,192,99560,1,0,0:0:0:0:
448,192,99560,128,2,99977:0:0:0:0:
64,192,99977,1,2,0:0:0:0:
192,192,99977,1,0,0:0:0:0:
320,192,100185,1,6,0:0:0:0:
448,192,100185,1,0,0:0:0:0:
64,192,100185,1,0,0:0:0:0:
448,192,100393,1,0,0:0:0:0:
192,192,100393,128,2,100810:0:0:0:0:
320,192,100810,1,2,0:0:0:0:
448,192,100810,1,0,0:0:0:0:
192,192,100914,1,2,0:0:0:0:
64,192,100914,1,0,0:0:0:0:
448,192,101018,1,0,0:0:0:0:
320,192,101018,1,2,0:0:0:0:
192,192,101122,1,2,0:0:0:0:
64,192,101227,1,2,0:0:0:0:
448,192,101227,1,0,0:0:0:0:
320,192,101296,1,2,0:0:0:0:
192,192,101365,1,2,0:0:0:0:
448,192,101435,128,4,101643:0:0:0:0:
64,192,101435,1,2,0:0:0:0:
64,192,101643,1,2,0:0:0:0:
320,192,101643,1,0,0:0:0:0:
192,192,101747,1,2,0:0:0:0:
448,192,101747,1,0,0:0:0:0:
320,192,101956,1,2,0:0:0:0:
448,192,101956,1,0,0:0:0:0:
192,192,102060,1,2,0:0:0:0:
64,192,102060,128,0,103727:0:0:0:70:Cymbol.wav
320,192,102477,1,2,0:0:0:0:
448,192,102477,1,0,0:0:0:0:
192,192,102685,1,6,0:0:0:0:
448,192,102685,1,0,0:0:0:0:
320,192,102893,1,0,0:0:0:0:
192,192,102893,128,0,103102:0:0:0:0:
448,192,103102,128,2,103414:0:0:0:0:
192,192,103414,1,2,0:0:0:0:
320,192,103518,1,2,0:0:0:0:
448,192,103518,1,0,0:0:0:0:
192,192,103727,1,6,0:0:0:0:
448,192,103727,1,0,0:0:0:0:
320,192,103831,1,0,0:0:0:0:
448,192,103935,128,0,104560:0:0:0:0:
64,192,104143,1,0,0:0:0:0:
192,192,104143,1,2,0:0:0:0:
64,192,104352,1,0,0:0:0:0:
320,192,104352,1,6,0:0:0:0:
192,192,104560,128,0,104768:0:0:0:0:
320,192,104560,1,0,0:0:0:0:
64,192,104768,128,0,105081:0:0:0:0:
448,192,104768,1,2,0:0:0:0:
320,192,105081,1,2,0:0:0:0:
448,192,105081,1,0,0:0:0:0:
192,192,105185,1,2,0:0:0:0:
64,192,105185,1,0,0:0:0:0:
320,192,105393,1,0,0:0:0:0:
448,192,105393,1,6,0:0:0:0:
192,192,105393,1,0,0:0:0:0:
64,192,105810,1,0,0:0:0:0:
192,192,105810,1,2,0:0:0:0:
64,192,106018,1,0,0:0:0:0:
320,192,106018,1,6,0:0:0:0:
448,192,106018,1,0,0:0:0:0:
64,192,106227,1,0,0:0:0:0:
192,192,106227,1,2,0:0:0:0:
448,192,106296,1,2,0:0:0:0:
64,192,106365,1,2,0:0:0:0:
320,192,106435,1,2,0:0:0:0:
448,192,106435,1,0,0:0:0:0:
192,192,106539,1,2,0:0:0:0:
64,192,106539,1,0,0:0:0:0:
320,192,106643,1,2,0:0:0:0:
448,192,106643,1,0,0:0:0:0:
192,192,106747,1,2,0:0:0:0:
64,192,106852,1,6,0:0:0:0:
448,192,106852,1,0,0:0:0:0:
320,192,106852,1,0,0:0:0:0:
320,192,107060,128,2,107268:0:0:0:0:
192,192,107060,128,0,107372:0:0:0:0:
448,192,107060,128,0,107581:0:0:0:70:Cymbol.wav
64,192,107060,128,0,107477:0:0:0:0:
320,192,107372,128,0,107685:0:0:0:0:
192,192,107477,128,0,107789:0:0:0:0:
64,192,107581,128,0,107997:0:0:0:0:
448,192,107685,128,0,107893:0:0:0:0:
320,192,107789,128,0,108206:0:0:0:0:
192,192,107893,128,0,108102:0:0:0:0:
448,192,107997,128,0,108414:0:0:0:0:
64,192,108102,128,0,108310:0:0:0:0:
192,192,108206,128,0,108622:0:0:0:0:
320,192,108310,128,0,108518:0:0:0:0:
64,192,108414,128,0,108727:0:0:0:0:
448,192,108518,128,0,108831:0:0:0:0:
320,192,108622,128,0,108935:0:0:0:0:
192,192,108727,128,0,109039:0:0:0:0:
64,192,108831,128,0,109143:0:0:0:0:
448,192,108935,128,0,109247:0:0:0:0:
320,192,109039,128,0,109352:0:0:0:0:
192,192,109143,128,0,109456:0:0:0:0:
64,192,109247,128,0,109664:0:0:0:0:
448,192,109352,128,0,109560:0:0:0:0:
320,192,109456,128,0,109872:0:0:0:0:
192,192,109560,128,0,109768:0:0:0:0:
448,192,109664,128,0,109977:0:0:0:0:
64,192,109768,128,0,110081:0:0:0:0:
192,192,109872,128,0,110185:0:0:0:0:
320,192,109977,128,0,110289:0:0:0:0:
448,192,110081,128,0,110393:0:0:0:0:
64,192,110185,1,0,0:0:0:0:
192,192,110289,1,0,0:0:0:0:
320,192,110393,128,0,110602:0:0:0:0:
192,192,110497,128,0,110706:0:0:0:0:
64,192,110602,128,0,110810:0:0:0:0:
320,192,110706,128,0,110914:0:0:0:0:
192,192,110810,128,0,111018:0:0:0:0:
64,192,110914,128,0,111122:0:0:0:0:
320,192,111018,128,0,111122:0:0:0:0:
192,192,111122,128,0,111227:0:0:0:0:
64,192,111227,128,0,111331:0:0:0:0:
320,192,111331,128,0,111435:0:0:0:0:
192,192,111435,128,0,111539:0:0:0:0:
64,192,111539,128,0,111643:0:0:0:0:
320,192,111643,1,0,0:0:0:0:
192,192,111747,1,0,0:0:0:0:
64,192,111852,1,0,0:0:0:0:
320,192,111956,1,0,0:0:0:0:
192,192,112060,1,0,0:0:0:0:
64,192,112164,1,0,0:0:0:0:
